  0
SECTION
  2
HEADER
  9
$ACADVER
  1
AC1021
  9
$ACADMAINTVER
 70
    50
  9
$DWGCODEPAGE
  3
ANSI_932
  9
$LASTSAVEDBY
  1
佐藤
  9
$INSBASE
 10
0.0
 20
0.0
 30
0.0
  9
$EXTMIN
 10
-0.0678627622655768
 20
-0.0479837712973677
 30
-0.0000000000000053
  9
$EXTMAX
 10
4455.068023548881
 20
3150.04809745881
 30
0.0000000000000099
  9
$LIMMIN
 10
0.0
 20
0.0
  9
$LIMMAX
 10
420.0
 20
297.0
  9
$ORTHOMODE
 70
     0
  9
$REGENMODE
 70
     1
  9
$FILLMODE
 70
     1
  9
$QTEXTMODE
 70
     0
  9
$MIRRTEXT
 70
     0
  9
$LTSCALE
 40
1.0
  9
$ATTMODE
 70
     1
  9
$TEXTSIZE
 40
2.5
  9
$TRACEWID
 40
1.0
  9
$TEXTSTYLE
  7
寸法
  9
$CLAYER
  8
構築
  9
$CELTYPE
  6
ByLayer
  9
$CECOLOR
 62
   256
  9
$CELTSCALE
 40
1.0
  9
$DISPSILH
 70
     0
  9
$DIMSCALE
 40
15.0
  9
$DIMASZ
 40
2.5
  9
$DIMEXO
 40
1.625
  9
$DIMDLI
 40
3.75
  9
$DIMRND
 40
0.0
  9
$DIMDLE
 40
0.0
  9
$DIMEXE
 40
1.25
  9
$DIMTP
 40
0.0
  9
$DIMTM
 40
0.0
  9
$DIMTXT
 40
2.5
  9
$DIMCEN
 40
2.5
  9
$DIMTSZ
 40
0.0
  9
$DIMTOL
 70
     0
  9
$DIMLIM
 70
     0
  9
$DIMTIH
 70
     0
  9
$DIMTOH
 70
     0
  9
$DIMSE1
 70
     0
  9
$DIMSE2
 70
     0
  9
$DIMTAD
 70
     1
  9
$DIMZIN
 70
     8
  9
$DIMBLK
  1

  9
$DIMASO
 70
     1
  9
$DIMSHO
 70
     1
  9
$DIMPOST
  1

  9
$DIMAPOST
  1

  9
$DIMALT
 70
     0
  9
$DIMALTD
 70
     3
  9
$DIMALTF
 40
0.03937007874016
  9
$DIMLFAC
 40
1.0
  9
$DIMTOFL
 70
     1
  9
$DIMTVP
 40
0.0
  9
$DIMTIX
 70
     0
  9
$DIMSOXD
 70
     0
  9
$DIMSAH
 70
     0
  9
$DIMBLK1
  1

  9
$DIMBLK2
  1

  9
$DIMSTYLE
  2
ISO-25
  9
$DIMCLRD
 70
     0
  9
$DIMCLRE
 70
     0
  9
$DIMCLRT
 70
     0
  9
$DIMTFAC
 40
1.0
  9
$DIMGAP
 40
1.625
  9
$DIMJUST
 70
     0
  9
$DIMSD1
 70
     0
  9
$DIMSD2
 70
     0
  9
$DIMTOLJ
 70
     0
  9
$DIMTZIN
 70
     8
  9
$DIMALTZ
 70
     0
  9
$DIMALTTZ
 70
     0
  9
$DIMUPT
 70
     0
  9
$DIMDEC
 70
     2
  9
$DIMTDEC
 70
     2
  9
$DIMALTU
 70
     2
  9
$DIMALTTD
 70
     3
  9
$DIMTXSTY
  7
Standard
  9
$DIMAUNIT
 70
     0
  9
$DIMADEC
 70
     0
  9
$DIMALTRND
 40
0.0
  9
$DIMAZIN
 70
     0
  9
$DIMDSEP
 70
    46
  9
$DIMATFIT
 70
     3
  9
$DIMFRAC
 70
     0
  9
$DIMLDRBLK
  1

  9
$DIMLUNIT
 70
     2
  9
$DIMLWD
 70
    -2
  9
$DIMLWE
 70
    -2
  9
$DIMTMOVE
 70
     0
  9
$DIMFXL
 40
1.0
  9
$DIMFXLON
 70
     0
  9
$DIMJOGANG
 40
1.570796326794896
  9
$DIMTFILL
 70
     0
  9
$DIMTFILLCLR
 70
     0
  9
$DIMARCSYM
 70
     0
  9
$DIMLTYPE
  6

  9
$DIMLTEX1
  6

  9
$DIMLTEX2
  6

  9
$LUNITS
 70
     2
  9
$LUPREC
 70
     4
  9
$SKETCHINC
 40
1.0
  9
$FILLETRAD
 40
28.0
  9
$AUNITS
 70
     0
  9
$AUPREC
 70
     0
  9
$MENU
  1
.
  9
$ELEVATION
 40
0.0
  9
$PELEVATION
 40
0.0
  9
$THICKNESS
 40
0.0
  9
$LIMCHECK
 70
     0
  9
$CHAMFERA
 40
19.0
  9
$CHAMFERB
 40
19.0
  9
$CHAMFERC
 40
0.0
  9
$CHAMFERD
 40
0.0
  9
$SKPOLY
 70
     0
  9
$TDCREATE
 40
2455711.508953565
  9
$TDUCREATE
 40
2455711.133953565
  9
$TDUPDATE
 40
2457368.661248704
  9
$TDUUPDATE
 40
2457368.286248704
  9
$TDINDWG
 40
0.9733121875
  9
$TDUSRTIMER
 40
0.9733120023
  9
$USRTIMER
 70
     1
  9
$ANGBASE
 50
0.0
  9
$ANGDIR
 70
     0
  9
$PDMODE
 70
     0
  9
$PDSIZE
 40
0.0
  9
$PLINEWID
 40
0.0
  9
$SPLFRAME
 70
     0
  9
$SPLINETYPE
 70
     6
  9
$SPLINESEGS
 70
     8
  9
$HANDSEED
  5
11A0
  9
$SURFTAB1
 70
     6
  9
$SURFTAB2
 70
     6
  9
$SURFTYPE
 70
     6
  9
$SURFU
 70
     6
  9
$SURFV
 70
     6
  9
$UCSBASE
  2

  9
$UCSNAME
  2

  9
$UCSORG
 10
0.0
 20
0.0
 30
0.0
  9
$UCSXDIR
 10
1.0
 20
0.0
 30
0.0
  9
$UCSYDIR
 10
0.0
 20
1.0
 30
0.0
  9
$UCSORTHOREF
  2

  9
$UCSORTHOVIEW
 70
     0
  9
$UCSORGTOP
 10
0.0
 20
0.0
 30
0.0
  9
$UCSORGBOTTOM
 10
0.0
 20
0.0
 30
0.0
  9
$UCSORGLEFT
 10
0.0
 20
0.0
 30
0.0
  9
$UCSORGRIGHT
 10
0.0
 20
0.0
 30
0.0
  9
$UCSORGFRONT
 10
0.0
 20
0.0
 30
0.0
  9
$UCSORGBACK
 10
0.0
 20
0.0
 30
0.0
  9
$PUCSBASE
  2

  9
$PUCSNAME
  2

  9
$PUCSORG
 10
0.0
 20
0.0
 30
0.0
  9
$PUCSXDIR
 10
1.0
 20
0.0
 30
0.0
  9
$PUCSYDIR
 10
0.0
 20
1.0
 30
0.0
  9
$PUCSORTHOREF
  2

  9
$PUCSORTHOVIEW
 70
     0
  9
$PUCSORGTOP
 10
0.0
 20
0.0
 30
0.0
  9
$PUCSORGBOTTOM
 10
0.0
 20
0.0
 30
0.0
  9
$PUCSORGLEFT
 10
0.0
 20
0.0
 30
0.0
  9
$PUCSORGRIGHT
 10
0.0
 20
0.0
 30
0.0
  9
$PUCSORGFRONT
 10
0.0
 20
0.0
 30
0.0
  9
$PUCSORGBACK
 10
0.0
 20
0.0
 30
0.0
  9
$USERI1
 70
     0
  9
$USERI2
 70
     0
  9
$USERI3
 70
     0
  9
$USERI4
 70
     0
  9
$USERI5
 70
     0
  9
$USERR1
 40
0.0
  9
$USERR2
 40
0.0
  9
$USERR3
 40
0.0
  9
$USERR4
 40
0.0
  9
$USERR5
 40
0.0
  9
$WORLDVIEW
 70
     1
  9
$SHADEDGE
 70
     3
  9
$SHADEDIF
 70
    70
  9
$TILEMODE
 70
     1
  9
$MAXACTVP
 70
    64
  9
$PINSBASE
 10
0.0
 20
0.0
 30
0.0
  9
$PLIMCHECK
 70
     0
  9
$PEXTMIN
 10
1.000000000000000E+20
 20
1.000000000000000E+20
 30
1.000000000000000E+20
  9
$PEXTMAX
 10
-1.000000000000000E+20
 20
-1.000000000000000E+20
 30
-1.000000000000000E+20
  9
$PLIMMIN
 10
0.0
 20
0.0
  9
$PLIMMAX
 10
420.0
 20
297.0
  9
$UNITMODE
 70
     0
  9
$VISRETAIN
 70
     1
  9
$PLINEGEN
 70
     0
  9
$PSLTSCALE
 70
     1
  9
$TREEDEPTH
 70
  3020
  9
$CMLSTYLE
  2
Standard
  9
$CMLJUST
 70
     0
  9
$CMLSCALE
 40
20.0
  9
$PROXYGRAPHICS
 70
     1
  9
$MEASUREMENT
 70
     1
  9
$CELWEIGHT
370
    -1
  9
$ENDCAPS
280
     0
  9
$JOINSTYLE
280
     0
  9
$LWDISPLAY
290
     0
  9
$INSUNITS
 70
     4
  9
$HYPERLINKBASE
  1

  9
$STYLESHEET
  1

  9
$XEDIT
290
     1
  9
$CEPSNTYPE
380
     0
  9
$PSTYLEMODE
290
     1
  9
$FINGERPRINTGUID
  2
{B7F2F6F7-088E-48A0-8545-691322D26F8A}
  9
$VERSIONGUID
  2
{66F50770-9827-4AD7-873C-D176D05AC218}
  9
$EXTNAMES
290
     1
  9
$PSVPSCALE
 40
0.0
  9
$OLESTARTUP
290
     0
  9
$SORTENTS
280
   127
  9
$INDEXCTL
280
     0
  9
$HIDETEXT
280
     1
  9
$XCLIPFRAME
290
     0
  9
$HALOGAP
280
     0
  9
$OBSCOLOR
 70
   257
  9
$OBSLTYPE
280
     0
  9
$INTERSECTIONDISPLAY
280
     0
  9
$INTERSECTIONCOLOR
 70
   257
  9
$DIMASSOC
280
     2
  9
$PROJECTNAME
  1

  9
$CAMERADISPLAY
290
     0
  9
$LENSLENGTH
 40
50.0
  9
$CAMERAHEIGHT
 40
0.0
  9
$STEPSPERSEC
 40
2.0
  9
$STEPSIZE
 40
6.0
  9
$3DDWFPREC
 40
2.0
  9
$PSOLWIDTH
 40
0.25
  9
$PSOLHEIGHT
 40
4.0
  9
$LOFTANG1
 40
1.570796326794896
  9
$LOFTANG2
 40
1.570796326794896
  9
$LOFTMAG1
 40
0.0
  9
$LOFTMAG2
 40
0.0
  9
$LOFTPARAM
 70
     7
  9
$LOFTNORMALS
280
     1
  9
$LATITUDE
 40
37.795
  9
$LONGITUDE
 40
-122.394
  9
$NORTHDIRECTION
 40
0.0
  9
$TIMEZONE
 70
 -8000
  9
$LIGHTGLYPHDISPLAY
280
     1
  9
$TILEMODELIGHTSYNCH
280
     1
  9
$CMATERIAL
347
11
  9
$SOLIDHIST
280
     1
  9
$SHOWHIST
280
     1
  9
$DWFFRAME
280
     2
  9
$DGNFRAME
280
     0
  9
$REALWORLDSCALE
290
     1
  9
$INTERFERECOLOR
 62
     1
  9
$INTERFEREOBJVS
345
33
  9
$INTERFEREVPVS
346
141
  9
$CSHADOW
280
     0
  9
$SHADOWPLANELOCATION
 40
0.0
  0
ENDSEC
  0
SECTION
  2
CLASSES
  0
CLASS
  1
ACDBDICTIONARYWDFLT
  2
AcDbDictionaryWithDefault
  3
ObjectDBX Classes
 90
        0
 91
        1
280
     0
281
     0
  0
CLASS
  1
MATERIAL
  2
AcDbMaterial
  3
ObjectDBX Classes
 90
     1153
 91
        3
280
     0
281
     0
  0
CLASS
  1
VISUALSTYLE
  2
AcDbVisualStyle
  3
ObjectDBX Classes
 90
     4095
 91
       26
280
     0
281
     0
  0
CLASS
  1
SCALE
  2
AcDbScale
  3
ObjectDBX Classes
 90
     1153
 91
       17
280
     0
281
     0
  0
CLASS
  1
TABLESTYLE
  2
AcDbTableStyle
  3
ObjectDBX Classes
 90
     4095
 91
        1
280
     0
281
     0
  0
CLASS
  1
MLEADERSTYLE
  2
AcDbMLeaderStyle
  3
ACDB_MLEADERSTYLE_CLASS
 90
     4095
 91
        1
280
     0
281
     0
  0
CLASS
  1
DICTIONARYVAR
  2
AcDbDictionaryVar
  3
ObjectDBX Classes
 90
        0
 91
        5
280
     0
281
     0
  0
CLASS
  1
SORTENTSTABLE
  2
AcDbSortentsTable
  3
ObjectDBX Classes
 90
        0
 91
        1
280
     0
281
     0
  0
CLASS
  1
CELLSTYLEMAP
  2
AcDbCellStyleMap
  3
ObjectDBX Classes
 90
     1152
 91
        1
280
     0
281
     0
  0
CLASS
  1
DIMASSOC
  2
AcDbDimAssoc
  3
"AcDbDimAssoc|Product Desc:     AcDim ARX App For Dimension|Company:          Autodesk, Inc.|WEB Address:      www.autodesk.com"
 90
        0
 91
       28
280
     0
281
     0
  0
CLASS
  1
MULTILEADER
  2
AcDbMLeader
  3
ACDB_MLEADER_CLASS
 90
     1025
 91
       24
280
     0
281
     1
  0
ENDSEC
  0
SECTION
  2
TABLES
  0
TABLE
  2
VPORT
  5
8
330
0
100
AcDbSymbolTable
 70
     1
  0
VPORT
  5
52
330
8
100
AcDbSymbolTableRecord
100
AcDbViewportTableRecord
  2
*Active
 70
     0
 10
0.0
 20
0.0
 11
1.0
 21
1.0
 12
2227.500080393308
 22
1575.000056843756
 13
0.0
 23
0.0
 14
10.0
 24
10.0
 15
10.0
 25
10.0
 16
0.0
 26
0.0
 36
1.0
 17
0.0
 27
0.0
 37
0.0
 40
3174.051184509424
 41
2.295685279187817
 42
50.0
 43
0.0
 44
0.0
 50
0.0
 51
0.0
 71
     0
 72
  1000
 73
     1
 74
     3
 75
     0
 76
     0
 77
     0
 78
     0
281
     0
 65
     1
110
0.0
120
0.0
130
0.0
111
1.0
121
0.0
131
0.0
112
0.0
122
1.0
132
0.0
 79
     0
146
0.0
348
2F
 60
     2
 61
     5
292
     1
282
     1
141
0.0
142
0.0
 63
   250
421
  3355443
1001
ACAD_NAV_VCDISPLAY
1070
     3
  0
ENDTAB
  0
TABLE
  2
LTYPE
  5
5
330
0
100
AcDbSymbolTable
 70
    15
  0
LTYPE
  5
56
330
5
100
AcDbSymbolTableRecord
100
AcDbLinetypeTableRecord
  2
ByBlock
 70
     0
  3

 72
    65
 73
     0
 40
0.0
  0
LTYPE
  5
57
330
5
100
AcDbSymbolTableRecord
100
AcDbLinetypeTableRecord
  2
ByLayer
 70
     0
  3

 72
    65
 73
     0
 40
0.0
  0
LTYPE
  5
58
330
5
100
AcDbSymbolTableRecord
100
AcDbLinetypeTableRecord
  2
Continuous
 70
     0
  3
Solid line
 72
    65
 73
     0
 40
0.0
  0
LTYPE
  5
7A
330
5
100
AcDbSymbolTableRecord
100
AcDbLinetypeTableRecord
  2
ACAD_ISO02W100
 70
     0
  3
ISO dash __ __ __ __ __ __ __ __ __ __ __ __ __
 72
    65
 73
     2
 40
15.0
 49
12.0
 74
     0
 49
-3.0
 74
     0
  0
LTYPE
  5
7B
330
5
100
AcDbSymbolTableRecord
100
AcDbLinetypeTableRecord
  2
ACAD_ISO03W100
 70
     0
  3
ISO dash space __    __    __    __    __    __
 72
    65
 73
     2
 40
30.0
 49
12.0
 74
     0
 49
-18.0
 74
     0
  0
LTYPE
  5
7C
330
5
100
AcDbSymbolTableRecord
100
AcDbLinetypeTableRecord
  2
ACAD_ISO04W100
 70
     0
  3
ISO long-dash dot ____ . ____ . ____ . ____ . _
 72
    65
 73
     4
 40
30.0
 49
24.0
 74
     0
 49
-3.0
 74
     0
 49
0.0
 74
     0
 49
-3.0
 74
     0
  0
LTYPE
  5
7D
330
5
100
AcDbSymbolTableRecord
100
AcDbLinetypeTableRecord
  2
ACAD_ISO05W100
 70
     0
  3
ISO long-dash double-dot ____ .. ____ .. ____ .
 72
    65
 73
     6
 40
33.0
 49
24.0
 74
     0
 49
-3.0
 74
     0
 49
0.0
 74
     0
 49
-3.0
 74
     0
 49
0.0
 74
     0
 49
-3.0
 74
     0
  0
LTYPE
  5
7E
330
5
100
AcDbSymbolTableRecord
100
AcDbLinetypeTableRecord
  2
ACAD_ISO06W100
 70
     0
  3
ISO long-dash triple-dot ____ ... ____ ... ____
 72
    65
 73
     8
 40
36.0
 49
24.0
 74
     0
 49
-3.0
 74
     0
 49
0.0
 74
     0
 49
-3.0
 74
     0
 49
0.0
 74
     0
 49
-3.0
 74
     0
 49
0.0
 74
     0
 49
-3.0
 74
     0
  0
LTYPE
  5
7F
330
5
100
AcDbSymbolTableRecord
100
AcDbLinetypeTableRecord
  2
ACAD_ISO07W100
 70
     0
  3
ISO dot . . . . . . . . . . . . . . . . . . . .
 72
    65
 73
     2
 40
3.0
 49
0.0
 74
     0
 49
-3.0
 74
     0
  0
LTYPE
  5
80
330
5
100
AcDbSymbolTableRecord
100
AcDbLinetypeTableRecord
  2
ACAD_ISO08W100
 70
     0
  3
ISO long-dash short-dash ____ __ ____ __ ____ _
 72
    65
 73
     4
 40
36.0
 49
24.0
 74
     0
 49
-3.0
 74
     0
 49
6.0
 74
     0
 49
-3.0
 74
     0
  0
LTYPE
  5
81
330
5
100
AcDbSymbolTableRecord
100
AcDbLinetypeTableRecord
  2
ACAD_ISO09W100
 70
     0
  3
ISO long-dash double-short-dash ____ __ __ ____
 72
    65
 73
     6
 40
45.0
 49
24.0
 74
     0
 49
-3.0
 74
     0
 49
6.0
 74
     0
 49
-3.0
 74
     0
 49
6.0
 74
     0
 49
-3.0
 74
     0
  0
LTYPE
  5
82
330
5
100
AcDbSymbolTableRecord
100
AcDbLinetypeTableRecord
  2
ACAD_ISO10W100
 70
     0
  3
ISO dash dot __ . __ . __ . __ . __ . __ . __ .
 72
    65
 73
     4
 40
18.0
 49
12.0
 74
     0
 49
-3.0
 74
     0
 49
0.0
 74
     0
 49
-3.0
 74
     0
  0
LTYPE
  5
83
330
5
100
AcDbSymbolTableRecord
100
AcDbLinetypeTableRecord
  2
ACAD_ISO11W100
 70
     0
  3
ISO double-dash dot __ __ . __ __ . __ __ . __ _
 72
    65
 73
     6
 40
33.0
 49
12.0
 74
     0
 49
-3.0
 74
     0
 49
12.0
 74
     0
 49
-3.0
 74
     0
 49
0.0
 74
     0
 49
-3.0
 74
     0
  0
LTYPE
  5
84
330
5
100
AcDbSymbolTableRecord
100
AcDbLinetypeTableRecord
  2
ACAD_ISO12W100
 70
     0
  3
ISO dash double-dot __ . . __ . . __ . . __ . .
 72
    65
 73
     6
 40
21.0
 49
12.0
 74
     0
 49
-3.0
 74
     0
 49
0.0
 74
     0
 49
-3.0
 74
     0
 49
0.0
 74
     0
 49
-3.0
 74
     0
  0
LTYPE
  5
85
330
5
100
AcDbSymbolTableRecord
100
AcDbLinetypeTableRecord
  2
ACAD_ISO13W100
 70
     0
  3
ISO double-dash double-dot __ __ . . __ __ . . _
 72
    65
 73
     8
 40
36.0
 49
12.0
 74
     0
 49
-3.0
 74
     0
 49
12.0
 74
     0
 49
-3.0
 74
     0
 49
0.0
 74
     0
 49
-3.0
 74
     0
 49
0.0
 74
     0
 49
-3.0
 74
     0
  0
LTYPE
  5
86
330
5
100
AcDbSymbolTableRecord
100
AcDbLinetypeTableRecord
  2
ACAD_ISO14W100
 70
     0
  3
ISO dash triple-dot __ . . . __ . . . __ . . . _
 72
    65
 73
     8
 40
24.0
 49
12.0
 74
     0
 49
-3.0
 74
     0
 49
0.0
 74
     0
 49
-3.0
 74
     0
 49
0.0
 74
     0
 49
-3.0
 74
     0
 49
0.0
 74
     0
 49
-3.0
 74
     0
  0
LTYPE
  5
87
330
5
100
AcDbSymbolTableRecord
100
AcDbLinetypeTableRecord
  2
ACAD_ISO15W100
 70
     0
  3
ISO double-dash triple-dot __ __ . . . __ __ . .
 72
    65
 73
    10
 40
39.0
 49
12.0
 74
     0
 49
-3.0
 74
     0
 49
12.0
 74
     0
 49
-3.0
 74
     0
 49
0.0
 74
     0
 49
-3.0
 74
     0
 49
0.0
 74
     0
 49
-3.0
 74
     0
 49
0.0
 74
     0
 49
-3.0
 74
     0
  0
ENDTAB
  0
TABLE
  2
LAYER
  5
2
102
{ACAD_XDICTIONARY
360
A1
102
}
330
0
100
AcDbSymbolTable
 70
    14
  0
LAYER
  5
4F
330
2
100
AcDbSymbolTableRecord
100
AcDbLayerTableRecord
  2
0
 70
     0
 62
     7
  6
Continuous
370
    -3
390
F
347
21
  0
LAYER
  5
71
330
2
100
AcDbSymbolTableRecord
100
AcDbLayerTableRecord
  2
表題
 70
     0
 62
     5
  6
Continuous
370
    50
390
F
347
21
1001
AcAecLayerStandard
1000

1000

  0
LAYER
  5
73
330
2
100
AcDbSymbolTableRecord
100
AcDbLayerTableRecord
  2
用紙
 70
     0
 62
     4
  6
Continuous
370
    -3
390
F
347
21
1001
AcAecLayerStandard
1000

1000

  0
LAYER
  5
74
330
2
100
AcDbSymbolTableRecord
100
AcDbLayerTableRecord
  2
輪郭
 70
     0
 62
     5
  6
Continuous
370
    70
390
F
347
21
1001
AcAecLayerStandard
1000

1000

  0
LAYER
  5
75
330
2
100
AcDbSymbolTableRecord
100
AcDbLayerTableRecord
  2
製品
 70
     0
 62
     7
  6
Continuous
370
    25
390
F
347
21
1001
AcAecLayerStandard
1000

1000

  0
LAYER
  5
76
330
2
100
AcDbSymbolTableRecord
100
AcDbLayerTableRecord
  2
寸法
 70
     0
 62
     7
  6
Continuous
370
    13
390
F
347
21
1001
AcAecLayerStandard
1000

1000

  0
LAYER
  5
77
330
2
100
AcDbSymbolTableRecord
100
AcDbLayerTableRecord
  2
中心
 70
     0
 62
     1
  6
ACAD_ISO08W100
370
    13
390
F
347
21
1001
AcAecLayerStandard
1000

1000

  0
LAYER
  5
88
330
2
100
AcDbSymbolTableRecord
100
AcDbLayerTableRecord
  2
鉄筋
 70
     0
 62
     6
  6
ACAD_ISO03W100
370
    25
390
F
347
21
1001
AcAecLayerStandard
1000

1000

  0
LAYER
  5
89
330
2
100
AcDbSymbolTableRecord
100
AcDbLayerTableRecord
  2
構築
 70
     0
 62
     3
  6
Continuous
370
    13
390
F
347
21
1001
AcAecLayerStandard
1000

1000

  0
LAYER
  5
1AB
330
2
100
AcDbSymbolTableRecord
100
AcDbLayerTableRecord
  2
製品2
 70
     0
 62
     7
  6
ACAD_ISO03W100
370
    15
390
F
347
21
1001
AcAecLayerStandard
1000

1000

1001
AcCmTransparency
1071
        0
  0
LAYER
  5
1BE
330
2
100
AcDbSymbolTableRecord
100
AcDbLayerTableRecord
  2
製品1
 70
     0
 62
     7
  6
Continuous
370
    15
390
F
347
21
1001
AcAecLayerStandard
1000

1000

1001
AcCmTransparency
1071
        0
  0
LAYER
  5
237
330
2
100
AcDbSymbolTableRecord
100
AcDbLayerTableRecord
  2
文字
 70
     0
 62
     7
  6
Continuous
370
    25
390
F
347
21
1001
AcAecLayerStandard
1000

1000

1001
AcCmTransparency
1071
        0
  0
LAYER
  5
2AD
330
2
100
AcDbSymbolTableRecord
100
AcDbLayerTableRecord
  2
Defpoints
 70
     0
 62
     7
  6
Continuous
290
     0
370
    -3
390
F
347
21
  0
LAYER
  5
D6F
330
2
100
AcDbSymbolTableRecord
100
AcDbLayerTableRecord
  2
鉄筋2
 70
     0
 62
     6
  6
Continuous
370
    25
390
F
347
21
1001
AcAecLayerStandard
1000

1000

1001
AcCmTransparency
1071
        0
  0
ENDTAB
  0
TABLE
  2
STYLE
  5
3
330
0
100
AcDbSymbolTable
 70
     5
  0
STYLE
  5
50
330
3
100
AcDbSymbolTableRecord
100
AcDbTextStyleTableRecord
  2
Standard
 70
     0
 40
0.0
 41
1.0
 50
0.0
 71
     0
 42
2.5
  3
txt
  4

  0
STYLE
  5
55
330
3
100
AcDbSymbolTableRecord
100
AcDbTextStyleTableRecord
  2
Annotative
 70
     0
 40
0.0
 41
1.0
 50
0.0
 71
     0
 42
0.2
  3
txt
  4

1001
AcadAnnotative
1000
AnnotativeData
1002
{
1070
     1
1070
     1
1002
}
  0
STYLE
  5
79
330
3
100
AcDbSymbolTableRecord
100
AcDbTextStyleTableRecord
  2

 70
     1
 40
0.0
 41
1.0
 50
0.0
 71
     0
 42
2.5
  3
ltypeshp.shx
  4

  0
STYLE
  5
AB
330
3
100
AcDbSymbolTableRecord
100
AcDbTextStyleTableRecord
  2
文字
 70
     0
 40
0.0
 41
1.0
 50
0.0
 71
     0
 42
5.0
  3

  4

1001
ACAD
1000
MS Gothic
1071
    32817
  0
STYLE
  5
DC
330
3
100
AcDbSymbolTableRecord
100
AcDbTextStyleTableRecord
  2
寸法
 70
     0
 40
0.0
 41
1.0
 50
0.0
 71
     0
 42
2.5
  3
isocpeur.ttf
  4

1001
ACAD
1000
ISOCPEUR
1071
       34
  0
ENDTAB
  0
TABLE
  2
VIEW
  5
6
330
0
100
AcDbSymbolTable
 70
     0
  0
ENDTAB
  0
TABLE
  2
UCS
  5
7
330
0
100
AcDbSymbolTable
 70
     0
  0
ENDTAB
  0
TABLE
  2
APPID
  5
9
330
0
100
AcDbSymbolTable
 70
    12
  0
APPID
  5
51
330
9
100
AcDbSymbolTableRecord
100
AcDbRegAppTableRecord
  2
ACAD
 70
     0
  0
APPID
  5
59
330
9
100
AcDbSymbolTableRecord
100
AcDbRegAppTableRecord
  2
AcadAnnotative
 70
     0
  0
APPID
  5
72
330
9
100
AcDbSymbolTableRecord
100
AcDbRegAppTableRecord
  2
AcAecLayerStandard
 70
     0
  0
APPID
  5
DD
330
9
100
AcDbSymbolTableRecord
100
AcDbRegAppTableRecord
  2
AcadAnnoPO
 70
     0
  0
APPID
  5
116
330
9
100
AcDbSymbolTableRecord
100
AcDbRegAppTableRecord
  2
ACAD_MLEADERVER
 70
     0
  0
APPID
  5
12E
330
9
100
AcDbSymbolTableRecord
100
AcDbRegAppTableRecord
  2
ACAD_EXEMPT_FROM_CAD_STANDARDS
 70
     0
  0
APPID
  5
161
330
9
100
AcDbSymbolTableRecord
100
AcDbRegAppTableRecord
  2
ACAD_NAV_VCDISPLAY
 70
     0
  0
APPID
  5
1AC
330
9
100
AcDbSymbolTableRecord
100
AcDbRegAppTableRecord
  2
AcCmTransparency
 70
     0
  0
APPID
  5
2A9
330
9
100
AcDbSymbolTableRecord
100
AcDbRegAppTableRecord
  2
ACAD_DSTYLE_DIMJAG
 70
     0
  0
APPID
  5
2AA
330
9
100
AcDbSymbolTableRecord
100
AcDbRegAppTableRecord
  2
ACAD_DSTYLE_DIMTALN
 70
     0
  0
APPID
  5
81E
330
9
100
AcDbSymbolTableRecord
100
AcDbRegAppTableRecord
  2
ACAD_PSEXT
 70
     0
  0
APPID
  5
839
330
9
100
AcDbSymbolTableRecord
100
AcDbRegAppTableRecord
  2
ACAD_DSTYLE_DIMRADIAL_EXTENSION
 70
     0
  0
ENDTAB
  0
TABLE
  2
DIMSTYLE
  5
A
330
0
100
AcDbSymbolTable
 70
     2
100
AcDbDimStyleTable
 71
     1
340
53
  0
DIMSTYLE
105
53
102
{ACAD_REACTORS
330
2D2
330
2EA
330
330
330
34C
330
395
330
398
330
39E
330
3F9
330
411
330
454
330
46C
330
484
330
4A0
330
5B8
330
604
330
65A
330
676
330
6EA
330
70F
330
72B
330
747
330
78D
330
7A9
330
7FE
330
83A
330
847
330
958
330
970
330
9F9
102
}
330
A
100
AcDbSymbolTableRecord
100
AcDbDimStyleTableRecord
  2
ISO-25
 70
     0
 40
15.0
 41
2.5
 42
1.625
 43
3.75
 44
1.25
 50
90.0
 73
     0
 74
     0
 77
     1
 78
     8
140
2.5
141
2.5
143
0.03937007874016
147
1.625
171
     3
172
     1
271
     2
272
     2
274
     3
283
     0
284
     8
340
50
1001
ACAD_DSTYLE_DIMJAG
1070
   388
1040
1.5
1001
ACAD_DSTYLE_DIMTALN
1070
   392
1070
     0
  0
DIMSTYLE
105
54
330
A
100
AcDbSymbolTableRecord
100
AcDbDimStyleTableRecord
  2
Annotative
 70
     0
340
50
1001
AcadAnnotative
1000
AnnotativeData
1002
{
1070
     1
1070
     1
1002
}
  0
ENDTAB
  0
TABLE
  2
BLOCK_RECORD
  5
1
330
0
100
AcDbSymbolTable
 70
    31
  0
BLOCK_RECORD
  5
67
102
{ACAD_XDICTIONARY
360
9C
102
}
330
1
100
AcDbSymbolTableRecord
100
AcDbBlockTableRecord
  2
*Model_Space
340
6A
 70
     0
280
     1
281
     0
  0
BLOCK_RECORD
  5
63
330
1
100
AcDbSymbolTableRecord
100
AcDbBlockTableRecord
  2
*Paper_Space
340
66
 70
     0
280
     1
281
     0
  0
BLOCK_RECORD
  5
6B
330
1
100
AcDbSymbolTableRecord
100
AcDbBlockTableRecord
  2
*Paper_Space0
340
6E
 70
     0
280
     1
281
     0
  0
BLOCK_RECORD
  5
2D3
330
1
100
AcDbSymbolTableRecord
100
AcDbBlockTableRecord
  2
*D1
340
0
 70
     0
280
     1
281
     0
  0
BLOCK_RECORD
  5
2EB
330
1
100
AcDbSymbolTableRecord
100
AcDbBlockTableRecord
  2
*D2
340
0
 70
     0
280
     1
281
     0
  0
BLOCK_RECORD
  5
331
330
1
100
AcDbSymbolTableRecord
100
AcDbBlockTableRecord
  2
*D3
340
0
 70
     0
280
     1
281
     0
  0
BLOCK_RECORD
  5
34D
330
1
100
AcDbSymbolTableRecord
100
AcDbBlockTableRecord
  2
*D4
340
0
 70
     0
280
     1
281
     0
  0
BLOCK_RECORD
  5
3A1
330
1
100
AcDbSymbolTableRecord
100
AcDbBlockTableRecord
  2
*D5
340
0
 70
     0
280
     1
281
     0
  0
BLOCK_RECORD
  5
3AD
330
1
100
AcDbSymbolTableRecord
100
AcDbBlockTableRecord
  2
*D6
340
0
 70
     0
280
     1
281
     0
  0
BLOCK_RECORD
  5
3C7
330
1
100
AcDbSymbolTableRecord
100
AcDbBlockTableRecord
  2
*D7
340
0
 70
     0
280
     1
281
     0
  0
BLOCK_RECORD
  5
3FA
330
1
100
AcDbSymbolTableRecord
100
AcDbBlockTableRecord
  2
*D8
340
0
 70
     0
280
     1
281
     0
  0
BLOCK_RECORD
  5
412
330
1
100
AcDbSymbolTableRecord
100
AcDbBlockTableRecord
  2
*D9
340
0
 70
     0
280
     1
281
     0
  0
BLOCK_RECORD
  5
455
330
1
100
AcDbSymbolTableRecord
100
AcDbBlockTableRecord
  2
*D10
340
0
 70
     0
280
     1
281
     0
  0
BLOCK_RECORD
  5
46D
330
1
100
AcDbSymbolTableRecord
100
AcDbBlockTableRecord
  2
*D11
340
0
 70
     0
280
     1
281
     0
  0
BLOCK_RECORD
  5
485
330
1
100
AcDbSymbolTableRecord
100
AcDbBlockTableRecord
  2
*D12
340
0
 70
     0
280
     1
281
     0
  0
BLOCK_RECORD
  5
4A1
330
1
100
AcDbSymbolTableRecord
100
AcDbBlockTableRecord
  2
*D13
340
0
 70
     0
280
     1
281
     0
  0
BLOCK_RECORD
  5
5B9
330
1
100
AcDbSymbolTableRecord
100
AcDbBlockTableRecord
  2
*D14
340
0
 70
     0
280
     1
281
     0
  0
BLOCK_RECORD
  5
5EA
330
1
100
AcDbSymbolTableRecord
100
AcDbBlockTableRecord
  2
_DotSmall
340
0
102
{BLKREFS
331
EEC
331
EF7
331
F02
331
F0D
331
F18
331
F23
102
}
 70
     0
280
     1
281
     0
  0
BLOCK_RECORD
  5
605
330
1
100
AcDbSymbolTableRecord
100
AcDbBlockTableRecord
  2
*D16
340
0
 70
     0
280
     1
281
     0
  0
BLOCK_RECORD
  5
65B
330
1
100
AcDbSymbolTableRecord
100
AcDbBlockTableRecord
  2
*D17
340
0
 70
     0
280
     1
281
     0
  0
BLOCK_RECORD
  5
677
330
1
100
AcDbSymbolTableRecord
100
AcDbBlockTableRecord
  2
*D18
340
0
 70
     0
280
     1
281
     0
  0
BLOCK_RECORD
  5
6EB
330
1
100
AcDbSymbolTableRecord
100
AcDbBlockTableRecord
  2
*D19
340
0
 70
     0
280
     1
281
     0
  0
BLOCK_RECORD
  5
710
330
1
100
AcDbSymbolTableRecord
100
AcDbBlockTableRecord
  2
*D20
340
0
 70
     0
280
     1
281
     0
  0
BLOCK_RECORD
  5
72C
330
1
100
AcDbSymbolTableRecord
100
AcDbBlockTableRecord
  2
*D21
340
0
 70
     0
280
     1
281
     0
  0
BLOCK_RECORD
  5
748
330
1
100
AcDbSymbolTableRecord
100
AcDbBlockTableRecord
  2
*D22
340
0
 70
     0
280
     1
281
     0
  0
BLOCK_RECORD
  5
78E
330
1
100
AcDbSymbolTableRecord
100
AcDbBlockTableRecord
  2
*D23
340
0
 70
     0
280
     1
281
     0
  0
BLOCK_RECORD
  5
7AA
330
1
100
AcDbSymbolTableRecord
100
AcDbBlockTableRecord
  2
*D24
340
0
 70
     0
280
     1
281
     0
  0
BLOCK_RECORD
  5
7FF
330
1
100
AcDbSymbolTableRecord
100
AcDbBlockTableRecord
  2
*D25
340
0
 70
     0
280
     1
281
     0
  0
BLOCK_RECORD
  5
83B
330
1
100
AcDbSymbolTableRecord
100
AcDbBlockTableRecord
  2
*D26
340
0
 70
     0
280
     1
281
     0
  0
BLOCK_RECORD
  5
848
330
1
100
AcDbSymbolTableRecord
100
AcDbBlockTableRecord
  2
*D27
340
0
 70
     0
280
     1
281
     0
  0
BLOCK_RECORD
  5
959
330
1
100
AcDbSymbolTableRecord
100
AcDbBlockTableRecord
  2
*D28
340
0
 70
     0
280
     1
281
     0
  0
BLOCK_RECORD
  5
971
330
1
100
AcDbSymbolTableRecord
100
AcDbBlockTableRecord
  2
*D29
340
0
 70
     0
280
     1
281
     0
  0
BLOCK_RECORD
  5
9FC
330
1
100
AcDbSymbolTableRecord
100
AcDbBlockTableRecord
  2
*D30
340
0
 70
     0
280
     1
281
     0
  0
ENDTAB
  0
ENDSEC
  0
SECTION
  2
BLOCKS
  0
BLOCK
  5
68
330
67
100
AcDbEntity
  8
0
100
AcDbBlockBegin
  2
*Model_Space
 70
     0
 10
0.0
 20
0.0
 30
0.0
  3
*Model_Space
  1

  0
ENDBLK
  5
69
330
67
100
AcDbEntity
  8
0
100
AcDbBlockEnd
  0
BLOCK
  5
64
330
63
100
AcDbEntity
 67
     1
  8
0
100
AcDbBlockBegin
  2
*Paper_Space
 70
     0
 10
0.0
 20
0.0
 30
0.0
  3
*Paper_Space
  1

  0
ENDBLK
  5
65
330
63
100
AcDbEntity
 67
     1
  8
0
100
AcDbBlockEnd
  0
BLOCK
  5
6C
330
6B
100
AcDbEntity
 67
     1
  8
0
100
AcDbBlockBegin
  2
*Paper_Space0
 70
     0
 10
0.0
 20
0.0
 30
0.0
  3
*Paper_Space0
  1

  0
ENDBLK
  5
6D
330
6B
100
AcDbEntity
 67
     1
  8
0
100
AcDbBlockEnd
  0
BLOCK
  5
2D4
330
2D3
100
AcDbEntity
  8
0
100
AcDbBlockBegin
  2
*D1
 70
     1
 10
0.0
 20
0.0
 30
0.0
  3
*D1
  1

  0
LINE
  5
E81
330
2D3
100
AcDbEntity
  8
寸法
 62
     0
440
 16777216
370
    -2
100
AcDbLine
 10
1003.75
 20
2396.875
 30
0.0
 11
1003.75
 21
2479.246302162782
 31
0.0
  0
LINE
  5
E82
330
2D3
100
AcDbEntity
  8
寸法
 62
     0
440
 16777216
370
    -2
100
AcDbLine
 10
1373.75
 20
2396.875
 30
0.0
 11
1373.75
 21
2479.246302162782
 31
0.0
  0
LINE
  5
E83
330
2D3
100
AcDbEntity
  8
寸法
 62
     0
440
 16777216
370
    -2
100
AcDbLine
 10
1041.25
 20
2460.496302162781
 30
0.0
 11
1336.249999999999
 21
2460.496302162781
 31
0.0
  0
SOLID
  5
E84
330
2D3
100
AcDbEntity
  8
寸法
 62
     0
440
 16777216
100
AcDbTrace
 10
1041.25
 20
2466.746302162782
 30
0.0
 11
1041.25
 21
2454.246302162781
 31
0.0
 12
1003.75
 22
2460.496302162781
 32
0.0
 13
1003.75
 23
2460.496302162781
 33
0.0
  0
SOLID
  5
E85
330
2D3
100
AcDbEntity
  8
寸法
 62
     0
440
 16777216
100
AcDbTrace
 10
1336.249999999999
 20
2466.746302162782
 30
0.0
 11
1336.249999999999
 21
2454.246302162781
 31
0.0
 12
1373.75
 22
2460.496302162781
 32
0.0
 13
1373.75
 23
2460.496302162781
 33
0.0
  0
MTEXT
  5
E86
330
2D3
100
AcDbEntity
  8
寸法
 62
     0
440
 16777216
100
AcDbMText
 10
1188.75
 20
2503.621302162782
 30
0.0
 40
37.5
 41
0.0
 46
0.0
 71
     5
 72
     1
  1
370
 73
     1
 44
1.0
  0
POINT
  5
E87
330
2D3
100
AcDbEntity
  8
Defpoints
 62
     0
440
 16777216
100
AcDbPoint
 10
1003.75
 20
2372.5
 30
0.0
  0
POINT
  5
E88
330
2D3
100
AcDbEntity
  8
Defpoints
 62
     0
440
 16777216
100
AcDbPoint
 10
1373.75
 20
2372.5
 30
0.0
  0
POINT
  5
E89
330
2D3
100
AcDbEntity
  8
Defpoints
 62
     0
440
 16777216
100
AcDbPoint
 10
1373.75
 20
2460.496302162781
 30
0.0
  0
ENDBLK
  5
2D5
330
2D3
100
AcDbEntity
  8
0
100
AcDbBlockEnd
  0
BLOCK
  5
2EC
330
2EB
100
AcDbEntity
  8
0
100
AcDbBlockBegin
  2
*D2
 70
     1
 10
0.0
 20
0.0
 30
0.0
  3
*D2
  1

  0
LINE
  5
E8A
330
2EB
100
AcDbEntity
  8
寸法
 62
     0
440
 16777216
370
    -2
100
AcDbLine
 10
1398.125
 20
2372.5
 30
0.0
 11
1490.95451629386
 21
2372.5
 31
0.0
  0
LINE
  5
E8B
330
2EB
100
AcDbEntity
  8
寸法
 62
     0
440
 16777216
370
    -2
100
AcDbLine
 10
1398.125
 20
2002.5
 30
0.0
 11
1490.95451629386
 21
2002.5
 31
0.0
  0
LINE
  5
E8C
330
2EB
100
AcDbEntity
  8
寸法
 62
     0
440
 16777216
370
    -2
100
AcDbLine
 10
1472.20451629386
 20
2335.0
 30
0.0
 11
1472.20451629386
 21
2040.0
 31
0.0
  0
SOLID
  5
E8D
330
2EB
100
AcDbEntity
  8
寸法
 62
     0
440
 16777216
100
AcDbTrace
 10
1465.95451629386
 20
2335.0
 30
0.0
 11
1478.45451629386
 21
2335.0
 31
0.0
 12
1472.20451629386
 22
2372.5
 32
0.0
 13
1472.20451629386
 23
2372.5
 33
0.0
  0
SOLID
  5
E8E
330
2EB
100
AcDbEntity
  8
寸法
 62
     0
440
 16777216
100
AcDbTrace
 10
1465.95451629386
 20
2040.0
 30
0.0
 11
1478.45451629386
 21
2040.0
 31
0.0
 12
1472.20451629386
 22
2002.5
 32
0.0
 13
1472.20451629386
 23
2002.5
 33
0.0
  0
MTEXT
  5
E8F
330
2EB
100
AcDbEntity
  8
寸法
 62
     0
440
 16777216
100
AcDbMText
 10
1429.07951629386
 20
2187.5
 30
0.0
 40
37.5
 41
0.0
 46
0.0
 71
     5
 72
     1
  1
370
 11
0.0000000000000001
 21
1.0
 31
0.0
 73
     1
 44
1.0
  0
POINT
  5
E90
330
2EB
100
AcDbEntity
  8
Defpoints
 62
     0
440
 16777216
100
AcDbPoint
 10
1373.75
 20
2372.5
 30
0.0
  0
POINT
  5
E91
330
2EB
100
AcDbEntity
  8
Defpoints
 62
     0
440
 16777216
100
AcDbPoint
 10
1373.75
 20
2002.5
 30
0.0
  0
POINT
  5
E92
330
2EB
100
AcDbEntity
  8
Defpoints
 62
     0
440
 16777216
100
AcDbPoint
 10
1472.20451629386
 20
2002.5
 30
0.0
  0
ENDBLK
  5
2ED
330
2EB
100
AcDbEntity
  8
0
100
AcDbBlockEnd
  0
BLOCK
  5
332
330
331
100
AcDbEntity
  8
0
100
AcDbBlockBegin
  2
*D3
 70
     1
 10
0.0
 20
0.0
 30
0.0
  3
*D3
  1

  0
LINE
  5
E93
330
331
100
AcDbEntity
  8
寸法
 62
     0
440
 16777216
370
    -2
100
AcDbLine
 10
1393.125
 20
1787.5
 30
0.0
 11
1460.78975814693
 21
1787.5
 31
0.0
  0
LINE
  5
E94
330
331
100
AcDbEntity
  8
寸法
 62
     0
440
 16777216
370
    -2
100
AcDbLine
 10
1393.125
 20
1837.5
 30
0.0
 11
1460.78975814693
 21
1837.5
 31
0.0
  0
LINE
  5
E95
330
331
100
AcDbEntity
  8
寸法
 62
     0
440
 16777216
370
    -2
100
AcDbLine
 10
1442.03975814693
 20
1750.0
 30
0.0
 11
1442.03975814693
 21
1712.5
 31
0.0
  0
LINE
  5
E96
330
331
100
AcDbEntity
  8
寸法
 62
     0
440
 16777216
370
    -2
100
AcDbLine
 10
1442.03975814693
 20
1875.0
 30
0.0
 11
1442.03975814693
 21
1912.5
 31
0.0
  0
MTEXT
  5
E97
330
331
100
AcDbEntity
  8
寸法
 62
     0
440
 16777216
100
AcDbMText
 10
1495.124997853991
 20
1814.8790129061
 30
0.0
 40
37.5
 41
0.0
 46
0.0
 71
     5
 72
     1
  1
50
 11
0.0000000000000001
 21
1.0
 31
0.0
 73
     1
 44
1.0
  0
LINE
  5
E98
330
331
100
AcDbEntity
  8
寸法
 62
     0
440
 16777216
370
    -2
100
AcDbLine
 10
1442.03975814693
 20
1787.5
 30
0.0
 11
1442.03975814693
 21
1837.5
 31
0.0
  0
SOLID
  5
E99
330
331
100
AcDbEntity
  8
寸法
 62
     0
440
 16777216
100
AcDbTrace
 10
1435.78975814693
 20
1750.0
 30
0.0
 11
1448.28975814693
 21
1750.0
 31
0.0
 12
1442.03975814693
 22
1787.5
 32
0.0
 13
1442.03975814693
 23
1787.5
 33
0.0
  0
SOLID
  5
E9A
330
331
100
AcDbEntity
  8
寸法
 62
     0
440
 16777216
100
AcDbTrace
 10
1435.78975814693
 20
1875.0
 30
0.0
 11
1448.28975814693
 21
1875.0
 31
0.0
 12
1442.03975814693
 22
1837.5
 32
0.0
 13
1442.03975814693
 23
1837.5
 33
0.0
  0
POINT
  5
E9B
330
331
100
AcDbEntity
  8
Defpoints
 62
     0
440
 16777216
100
AcDbPoint
 10
1368.75
 20
1787.5
 30
0.0
  0
POINT
  5
E9C
330
331
100
AcDbEntity
  8
Defpoints
 62
     0
440
 16777216
100
AcDbPoint
 10
1368.75
 20
1837.5
 30
0.0
  0
POINT
  5
E9D
330
331
100
AcDbEntity
  8
Defpoints
 62
     0
440
 16777216
100
AcDbPoint
 10
1442.03975814693
 20
1837.5
 30
0.0
  0
ENDBLK
  5
333
330
331
100
AcDbEntity
  8
0
100
AcDbBlockEnd
  0
BLOCK
  5
34E
330
34D
100
AcDbEntity
  8
0
100
AcDbBlockBegin
  2
*D4
 70
     1
 10
0.0
 20
0.0
 30
0.0
  3
*D4
  1

  0
LINE
  5
E9E
330
34D
100
AcDbEntity
  8
寸法
 62
     0
440
 16777216
370
    -2
100
AcDbLine
 10
1008.75
 20
1763.125
 30
0.0
 11
1008.75
 21
1669.567423848663
 31
0.0
  0
LINE
  5
E9F
330
34D
100
AcDbEntity
  8
寸法
 62
     0
440
 16777216
370
    -2
100
AcDbLine
 10
1368.75
 20
1763.125
 30
0.0
 11
1368.75
 21
1669.567423848663
 31
0.0
  0
LINE
  5
EA0
330
34D
100
AcDbEntity
  8
寸法
 62
     0
440
 16777216
370
    -2
100
AcDbLine
 10
1046.25
 20
1688.317423848663
 30
0.0
 11
1331.25
 21
1688.317423848663
 31
0.0
  0
SOLID
  5
EA1
330
34D
100
AcDbEntity
  8
寸法
 62
     0
440
 16777216
100
AcDbTrace
 10
1046.25
 20
1694.567423848663
 30
0.0
 11
1046.25
 21
1682.067423848663
 31
0.0
 12
1008.75
 22
1688.317423848663
 32
0.0
 13
1008.75
 23
1688.317423848663
 33
0.0
  0
SOLID
  5
EA2
330
34D
100
AcDbEntity
  8
寸法
 62
     0
440
 16777216
100
AcDbTrace
 10
1331.25
 20
1694.567423848663
 30
0.0
 11
1331.25
 21
1682.067423848663
 31
0.0
 12
1368.75
 22
1688.317423848663
 32
0.0
 13
1368.75
 23
1688.317423848663
 33
0.0
  0
MTEXT
  5
EA3
330
34D
100
AcDbEntity
  8
寸法
 62
     0
440
 16777216
100
AcDbMText
 10
1188.75
 20
1731.442423848663
 30
0.0
 40
37.5
 41
0.0
 46
0.0
 71
     5
 72
     1
  1
360
 73
     1
 44
1.0
  0
POINT
  5
EA4
330
34D
100
AcDbEntity
  8
Defpoints
 62
     0
440
 16777216
100
AcDbPoint
 10
1008.75
 20
1787.5
 30
0.0
  0
POINT
  5
EA5
330
34D
100
AcDbEntity
  8
Defpoints
 62
     0
440
 16777216
100
AcDbPoint
 10
1368.75
 20
1787.5
 30
0.0
  0
POINT
  5
EA6
330
34D
100
AcDbEntity
  8
Defpoints
 62
     0
440
 16777216
100
AcDbPoint
 10
1368.75
 20
1688.317423848663
 30
0.0
  0
ENDBLK
  5
34F
330
34D
100
AcDbEntity
  8
0
100
AcDbBlockEnd
  0
BLOCK
  5
3A2
330
3A1
100
AcDbEntity
  8
0
100
AcDbBlockBegin
  2
*D5
 70
     1
 10
0.0
 20
0.0
 30
0.0
  3
*D5
  1

  0
LINE
  5
EA7
330
3A1
100
AcDbEntity
  8
寸法
 62
     0
440
 16777216
370
    -2
100
AcDbLine
 10
1003.75
 20
971.875
 30
0.0
 11
1003.75
 21
1054.246302162781
 31
0.0
  0
LINE
  5
EA8
330
3A1
100
AcDbEntity
  8
寸法
 62
     0
440
 16777216
370
    -2
100
AcDbLine
 10
1373.75
 20
971.875
 30
0.0
 11
1373.75
 21
1054.246302162781
 31
0.0
  0
LINE
  5
EA9
330
3A1
100
AcDbEntity
  8
寸法
 62
     0
440
 16777216
370
    -2
100
AcDbLine
 10
1041.25
 20
1035.496302162781
 30
0.0
 11
1336.249999999999
 21
1035.496302162781
 31
0.0
  0
SOLID
  5
EAA
330
3A1
100
AcDbEntity
  8
寸法
 62
     0
440
 16777216
100
AcDbTrace
 10
1041.25
 20
1041.746302162781
 30
0.0
 11
1041.25
 21
1029.246302162781
 31
0.0
 12
1003.75
 22
1035.496302162781
 32
0.0
 13
1003.75
 23
1035.496302162781
 33
0.0
  0
SOLID
  5
EAB
330
3A1
100
AcDbEntity
  8
寸法
 62
     0
440
 16777216
100
AcDbTrace
 10
1336.249999999999
 20
1041.746302162781
 30
0.0
 11
1336.249999999999
 21
1029.246302162781
 31
0.0
 12
1373.75
 22
1035.496302162781
 32
0.0
 13
1373.75
 23
1035.496302162781
 33
0.0
  0
MTEXT
  5
EAC
330
3A1
100
AcDbEntity
  8
寸法
 62
     0
440
 16777216
100
AcDbMText
 10
1188.75
 20
1078.621302162781
 30
0.0
 40
37.5
 41
0.0
 46
0.0
 71
     5
 72
     1
  1
370
 73
     1
 44
1.0
  0
POINT
  5
EAD
330
3A1
100
AcDbEntity
  8
Defpoints
 62
     0
440
 16777216
100
AcDbPoint
 10
1003.75
 20
947.4999999999999
 30
0.0
  0
POINT
  5
EAE
330
3A1
100
AcDbEntity
  8
Defpoints
 62
     0
440
 16777216
100
AcDbPoint
 10
1373.75
 20
947.4999999999999
 30
0.0
  0
POINT
  5
EAF
330
3A1
100
AcDbEntity
  8
Defpoints
 62
     0
440
 16777216
100
AcDbPoint
 10
1373.75
 20
1035.496302162781
 30
0.0
  0
ENDBLK
  5
3A3
330
3A1
100
AcDbEntity
  8
0
100
AcDbBlockEnd
  0
BLOCK
  5
3AE
330
3AD
100
AcDbEntity
  8
0
100
AcDbBlockBegin
  2
*D6
 70
     1
 10
0.0
 20
0.0
 30
0.0
  3
*D6
  1

  0
LINE
  5
EB0
330
3AD
100
AcDbEntity
  8
寸法
 62
     0
440
 16777216
370
    -2
100
AcDbLine
 10
1398.125
 20
947.4999999999999
 30
0.0
 11
1490.95451629386
 21
947.4999999999999
 31
0.0
  0
LINE
  5
EB1
330
3AD
100
AcDbEntity
  8
寸法
 62
     0
440
 16777216
370
    -2
100
AcDbLine
 10
1398.125
 20
577.5
 30
0.0
 11
1490.95451629386
 21
577.5
 31
0.0
  0
LINE
  5
EB2
330
3AD
100
AcDbEntity
  8
寸法
 62
     0
440
 16777216
370
    -2
100
AcDbLine
 10
1472.20451629386
 20
910.0
 30
0.0
 11
1472.20451629386
 21
615.0
 31
0.0
  0
SOLID
  5
EB3
330
3AD
100
AcDbEntity
  8
寸法
 62
     0
440
 16777216
100
AcDbTrace
 10
1465.95451629386
 20
910.0
 30
0.0
 11
1478.45451629386
 21
910.0
 31
0.0
 12
1472.20451629386
 22
947.4999999999999
 32
0.0
 13
1472.20451629386
 23
947.4999999999999
 33
0.0
  0
SOLID
  5
EB4
330
3AD
100
AcDbEntity
  8
寸法
 62
     0
440
 16777216
100
AcDbTrace
 10
1465.95451629386
 20
615.0
 30
0.0
 11
1478.45451629386
 21
615.0
 31
0.0
 12
1472.20451629386
 22
577.5
 32
0.0
 13
1472.20451629386
 23
577.5
 33
0.0
  0
MTEXT
  5
EB5
330
3AD
100
AcDbEntity
  8
寸法
 62
     0
440
 16777216
100
AcDbMText
 10
1429.07951629386
 20
762.5000000000002
 30
0.0
 40
37.5
 41
0.0
 46
0.0
 71
     5
 72
     1
  1
370
 11
0.0000000000000001
 21
1.0
 31
0.0
 73
     1
 44
1.0
  0
POINT
  5
EB6
330
3AD
100
AcDbEntity
  8
Defpoints
 62
     0
440
 16777216
100
AcDbPoint
 10
1373.75
 20
947.4999999999999
 30
0.0
  0
POINT
  5
EB7
330
3AD
100
AcDbEntity
  8
Defpoints
 62
     0
440
 16777216
100
AcDbPoint
 10
1373.75
 20
577.5
 30
0.0
  0
POINT
  5
EB8
330
3AD
100
AcDbEntity
  8
Defpoints
 62
     0
440
 16777216
100
AcDbPoint
 10
1472.20451629386
 20
577.5
 30
0.0
  0
ENDBLK
  5
3AF
330
3AD
100
AcDbEntity
  8
0
100
AcDbBlockEnd
  0
BLOCK
  5
3C8
330
3C7
100
AcDbEntity
  8
0
100
AcDbBlockBegin
  2
*D7
 70
     1
 10
0.0
 20
0.0
 30
0.0
  3
*D7
  1

  0
LINE
  5
EB9
330
3C7
100
AcDbEntity
  8
寸法
 62
     0
440
 16777216
370
    -2
100
AcDbLine
 10
1008.75
 20
338.125
 30
0.0
 11
1008.75
 21
244.5674238486631
 31
0.0
  0
LINE
  5
EBA
330
3C7
100
AcDbEntity
  8
寸法
 62
     0
440
 16777216
370
    -2
100
AcDbLine
 10
1368.75
 20
338.125
 30
0.0
 11
1368.75
 21
244.5674238486631
 31
0.0
  0
LINE
  5
EBB
330
3C7
100
AcDbEntity
  8
寸法
 62
     0
440
 16777216
370
    -2
100
AcDbLine
 10
1046.25
 20
263.3174238486631
 30
0.0
 11
1331.25
 21
263.3174238486631
 31
0.0
  0
SOLID
  5
EBC
330
3C7
100
AcDbEntity
  8
寸法
 62
     0
440
 16777216
100
AcDbTrace
 10
1046.25
 20
269.5674238486631
 30
0.0
 11
1046.25
 21
257.0674238486631
 31
0.0
 12
1008.75
 22
263.3174238486631
 32
0.0
 13
1008.75
 23
263.3174238486631
 33
0.0
  0
SOLID
  5
EBD
330
3C7
100
AcDbEntity
  8
寸法
 62
     0
440
 16777216
100
AcDbTrace
 10
1331.25
 20
269.5674238486631
 30
0.0
 11
1331.25
 21
257.0674238486631
 31
0.0
 12
1368.75
 22
263.3174238486631
 32
0.0
 13
1368.75
 23
263.3174238486631
 33
0.0
  0
MTEXT
  5
EBE
330
3C7
100
AcDbEntity
  8
寸法
 62
     0
440
 16777216
100
AcDbMText
 10
1188.75
 20
306.4424238486631
 30
0.0
 40
37.5
 41
0.0
 46
0.0
 71
     5
 72
     1
  1
360
 73
     1
 44
1.0
  0
POINT
  5
EBF
330
3C7
100
AcDbEntity
  8
Defpoints
 62
     0
440
 16777216
100
AcDbPoint
 10
1008.75
 20
362.5
 30
0.0
  0
POINT
  5
EC0
330
3C7
100
AcDbEntity
  8
Defpoints
 62
     0
440
 16777216
100
AcDbPoint
 10
1368.75
 20
362.5
 30
0.0
  0
POINT
  5
EC1
330
3C7
100
AcDbEntity
  8
Defpoints
 62
     0
440
 16777216
100
AcDbPoint
 10
1368.75
 20
263.3174238486631
 30
0.0
  0
ENDBLK
  5
3C9
330
3C7
100
AcDbEntity
  8
0
100
AcDbBlockEnd
  0
BLOCK
  5
3FB
330
3FA
100
AcDbEntity
  8
0
100
AcDbBlockBegin
  2
*D8
 70
     1
 10
0.0
 20
0.0
 30
0.0
  3
*D8
  1

  0
LINE
  5
EC2
330
3FA
100
AcDbEntity
  8
寸法
 62
     0
440
 16777216
370
    -2
100
AcDbLine
 10
2077.5
 20
2061.875
 30
0.0
 11
2077.5
 21
2107.300807445597
 31
0.0
  0
LINE
  5
EC3
330
3FA
100
AcDbEntity
  8
寸法
 62
     0
440
 16777216
370
    -2
100
AcDbLine
 10
2377.500000000001
 20
2061.875000000001
 30
0.0
 11
2377.500000000001
 21
2107.300807445597
 31
0.0
  0
LINE
  5
EC4
330
3FA
100
AcDbEntity
  8
寸法
 62
     0
440
 16777216
370
    -2
100
AcDbLine
 10
2115.0
 20
2088.550807445597
 30
0.0
 11
2340.000000000001
 21
2088.550807445597
 31
0.0
  0
SOLID
  5
EC5
330
3FA
100
AcDbEntity
  8
寸法
 62
     0
440
 16777216
100
AcDbTrace
 10
2115.0
 20
2094.800807445597
 30
0.0
 11
2115.0
 21
2082.300807445597
 31
0.0
 12
2077.5
 22
2088.550807445597
 32
0.0
 13
2077.5
 23
2088.550807445597
 33
0.0
  0
SOLID
  5
EC6
330
3FA
100
AcDbEntity
  8
寸法
 62
     0
440
 16777216
100
AcDbTrace
 10
2340.000000000001
 20
2094.800807445597
 30
0.0
 11
2340.000000000001
 21
2082.300807445597
 31
0.0
 12
2377.500000000001
 22
2088.550807445597
 32
0.0
 13
2377.500000000001
 23
2088.550807445597
 33
0.0
  0
MTEXT
  5
EC7
330
3FA
100
AcDbEntity
  8
寸法
 62
     0
440
 16777216
100
AcDbMText
 10
2227.5
 20
2131.675807445597
 30
0.0
 40
37.5
 41
0.0
 46
0.0
 71
     5
 72
     1
  1
300
 73
     1
 44
1.0
  0
POINT
  5
EC8
330
3FA
100
AcDbEntity
  8
Defpoints
 62
     0
440
 16777216
100
AcDbPoint
 10
2077.5
 20
2037.5
 30
0.0
  0
POINT
  5
EC9
330
3FA
100
AcDbEntity
  8
Defpoints
 62
     0
440
 16777216
100
AcDbPoint
 10
2377.500000000001
 20
2037.5
 30
0.0
  0
POINT
  5
ECA
330
3FA
100
AcDbEntity
  8
Defpoints
 62
     0
440
 16777216
100
AcDbPoint
 10
2377.500000000001
 20
2088.550807445597
 30
0.0
  0
ENDBLK
  5
3FC
330
3FA
100
AcDbEntity
  8
0
100
AcDbBlockEnd
  0
BLOCK
  5
413
330
412
100
AcDbEntity
  8
0
100
AcDbBlockBegin
  2
*D9
 70
     1
 10
0.0
 20
0.0
 30
0.0
  3
*D9
  1

  0
LINE
  5
ECB
330
412
100
AcDbEntity
  8
寸法
 62
     0
440
 16777216
370
    -2
100
AcDbLine
 10
2353.125
 20
2337.5
 30
0.0
 11
2321.250000000001
 21
2337.5
 31
0.0
  0
LINE
  5
ECC
330
412
100
AcDbEntity
  8
寸法
 62
     0
440
 16777216
370
    -2
100
AcDbLine
 10
2353.125
 20
2037.5
 30
0.0
 11
2321.250000000001
 21
2037.5
 31
0.0
  0
LINE
  5
ECD
330
412
100
AcDbEntity
  8
寸法
 62
     0
440
 16777216
370
    -2
100
AcDbLine
 10
2340.000000000001
 20
2300.0
 30
0.0
 11
2340.000000000001
 21
2075.000000000001
 31
0.0
  0
SOLID
  5
ECE
330
412
100
AcDbEntity
  8
寸法
 62
     0
440
 16777216
100
AcDbTrace
 10
2333.750000000001
 20
2300.0
 30
0.0
 11
2346.250000000001
 21
2300.0
 31
0.0
 12
2340.000000000001
 22
2337.5
 32
0.0
 13
2340.000000000001
 23
2337.5
 33
0.0
  0
SOLID
  5
ECF
330
412
100
AcDbEntity
  8
寸法
 62
     0
440
 16777216
100
AcDbTrace
 10
2333.750000000001
 20
2075.000000000001
 30
0.0
 11
2346.250000000001
 21
2075.000000000001
 31
0.0
 12
2340.000000000001
 22
2037.5
 32
0.0
 13
2340.000000000001
 23
2037.5
 33
0.0
  0
MTEXT
  5
ED0
330
412
100
AcDbEntity
  8
寸法
 62
     0
440
 16777216
100
AcDbMText
 10
2296.875
 20
2219.45336741345
 30
0.0
 40
37.5
 41
0.0
 46
0.0
 71
     5
 72
     1
  1
300
 11
0.0000000000000001
 21
1.0
 31
0.0
 73
     1
 44
1.0
  0
POINT
  5
ED1
330
412
100
AcDbEntity
  8
Defpoints
 62
     0
440
 16777216
100
AcDbPoint
 10
2377.5
 20
2337.5
 30
0.0
  0
POINT
  5
ED2
330
412
100
AcDbEntity
  8
Defpoints
 62
     0
440
 16777216
100
AcDbPoint
 10
2377.500000000001
 20
2037.5
 30
0.0
  0
POINT
  5
ED3
330
412
100
AcDbEntity
  8
Defpoints
 62
     0
440
 16777216
100
AcDbPoint
 10
2340.000000000001
 20
2037.5
 30
0.0
  0
ENDBLK
  5
414
330
412
100
AcDbEntity
  8
0
100
AcDbBlockEnd
  0
BLOCK
  5
456
330
455
100
AcDbEntity
  8
0
100
AcDbBlockBegin
  2
*D10
 70
     1
 10
0.0
 20
0.0
 30
0.0
  3
*D10
  1

  0
LINE
  5
ED4
330
455
100
AcDbEntity
  8
寸法
 62
     0
440
 16777216
370
    -2
100
AcDbLine
 10
1977.5
 20
2452.875000000001
 30
0.0
 11
1977.5
 21
2499.883942115673
 31
0.0
  0
LINE
  5
ED5
330
455
100
AcDbEntity
  8
寸法
 62
     0
440
 16777216
370
    -2
100
AcDbLine
 10
2477.5
 20
2452.875000000001
 30
0.0
 11
2477.5
 21
2499.883942115673
 31
0.0
  0
LINE
  5
ED6
330
455
100
AcDbEntity
  8
寸法
 62
     0
440
 16777216
370
    -2
100
AcDbLine
 10
2015.0
 20
2481.133942115673
 30
0.0
 11
2440.0
 21
2481.133942115673
 31
0.0
  0
SOLID
  5
ED7
330
455
100
AcDbEntity
  8
寸法
 62
     0
440
 16777216
100
AcDbTrace
 10
2015.0
 20
2487.383942115673
 30
0.0
 11
2015.0
 21
2474.883942115673
 31
0.0
 12
1977.5
 22
2481.133942115673
 32
0.0
 13
1977.5
 23
2481.133942115673
 33
0.0
  0
SOLID
  5
ED8
330
455
100
AcDbEntity
  8
寸法
 62
     0
440
 16777216
100
AcDbTrace
 10
2440.0
 20
2487.383942115673
 30
0.0
 11
2440.0
 21
2474.883942115673
 31
0.0
 12
2477.5
 22
2481.133942115673
 32
0.0
 13
2477.5
 23
2481.133942115673
 33
0.0
  0
MTEXT
  5
ED9
330
455
100
AcDbEntity
  8
寸法
 62
     0
440
 16777216
100
AcDbMText
 10
2227.5
 20
2524.258942115673
 30
0.0
 40
37.5
 41
0.0
 46
0.0
 71
     5
 72
     1
  1
500
 73
     1
 44
1.0
  0
POINT
  5
EDA
330
455
100
AcDbEntity
  8
Defpoints
 62
     0
440
 16777216
100
AcDbPoint
 10
1977.5
 20
2428.5
 30
0.0
  0
POINT
  5
EDB
330
455
100
AcDbEntity
  8
Defpoints
 62
     0
440
 16777216
100
AcDbPoint
 10
2477.5
 20
2428.5
 30
0.0
  0
POINT
  5
EDC
330
455
100
AcDbEntity
  8
Defpoints
 62
     0
440
 16777216
100
AcDbPoint
 10
2477.5
 20
2481.133942115673
 30
0.0
  0
ENDBLK
  5
457
330
455
100
AcDbEntity
  8
0
100
AcDbBlockEnd
  0
BLOCK
  5
46E
330
46D
100
AcDbEntity
  8
0
100
AcDbBlockBegin
  2
*D11
 70
     1
 10
0.0
 20
0.0
 30
0.0
  3
*D11
  1

  0
LINE
  5
EDD
330
46D
100
AcDbEntity
  8
寸法
 62
     0
440
 16777216
370
    -2
100
AcDbLine
 10
2492.875
 20
2437.5
 30
0.0
 11
2583.919830853607
 21
2437.5
 31
0.0
  0
LINE
  5
EDE
330
46D
100
AcDbEntity
  8
寸法
 62
     0
440
 16777216
370
    -2
100
AcDbLine
 10
2492.875000000001
 20
1937.5
 30
0.0
 11
2583.919830853607
 21
1937.5
 31
0.0
  0
LINE
  5
EDF
330
46D
100
AcDbEntity
  8
寸法
 62
     0
440
 16777216
370
    -2
100
AcDbLine
 10
2565.169830853607
 20
2400.0
 30
0.0
 11
2565.169830853607
 21
1974.999999999999
 31
0.0
  0
SOLID
  5
EE0
330
46D
100
AcDbEntity
  8
寸法
 62
     0
440
 16777216
100
AcDbTrace
 10
2558.919830853607
 20
2400.0
 30
0.0
 11
2571.419830853607
 21
2400.0
 31
0.0
 12
2565.169830853607
 22
2437.5
 32
0.0
 13
2565.169830853607
 23
2437.5
 33
0.0
  0
SOLID
  5
EE1
330
46D
100
AcDbEntity
  8
寸法
 62
     0
440
 16777216
100
AcDbTrace
 10
2558.919830853607
 20
1975.0
 30
0.0
 11
2571.419830853607
 21
1974.999999999999
 31
0.0
 12
2565.169830853607
 22
1937.5
 32
0.0
 13
2565.169830853607
 23
1937.5
 33
0.0
  0
MTEXT
  5
EE2
330
46D
100
AcDbEntity
  8
寸法
 62
     0
440
 16777216
100
AcDbMText
 10
2522.044830853606
 20
2187.500000000001
 30
0.0
 40
37.5
 41
0.0
 46
0.0
 71
     5
 72
     1
  1
500
 11
0.0000000000000001
 21
1.0
 31
0.0
 73
     1
 44
1.0
  0
POINT
  5
EE3
330
46D
100
AcDbEntity
  8
Defpoints
 62
     0
440
 16777216
100
AcDbPoint
 10
2468.500000000001
 20
2437.5
 30
0.0
  0
POINT
  5
EE4
330
46D
100
AcDbEntity
  8
Defpoints
 62
     0
440
 16777216
100
AcDbPoint
 10
2468.500000000001
 20
1937.5
 30
0.0
  0
POINT
  5
EE5
330
46D
100
AcDbEntity
  8
Defpoints
 62
     0
440
 16777216
100
AcDbPoint
 10
2565.169830853607
 20
1937.5
 30
0.0
  0
ENDBLK
  5
46F
330
46D
100
AcDbEntity
  8
0
100
AcDbBlockEnd
  0
BLOCK
  5
486
330
485
100
AcDbEntity
  8
0
100
AcDbBlockBegin
  2
*D12
 70
     1
 10
0.0
 20
0.0
 30
0.0
  3
*D12
  1

  0
LINE
  5
EE6
330
485
100
AcDbEntity
  8
寸法
 62
     0
440
 16777216
370
    -2
100
AcDbLine
 10
2037.5
 20
1711.875
 30
0.0
 11
2037.5
 21
1759.128327370962
 31
0.0
  0
LINE
  5
EE7
330
485
100
AcDbEntity
  8
寸法
 62
     0
440
 16777216
370
    -2
100
AcDbLine
 10
1977.5
 20
1702.875
 30
0.0
 11
1977.5
 21
1759.128327370962
 31
0.0
  0
LINE
  5
EE8
330
485
100
AcDbEntity
  8
寸法
 62
     0
440
 16777216
370
    -2
100
AcDbLine
 10
2037.5
 20
1740.378327370962
 30
0.0
 11
2075.0
 21
1740.378327370962
 31
0.0
  0
LINE
  5
EE9
330
485
100
AcDbEntity
  8
寸法
 62
     0
440
 16777216
370
    -2
100
AcDbLine
 10
1940.0
 20
1740.378327370962
 30
0.0
 11
1902.5
 21
1740.378327370962
 31
0.0
  0
MTEXT
  5
EEA
330
485
100
AcDbEntity
  8
寸法
 62
     0
440
 16777216
100
AcDbMText
 10
2007.6360474907
 20
1787.5
 30
0.0
 40
37.5
 41
0.0
 46
0.0
 71
     5
 72
     1
  1
60
 73
     1
 44
1.0
  0
LINE
  5
EEB
330
485
100
AcDbEntity
  8
寸法
 62
     0
440
 16777216
370
    -2
100
AcDbLine
 10
2037.5
 20
1740.378327370962
 30
0.0
 11
1977.5
 21
1740.378327370962
 31
0.0
  0
INSERT
  5
EEC
330
485
100
AcDbEntity
  8
寸法
 62
     0
440
 16777216
370
    -2
100
AcDbBlockReference
  2
_DotSmall
 10
2037.5
 20
1740.378327370962
 30
0.0
 41
37.5
 42
37.5
 43
37.5
 50
180.0
  0
SOLID
  5
EED
330
485
100
AcDbEntity
  8
寸法
 62
     0
440
 16777216
100
AcDbTrace
 10
1940.0
 20
1746.628327370962
 30
0.0
 11
1940.0
 21
1734.128327370962
 31
0.0
 12
1977.5
 22
1740.378327370962
 32
0.0
 13
1977.5
 23
1740.378327370962
 33
0.0
  0
POINT
  5
EEE
330
485
100
AcDbEntity
  8
Defpoints
 62
     0
440
 16777216
100
AcDbPoint
 10
2037.5
 20
1687.5
 30
0.0
  0
POINT
  5
EEF
330
485
100
AcDbEntity
  8
Defpoints
 62
     0
440
 16777216
100
AcDbPoint
 10
1977.5
 20
1678.5
 30
0.0
  0
POINT
  5
EF0
330
485
100
AcDbEntity
  8
Defpoints
 62
     0
440
 16777216
100
AcDbPoint
 10
1977.5
 20
1740.378327370962
 30
0.0
  0
ENDBLK
  5
487
330
485
100
AcDbEntity
  8
0
100
AcDbBlockEnd
  0
BLOCK
  5
4A2
330
4A1
100
AcDbEntity
  8
0
100
AcDbBlockBegin
  2
*D13
 70
     1
 10
0.0
 20
0.0
 30
0.0
  3
*D13
  1

  0
LINE
  5
EF1
330
4A1
100
AcDbEntity
  8
寸法
 62
     0
440
 16777216
370
    -2
100
AcDbLine
 10
2417.5
 20
1711.875
 30
0.0
 11
2417.5
 21
1759.128327370962
 31
0.0
  0
LINE
  5
EF2
330
4A1
100
AcDbEntity
  8
寸法
 62
     0
440
 16777216
370
    -2
100
AcDbLine
 10
2477.5
 20
1702.875
 30
0.0
 11
2477.5
 21
1759.128327370962
 31
0.0
  0
LINE
  5
EF3
330
4A1
100
AcDbEntity
  8
寸法
 62
     0
440
 16777216
370
    -2
100
AcDbLine
 10
2417.5
 20
1740.378327370962
 30
0.0
 11
2380.0
 21
1740.378327370962
 31
0.0
  0
LINE
  5
EF4
330
4A1
100
AcDbEntity
  8
寸法
 62
     0
440
 16777216
370
    -2
100
AcDbLine
 10
2515.0
 20
1740.378327370962
 30
0.0
 11
2552.5
 21
1740.378327370962
 31
0.0
  0
MTEXT
  5
EF5
330
4A1
100
AcDbEntity
  8
寸法
 62
     0
440
 16777216
100
AcDbMText
 10
2447.5
 20
1787.5
 30
0.0
 40
37.5
 41
0.0
 46
0.0
 71
     5
 72
     1
  1
60
 73
     1
 44
1.0
  0
LINE
  5
EF6
330
4A1
100
AcDbEntity
  8
寸法
 62
     0
440
 16777216
370
    -2
100
AcDbLine
 10
2417.5
 20
1740.378327370962
 30
0.0
 11
2477.5
 21
1740.378327370962
 31
0.0
  0
INSERT
  5
EF7
330
4A1
100
AcDbEntity
  8
寸法
 62
     0
440
 16777216
370
    -2
100
AcDbBlockReference
  2
_DotSmall
 10
2417.5
 20
1740.378327370962
 30
0.0
 41
37.5
 42
37.5
 43
37.5
  0
SOLID
  5
EF8
330
4A1
100
AcDbEntity
  8
寸法
 62
     0
440
 16777216
100
AcDbTrace
 10
2515.0
 20
1746.628327370962
 30
0.0
 11
2515.0
 21
1734.128327370962
 31
0.0
 12
2477.5
 22
1740.378327370962
 32
0.0
 13
2477.5
 23
1740.378327370962
 33
0.0
  0
POINT
  5
EF9
330
4A1
100
AcDbEntity
  8
Defpoints
 62
     0
440
 16777216
100
AcDbPoint
 10
2417.5
 20
1687.5
 30
0.0
  0
POINT
  5
EFA
330
4A1
100
AcDbEntity
  8
Defpoints
 62
     0
440
 16777216
100
AcDbPoint
 10
2477.5
 20
1678.5
 30
0.0
  0
POINT
  5
EFB
330
4A1
100
AcDbEntity
  8
Defpoints
 62
     0
440
 16777216
100
AcDbPoint
 10
2477.5
 20
1740.378327370962
 30
0.0
  0
ENDBLK
  5
4A3
330
4A1
100
AcDbEntity
  8
0
100
AcDbBlockEnd
  0
BLOCK
  5
5BA
330
5B9
100
AcDbEntity
  8
0
100
AcDbBlockBegin
  2
*D14
 70
     1
 10
0.0
 20
0.0
 30
0.0
  3
*D14
  1

  0
LINE
  5
EFC
330
5B9
100
AcDbEntity
  8
寸法
 62
     0
440
 16777216
370
    -2
100
AcDbLine
 10
2037.5
 20
1711.875
 30
0.0
 11
2037.5
 21
1759.128327370962
 31
0.0
  0
LINE
  5
EFD
330
5B9
100
AcDbEntity
  8
寸法
 62
     0
440
 16777216
370
    -2
100
AcDbLine
 10
2077.5
 20
1711.875
 30
0.0
 11
2077.5
 21
1759.128327370962
 31
0.0
  0
LINE
  5
EFE
330
5B9
100
AcDbEntity
  8
寸法
 62
     0
440
 16777216
370
    -2
100
AcDbLine
 10
2037.5
 20
1740.378327370962
 30
0.0
 11
2000.0
 21
1740.378327370962
 31
0.0
  0
LINE
  5
EFF
330
5B9
100
AcDbEntity
  8
寸法
 62
     0
440
 16777216
370
    -2
100
AcDbLine
 10
2115.0
 20
1740.378327370962
 30
0.0
 11
2152.5
 21
1740.378327370962
 31
0.0
  0
MTEXT
  5
F00
330
5B9
100
AcDbEntity
  8
寸法
 62
     0
440
 16777216
100
AcDbMText
 10
2147.081875063961
 20
1787.5
 30
0.0
 40
37.5
 41
0.0
 46
0.0
 71
     5
 72
     1
  1
40
 73
     1
 44
1.0
  0
LINE
  5
F01
330
5B9
100
AcDbEntity
  8
寸法
 62
     0
440
 16777216
370
    -2
100
AcDbLine
 10
2037.5
 20
1740.378327370962
 30
0.0
 11
2077.5
 21
1740.378327370962
 31
0.0
  0
INSERT
  5
F02
330
5B9
100
AcDbEntity
  8
寸法
 62
     0
440
 16777216
370
    -2
100
AcDbBlockReference
  2
_DotSmall
 10
2037.5
 20
1740.378327370962
 30
0.0
 41
37.5
 42
37.5
 43
37.5
  0
SOLID
  5
F03
330
5B9
100
AcDbEntity
  8
寸法
 62
     0
440
 16777216
100
AcDbTrace
 10
2115.0
 20
1746.628327370962
 30
0.0
 11
2115.0
 21
1734.128327370962
 31
0.0
 12
2077.5
 22
1740.378327370962
 32
0.0
 13
2077.5
 23
1740.378327370962
 33
0.0
  0
POINT
  5
F04
330
5B9
100
AcDbEntity
  8
Defpoints
 62
     0
440
 16777216
100
AcDbPoint
 10
2037.5
 20
1687.5
 30
0.0
  0
POINT
  5
F05
330
5B9
100
AcDbEntity
  8
Defpoints
 62
     0
440
 16777216
100
AcDbPoint
 10
2077.5
 20
1687.5
 30
0.0
  0
POINT
  5
F06
330
5B9
100
AcDbEntity
  8
Defpoints
 62
     0
440
 16777216
100
AcDbPoint
 10
2077.5
 20
1740.378327370962
 30
0.0
  0
ENDBLK
  5
5BB
330
5B9
100
AcDbEntity
  8
0
100
AcDbBlockEnd
  0
BLOCK
  5
5EC
330
5EA
100
AcDbEntity
  8
0
100
AcDbBlockBegin
  2
_DotSmall
 70
     0
 10
0.0
 20
0.0
 30
0.0
  3
_DotSmall
  1

  0
LWPOLYLINE
  5
5EB
330
5EA
100
AcDbEntity
  8
0
  6
ByBlock
 62
     0
100
AcDbPolyline
 90
        2
 70
     1
 43
0.5
 10
-0.0625
 20
0.0
 42
1.0
 10
0.0625
 20
0.0
 42
1.0
  0
ENDBLK
  5
5ED
330
5EA
100
AcDbEntity
  8
0
100
AcDbBlockEnd
  0
BLOCK
  5
606
330
605
100
AcDbEntity
  8
0
100
AcDbBlockBegin
  2
*D16
 70
     1
 10
0.0
 20
0.0
 30
0.0
  3
*D16
  1

  0
LINE
  5
F07
330
605
100
AcDbEntity
  8
寸法
 62
     0
440
 16777216
370
    -2
100
AcDbLine
 10
2417.5
 20
1711.875
 30
0.0
 11
2417.5
 21
1759.128327370962
 31
0.0
  0
LINE
  5
F08
330
605
100
AcDbEntity
  8
寸法
 62
     0
440
 16777216
370
    -2
100
AcDbLine
 10
2377.5
 20
1711.875
 30
0.0
 11
2377.5
 21
1759.128327370962
 31
0.0
  0
LINE
  5
F09
330
605
100
AcDbEntity
  8
寸法
 62
     0
440
 16777216
370
    -2
100
AcDbLine
 10
2417.5
 20
1740.378327370962
 30
0.0
 11
2455.0
 21
1740.378327370962
 31
0.0
  0
LINE
  5
F0A
330
605
100
AcDbEntity
  8
寸法
 62
     0
440
 16777216
370
    -2
100
AcDbLine
 10
2340.0
 20
1740.378327370962
 30
0.0
 11
2302.5
 21
1740.378327370962
 31
0.0
  0
MTEXT
  5
F0B
330
605
100
AcDbEntity
  8
寸法
 62
     0
440
 16777216
100
AcDbMText
 10
2311.559577846847
 20
1787.5
 30
0.0
 40
37.5
 41
0.0
 46
0.0
 71
     5
 72
     1
  1
40
 73
     1
 44
1.0
  0
LINE
  5
F0C
330
605
100
AcDbEntity
  8
寸法
 62
     0
440
 16777216
370
    -2
100
AcDbLine
 10
2417.5
 20
1740.378327370962
 30
0.0
 11
2377.5
 21
1740.378327370962
 31
0.0
  0
INSERT
  5
F0D
330
605
100
AcDbEntity
  8
寸法
 62
     0
440
 16777216
370
    -2
100
AcDbBlockReference
  2
_DotSmall
 10
2417.5
 20
1740.378327370962
 30
0.0
 41
37.5
 42
37.5
 43
37.5
 50
180.0
  0
SOLID
  5
F0E
330
605
100
AcDbEntity
  8
寸法
 62
     0
440
 16777216
100
AcDbTrace
 10
2340.0
 20
1746.628327370962
 30
0.0
 11
2340.0
 21
1734.128327370962
 31
0.0
 12
2377.5
 22
1740.378327370962
 32
0.0
 13
2377.5
 23
1740.378327370962
 33
0.0
  0
POINT
  5
F0F
330
605
100
AcDbEntity
  8
Defpoints
 62
     0
440
 16777216
100
AcDbPoint
 10
2417.5
 20
1687.5
 30
0.0
  0
POINT
  5
F10
330
605
100
AcDbEntity
  8
Defpoints
 62
     0
440
 16777216
100
AcDbPoint
 10
2377.5
 20
1687.5
 30
0.0
  0
POINT
  5
F11
330
605
100
AcDbEntity
  8
Defpoints
 62
     0
440
 16777216
100
AcDbPoint
 10
2377.5
 20
1740.378327370962
 30
0.0
  0
ENDBLK
  5
607
330
605
100
AcDbEntity
  8
0
100
AcDbBlockEnd
  0
BLOCK
  5
65C
330
65B
100
AcDbEntity
  8
0
100
AcDbBlockBegin
  2
*D17
 70
     1
 10
0.0
 20
0.0
 30
0.0
  3
*D17
  1

  0
LINE
  5
F12
330
65B
100
AcDbEntity
  8
寸法
 62
     0
440
 16777216
370
    -2
100
AcDbLine
 10
2501.875
 20
1634.5
 30
0.0
 11
2583.919830853607
 21
1634.5
 31
0.0
  0
LINE
  5
F13
330
65B
100
AcDbEntity
  8
寸法
 62
     0
440
 16777216
370
    -2
100
AcDbLine
 10
2492.875
 20
1687.5
 30
0.0
 11
2583.919830853607
 21
1687.5
 31
0.0
  0
LINE
  5
F14
330
65B
100
AcDbEntity
  8
寸法
 62
     0
440
 16777216
370
    -2
100
AcDbLine
 10
2565.169830853607
 20
1634.5
 30
0.0
 11
2565.169830853607
 21
1597.0
 31
0.0
  0
LINE
  5
F15
330
65B
100
AcDbEntity
  8
寸法
 62
     0
440
 16777216
370
    -2
100
AcDbLine
 10
2565.169830853607
 20
1724.999999999999
 30
0.0
 11
2565.169830853607
 21
1762.5
 31
0.0
  0
MTEXT
  5
F16
330
65B
100
AcDbEntity
  8
寸法
 62
     0
440
 16777216
100
AcDbMText
 10
2616.065981169262
 20
1737.5
 30
0.0
 40
37.5
 41
0.0
 46
0.0
 71
     5
 72
     1
  1
53
 11
0.0000000000000001
 21
1.0
 31
0.0
 73
     1
 44
1.0
  0
LINE
  5
F17
330
65B
100
AcDbEntity
  8
寸法
 62
     0
440
 16777216
370
    -2
100
AcDbLine
 10
2565.169830853607
 20
1634.5
 30
0.0
 11
2565.169830853607
 21
1687.5
 31
0.0
  0
INSERT
  5
F18
330
65B
100
AcDbEntity
  8
寸法
 62
     0
440
 16777216
370
    -2
100
AcDbBlockReference
  2
_DotSmall
 10
2565.169830853607
 20
1634.5
 30
0.0
 41
37.5
 42
37.5
 43
37.5
 50
90.0
  0
SOLID
  5
F19
330
65B
100
AcDbEntity
  8
寸法
 62
     0
440
 16777216
100
AcDbTrace
 10
2558.919830853607
 20
1725.0
 30
0.0
 11
2571.419830853607
 21
1724.999999999999
 31
0.0
 12
2565.169830853607
 22
1687.5
 32
0.0
 13
2565.169830853607
 23
1687.5
 33
0.0
  0
POINT
  5
F1A
330
65B
100
AcDbEntity
  8
Defpoints
 62
     0
440
 16777216
100
AcDbPoint
 10
2477.5
 20
1634.5
 30
0.0
  0
POINT
  5
F1B
330
65B
100
AcDbEntity
  8
Defpoints
 62
     0
440
 16777216
100
AcDbPoint
 10
2468.500000000001
 20
1687.5
 30
0.0
  0
POINT
  5
F1C
330
65B
100
AcDbEntity
  8
Defpoints
 62
     0
440
 16777216
100
AcDbPoint
 10
2565.169830853607
 20
1687.5
 30
0.0
  0
ENDBLK
  5
65D
330
65B
100
AcDbEntity
  8
0
100
AcDbBlockEnd
  0
BLOCK
  5
678
330
677
100
AcDbEntity
  8
0
100
AcDbBlockBegin
  2
*D18
 70
     1
 10
0.0
 20
0.0
 30
0.0
  3
*D18
  1

  0
LINE
  5
F1D
330
677
100
AcDbEntity
  8
寸法
 62
     0
440
 16777216
370
    -2
100
AcDbLine
 10
2501.875
 20
1634.5
 30
0.0
 11
2583.919830853607
 21
1634.5
 31
0.0
  0
LINE
  5
F1E
330
677
100
AcDbEntity
  8
寸法
 62
     0
440
 16777216
370
    -2
100
AcDbLine
 10
2501.875
 20
1587.5
 30
0.0
 11
2583.919830853607
 21
1587.5
 31
0.0
  0
LINE
  5
F1F
330
677
100
AcDbEntity
  8
寸法
 62
     0
440
 16777216
370
    -2
100
AcDbLine
 10
2565.169830853607
 20
1634.5
 30
0.0
 11
2565.169830853607
 21
1672.0
 31
0.0
  0
LINE
  5
F20
330
677
100
AcDbEntity
  8
寸法
 62
     0
440
 16777216
370
    -2
100
AcDbLine
 10
2565.169830853607
 20
1550.0
 30
0.0
 11
2565.169830853607
 21
1512.5
 31
0.0
  0
MTEXT
  5
F21
330
677
100
AcDbEntity
  8
寸法
 62
     0
440
 16777216
100
AcDbMText
 10
2617.728474192909
 20
1531.21751397619
 30
0.0
 40
37.5
 41
0.0
 46
0.0
 71
     5
 72
     1
  1
47
 11
0.0000000000000001
 21
1.0
 31
0.0
 73
     1
 44
1.0
  0
LINE
  5
F22
330
677
100
AcDbEntity
  8
寸法
 62
     0
440
 16777216
370
    -2
100
AcDbLine
 10
2565.169830853607
 20
1634.5
 30
0.0
 11
2565.169830853607
 21
1587.5
 31
0.0
  0
INSERT
  5
F23
330
677
100
AcDbEntity
  8
寸法
 62
     0
440
 16777216
370
    -2
100
AcDbBlockReference
  2
_DotSmall
 10
2565.169830853607
 20
1634.5
 30
0.0
 41
37.5
 42
37.5
 43
37.5
 50
270.0
  0
SOLID
  5
F24
330
677
100
AcDbEntity
  8
寸法
 62
     0
440
 16777216
100
AcDbTrace
 10
2558.919830853607
 20
1550.0
 30
0.0
 11
2571.419830853607
 21
1550.0
 31
0.0
 12
2565.169830853607
 22
1587.5
 32
0.0
 13
2565.169830853607
 23
1587.5
 33
0.0
  0
POINT
  5
F25
330
677
100
AcDbEntity
  8
Defpoints
 62
     0
440
 16777216
100
AcDbPoint
 10
2477.5
 20
1634.5
 30
0.0
  0
POINT
  5
F26
330
677
100
AcDbEntity
  8
Defpoints
 62
     0
440
 16777216
100
AcDbPoint
 10
2477.5
 20
1587.5
 30
0.0
  0
POINT
  5
F27
330
677
100
AcDbEntity
  8
Defpoints
 62
     0
440
 16777216
100
AcDbPoint
 10
2565.169830853607
 20
1587.5
 30
0.0
  0
ENDBLK
  5
679
330
677
100
AcDbEntity
  8
0
100
AcDbBlockEnd
  0
BLOCK
  5
6EC
330
6EB
100
AcDbEntity
  8
0
100
AcDbBlockBegin
  2
*D19
 70
     1
 10
0.0
 20
0.0
 30
0.0
  3
*D19
  1

  0
LINE
  5
F28
330
6EB
100
AcDbEntity
  8
寸法
 62
     0
440
 16777216
370
    -2
100
AcDbLine
 10
2492.875
 20
1687.5
 30
0.0
 11
2687.19275212215
 21
1687.5
 31
0.0
  0
LINE
  5
F29
330
6EB
100
AcDbEntity
  8
寸法
 62
     0
440
 16777216
370
    -2
100
AcDbLine
 10
2501.875
 20
1587.5
 30
0.0
 11
2687.19275212215
 21
1587.5
 31
0.0
  0
LINE
  5
F2A
330
6EB
100
AcDbEntity
  8
寸法
 62
     0
440
 16777216
370
    -2
100
AcDbLine
 10
2668.44275212215
 20
1724.999999999999
 30
0.0
 11
2668.44275212215
 21
1762.5
 31
0.0
  0
LINE
  5
F2B
330
6EB
100
AcDbEntity
  8
寸法
 62
     0
440
 16777216
370
    -2
100
AcDbLine
 10
2668.44275212215
 20
1550.0
 30
0.0
 11
2668.44275212215
 21
1512.5
 31
0.0
  0
MTEXT
  5
F2C
330
6EB
100
AcDbEntity
  8
寸法
 62
     0
440
 16777216
100
AcDbMText
 10
2711.647824463866
 20
1637.5
 30
0.0
 40
37.5
 41
0.0
 46
0.0
 71
     5
 72
     1
  1
100
 11
0.0000000000000001
 21
1.0
 31
0.0
 73
     1
 44
1.0
  0
LINE
  5
F2D
330
6EB
100
AcDbEntity
  8
寸法
 62
     0
440
 16777216
370
    -2
100
AcDbLine
 10
2668.44275212215
 20
1687.5
 30
0.0
 11
2668.44275212215
 21
1587.5
 31
0.0
  0
SOLID
  5
F2E
330
6EB
100
AcDbEntity
  8
寸法
 62
     0
440
 16777216
100
AcDbTrace
 10
2662.19275212215
 20
1724.999999999999
 30
0.0
 11
2674.69275212215
 21
1724.999999999999
 31
0.0
 12
2668.44275212215
 22
1687.5
 32
0.0
 13
2668.44275212215
 23
1687.5
 33
0.0
  0
SOLID
  5
F2F
330
6EB
100
AcDbEntity
  8
寸法
 62
     0
440
 16777216
100
AcDbTrace
 10
2662.19275212215
 20
1550.0
 30
0.0
 11
2674.69275212215
 21
1550.0
 31
0.0
 12
2668.44275212215
 22
1587.5
 32
0.0
 13
2668.44275212215
 23
1587.5
 33
0.0
  0
POINT
  5
F30
330
6EB
100
AcDbEntity
  8
Defpoints
 62
     0
440
 16777216
100
AcDbPoint
 10
2468.500000000001
 20
1687.5
 30
0.0
  0
POINT
  5
F31
330
6EB
100
AcDbEntity
  8
Defpoints
 62
     0
440
 16777216
100
AcDbPoint
 10
2477.5
 20
1587.5
 30
0.0
  0
POINT
  5
F32
330
6EB
100
AcDbEntity
  8
Defpoints
 62
     0
440
 16777216
100
AcDbPoint
 10
2668.44275212215
 20
1587.5
 30
0.0
  0
ENDBLK
  5
6ED
330
6EB
100
AcDbEntity
  8
0
100
AcDbBlockEnd
  0
BLOCK
  5
711
330
710
100
AcDbEntity
  8
0
100
AcDbBlockBegin
  2
*D20
 70
     1
 10
0.0
 20
0.0
 30
0.0
  3
*D20
  1

  0
LINE
  5
F33
330
710
100
AcDbEntity
  8
寸法
 62
     0
440
 16777216
370
    -2
100
AcDbLine
 10
3116.25
 20
2411.875
 30
0.0
 11
3116.25
 21
2539.61780832195
 31
0.0
  0
LINE
  5
F34
330
710
100
AcDbEntity
  8
寸法
 62
     0
440
 16777216
370
    -2
100
AcDbLine
 10
3066.25
 20
2392.875
 30
0.0
 11
3066.25
 21
2539.61780832195
 31
0.0
  0
LINE
  5
F35
330
710
100
AcDbEntity
  8
寸法
 62
     0
440
 16777216
370
    -2
100
AcDbLine
 10
3153.75
 20
2520.867808321949
 30
0.0
 11
3191.25
 21
2520.867808321949
 31
0.0
  0
LINE
  5
F36
330
710
100
AcDbEntity
  8
寸法
 62
     0
440
 16777216
370
    -2
100
AcDbLine
 10
3028.75
 20
2520.867808321949
 30
0.0
 11
2991.25
 21
2520.867808321949
 31
0.0
  0
MTEXT
  5
F37
330
710
100
AcDbEntity
  8
寸法
 62
     0
440
 16777216
100
AcDbMText
 10
3004.816875989929
 20
2553.090479539291
 30
0.0
 40
37.5
 41
0.0
 46
0.0
 71
     5
 72
     1
  1
50
 73
     1
 44
1.0
  0
LINE
  5
F38
330
710
100
AcDbEntity
  8
寸法
 62
     0
440
 16777216
370
    -2
100
AcDbLine
 10
3116.25
 20
2520.867808321949
 30
0.0
 11
3066.25
 21
2520.867808321949
 31
0.0
  0
SOLID
  5
F39
330
710
100
AcDbEntity
  8
寸法
 62
     0
440
 16777216
100
AcDbTrace
 10
3153.75
 20
2527.117808321949
 30
0.0
 11
3153.75
 21
2514.617808321949
 31
0.0
 12
3116.25
 22
2520.867808321949
 32
0.0
 13
3116.25
 23
2520.867808321949
 33
0.0
  0
SOLID
  5
F3A
330
710
100
AcDbEntity
  8
寸法
 62
     0
440
 16777216
100
AcDbTrace
 10
3028.75
 20
2527.117808321949
 30
0.0
 11
3028.75
 21
2514.617808321949
 31
0.0
 12
3066.25
 22
2520.867808321949
 32
0.0
 13
3066.25
 23
2520.867808321949
 33
0.0
  0
POINT
  5
F3B
330
710
100
AcDbEntity
  8
Defpoints
 62
     0
440
 16777216
100
AcDbPoint
 10
3116.25
 20
2387.5
 30
0.0
  0
POINT
  5
F3C
330
710
100
AcDbEntity
  8
Defpoints
 62
     0
440
 16777216
100
AcDbPoint
 10
3066.25
 20
2368.5
 30
0.0
  0
POINT
  5
F3D
330
710
100
AcDbEntity
  8
Defpoints
 62
     0
440
 16777216
100
AcDbPoint
 10
3066.25
 20
2520.867808321949
 30
0.0
  0
ENDBLK
  5
712
330
710
100
AcDbEntity
  8
0
100
AcDbBlockEnd
  0
BLOCK
  5
72D
330
72C
100
AcDbEntity
  8
0
100
AcDbBlockBegin
  2
*D21
 70
     1
 10
0.0
 20
0.0
 30
0.0
  3
*D21
  1

  0
LINE
  5
F3E
330
72C
100
AcDbEntity
  8
寸法
 62
     0
440
 16777216
370
    -2
100
AcDbLine
 10
3416.25
 20
2411.875
 30
0.0
 11
3416.25
 21
2539.61780832195
 31
0.0
  0
LINE
  5
F3F
330
72C
100
AcDbEntity
  8
寸法
 62
     0
440
 16777216
370
    -2
100
AcDbLine
 10
3466.25
 20
2392.875
 30
0.0
 11
3466.25
 21
2539.61780832195
 31
0.0
  0
LINE
  5
F40
330
72C
100
AcDbEntity
  8
寸法
 62
     0
440
 16777216
370
    -2
100
AcDbLine
 10
3378.75
 20
2520.867808321949
 30
0.0
 11
3341.25
 21
2520.867808321949
 31
0.0
  0
LINE
  5
F41
330
72C
100
AcDbEntity
  8
寸法
 62
     0
440
 16777216
370
    -2
100
AcDbLine
 10
3503.75
 20
2520.867808321949
 30
0.0
 11
3541.25
 21
2520.867808321949
 31
0.0
  0
MTEXT
  5
F42
330
72C
100
AcDbEntity
  8
寸法
 62
     0
440
 16777216
100
AcDbMText
 10
3531.87231887167
 20
2549.785587113234
 30
0.0
 40
37.5
 41
0.0
 46
0.0
 71
     5
 72
     1
  1
50
 73
     1
 44
1.0
  0
LINE
  5
F43
330
72C
100
AcDbEntity
  8
寸法
 62
     0
440
 16777216
370
    -2
100
AcDbLine
 10
3416.25
 20
2520.867808321949
 30
0.0
 11
3466.25
 21
2520.867808321949
 31
0.0
  0
SOLID
  5
F44
330
72C
100
AcDbEntity
  8
寸法
 62
     0
440
 16777216
100
AcDbTrace
 10
3378.75
 20
2527.117808321949
 30
0.0
 11
3378.75
 21
2514.617808321949
 31
0.0
 12
3416.25
 22
2520.867808321949
 32
0.0
 13
3416.25
 23
2520.867808321949
 33
0.0
  0
SOLID
  5
F45
330
72C
100
AcDbEntity
  8
寸法
 62
     0
440
 16777216
100
AcDbTrace
 10
3503.75
 20
2527.117808321949
 30
0.0
 11
3503.75
 21
2514.617808321949
 31
0.0
 12
3466.25
 22
2520.867808321949
 32
0.0
 13
3466.25
 23
2520.867808321949
 33
0.0
  0
POINT
  5
F46
330
72C
100
AcDbEntity
  8
Defpoints
 62
     0
440
 16777216
100
AcDbPoint
 10
3416.25
 20
2387.5
 30
0.0
  0
POINT
  5
F47
330
72C
100
AcDbEntity
  8
Defpoints
 62
     0
440
 16777216
100
AcDbPoint
 10
3466.25
 20
2368.5
 30
0.0
  0
POINT
  5
F48
330
72C
100
AcDbEntity
  8
Defpoints
 62
     0
440
 16777216
100
AcDbPoint
 10
3466.25
 20
2520.867808321949
 30
0.0
  0
ENDBLK
  5
72E
330
72C
100
AcDbEntity
  8
0
100
AcDbBlockEnd
  0
BLOCK
  5
749
330
748
100
AcDbEntity
  8
0
100
AcDbBlockBegin
  2
*D22
 70
     1
 10
0.0
 20
0.0
 30
0.0
  3
*D22
  1

  0
LINE
  5
F49
330
748
100
AcDbEntity
  8
寸法
 62
     0
440
 16777216
370
    -2
100
AcDbLine
 10
3116.25
 20
2411.875
 30
0.0
 11
3116.25
 21
2539.61780832195
 31
0.0
  0
LINE
  5
F4A
330
748
100
AcDbEntity
  8
寸法
 62
     0
440
 16777216
370
    -2
100
AcDbLine
 10
3416.25
 20
2411.875
 30
0.0
 11
3416.25
 21
2539.61780832195
 31
0.0
  0
LINE
  5
F4B
330
748
100
AcDbEntity
  8
寸法
 62
     0
440
 16777216
370
    -2
100
AcDbLine
 10
3153.75
 20
2520.867808321949
 30
0.0
 11
3378.75
 21
2520.867808321949
 31
0.0
  0
SOLID
  5
F4C
330
748
100
AcDbEntity
  8
寸法
 62
     0
440
 16777216
100
AcDbTrace
 10
3153.75
 20
2527.117808321949
 30
0.0
 11
3153.75
 21
2514.617808321949
 31
0.0
 12
3116.25
 22
2520.867808321949
 32
0.0
 13
3116.25
 23
2520.867808321949
 33
0.0
  0
SOLID
  5
F4D
330
748
100
AcDbEntity
  8
寸法
 62
     0
440
 16777216
100
AcDbTrace
 10
3378.75
 20
2527.117808321949
 30
0.0
 11
3378.75
 21
2514.617808321949
 31
0.0
 12
3416.25
 22
2520.867808321949
 32
0.0
 13
3416.25
 23
2520.867808321949
 33
0.0
  0
MTEXT
  5
F4E
330
748
100
AcDbEntity
  8
寸法
 62
     0
440
 16777216
100
AcDbMText
 10
3266.25
 20
2563.99280832195
 30
0.0
 40
37.5
 41
0.0
 46
0.0
 71
     5
 72
     1
  1
300
 73
     1
 44
1.0
  0
POINT
  5
F4F
330
748
100
AcDbEntity
  8
Defpoints
 62
     0
440
 16777216
100
AcDbPoint
 10
3116.25
 20
2387.5
 30
0.0
  0
POINT
  5
F50
330
748
100
AcDbEntity
  8
Defpoints
 62
     0
440
 16777216
100
AcDbPoint
 10
3416.25
 20
2387.5
 30
0.0
  0
POINT
  5
F51
330
748
100
AcDbEntity
  8
Defpoints
 62
     0
440
 16777216
100
AcDbPoint
 10
3416.25
 20
2520.867808321949
 30
0.0
  0
ENDBLK
  5
74A
330
748
100
AcDbEntity
  8
0
100
AcDbBlockEnd
  0
BLOCK
  5
78F
330
78E
100
AcDbEntity
  8
0
100
AcDbBlockBegin
  2
*D23
 70
     1
 10
0.0
 20
0.0
 30
0.0
  3
*D23
  1

  0
LINE
  5
F52
330
78E
100
AcDbEntity
  8
寸法
 62
     0
440
 16777216
370
    -2
100
AcDbLine
 10
3490.625
 20
2337.5
 30
0.0
 11
3588.300158566474
 21
2337.5
 31
0.0
  0
LINE
  5
F53
330
78E
100
AcDbEntity
  8
寸法
 62
     0
440
 16777216
370
    -2
100
AcDbLine
 10
3471.625
 20
2387.5
 30
0.0
 11
3588.300158566474
 21
2387.5
 31
0.0
  0
LINE
  5
F54
330
78E
100
AcDbEntity
  8
寸法
 62
     0
440
 16777216
370
    -2
100
AcDbLine
 10
3569.550158566474
 20
2300.0
 30
0.0
 11
3569.550158566474
 21
2262.5
 31
0.0
  0
LINE
  5
F55
330
78E
100
AcDbEntity
  8
寸法
 62
     0
440
 16777216
370
    -2
100
AcDbLine
 10
3569.550158566474
 20
2425.0
 30
0.0
 11
3569.550158566474
 21
2462.5
 31
0.0
  0
MTEXT
  5
F56
330
78E
100
AcDbEntity
  8
寸法
 62
     0
440
 16777216
100
AcDbMText
 10
3538.420502454928
 20
2456.516757952984
 30
0.0
 40
37.5
 41
0.0
 46
0.0
 71
     5
 72
     1
  1
50
 11
0.0000000000000001
 21
1.0
 31
0.0
 73
     1
 44
1.0
  0
LINE
  5
F57
330
78E
100
AcDbEntity
  8
寸法
 62
     0
440
 16777216
370
    -2
100
AcDbLine
 10
3569.550158566474
 20
2337.5
 30
0.0
 11
3569.550158566474
 21
2387.5
 31
0.0
  0
SOLID
  5
F58
330
78E
100
AcDbEntity
  8
寸法
 62
     0
440
 16777216
100
AcDbTrace
 10
3563.300158566474
 20
2300.0
 30
0.0
 11
3575.800158566474
 21
2300.0
 31
0.0
 12
3569.550158566474
 22
2337.5
 32
0.0
 13
3569.550158566474
 23
2337.5
 33
0.0
  0
SOLID
  5
F59
330
78E
100
AcDbEntity
  8
寸法
 62
     0
440
 16777216
100
AcDbTrace
 10
3563.300158566474
 20
2425.0
 30
0.0
 11
3575.800158566474
 21
2425.0
 31
0.0
 12
3569.550158566474
 22
2387.5
 32
0.0
 13
3569.550158566474
 23
2387.5
 33
0.0
  0
POINT
  5
F5A
330
78E
100
AcDbEntity
  8
Defpoints
 62
     0
440
 16777216
100
AcDbPoint
 10
3466.25
 20
2337.5
 30
0.0
  0
POINT
  5
F5B
330
78E
100
AcDbEntity
  8
Defpoints
 62
     0
440
 16777216
100
AcDbPoint
 10
3447.25
 20
2387.5
 30
0.0
  0
POINT
  5
F5C
330
78E
100
AcDbEntity
  8
Defpoints
 62
     0
440
 16777216
100
AcDbPoint
 10
3569.550158566474
 20
2387.5
 30
0.0
  0
ENDBLK
  5
790
330
78E
100
AcDbEntity
  8
0
100
AcDbBlockEnd
  0
BLOCK
  5
7AB
330
7AA
100
AcDbEntity
  8
0
100
AcDbBlockBegin
  2
*D24
 70
     1
 10
0.0
 20
0.0
 30
0.0
  3
*D24
  1

  0
LINE
  5
F5D
330
7AA
100
AcDbEntity
  8
寸法
 62
     0
440
 16777216
370
    -2
100
AcDbLine
 10
3490.625
 20
2037.5
 30
0.0
 11
3588.300158566474
 21
2037.5
 31
0.0
  0
LINE
  5
F5E
330
7AA
100
AcDbEntity
  8
寸法
 62
     0
440
 16777216
370
    -2
100
AcDbLine
 10
3471.625
 20
1987.5
 30
0.0
 11
3588.300158566474
 21
1987.5
 31
0.0
  0
LINE
  5
F5F
330
7AA
100
AcDbEntity
  8
寸法
 62
     0
440
 16777216
370
    -2
100
AcDbLine
 10
3569.550158566474
 20
2075.0
 30
0.0
 11
3569.550158566474
 21
2112.5
 31
0.0
  0
LINE
  5
F60
330
7AA
100
AcDbEntity
  8
寸法
 62
     0
440
 16777216
370
    -2
100
AcDbLine
 10
3569.550158566474
 20
1950.0
 30
0.0
 11
3569.550158566474
 21
1912.5
 31
0.0
  0
MTEXT
  5
F61
330
7AA
100
AcDbEntity
  8
寸法
 62
     0
440
 16777216
100
AcDbMText
 10
3535.307528360771
 20
1931.753536879087
 30
0.0
 40
37.5
 41
0.0
 46
0.0
 71
     5
 72
     1
  1
50
 11
0.0000000000000001
 21
1.0
 31
0.0
 73
     1
 44
1.0
  0
LINE
  5
F62
330
7AA
100
AcDbEntity
  8
寸法
 62
     0
440
 16777216
370
    -2
100
AcDbLine
 10
3569.550158566474
 20
2037.5
 30
0.0
 11
3569.550158566474
 21
1987.5
 31
0.0
  0
SOLID
  5
F63
330
7AA
100
AcDbEntity
  8
寸法
 62
     0
440
 16777216
100
AcDbTrace
 10
3563.300158566474
 20
2075.0
 30
0.0
 11
3575.800158566474
 21
2075.0
 31
0.0
 12
3569.550158566474
 22
2037.5
 32
0.0
 13
3569.550158566474
 23
2037.5
 33
0.0
  0
SOLID
  5
F64
330
7AA
100
AcDbEntity
  8
寸法
 62
     0
440
 16777216
100
AcDbTrace
 10
3563.300158566474
 20
1950.0
 30
0.0
 11
3575.800158566474
 21
1950.0
 31
0.0
 12
3569.550158566474
 22
1987.5
 32
0.0
 13
3569.550158566474
 23
1987.5
 33
0.0
  0
POINT
  5
F65
330
7AA
100
AcDbEntity
  8
Defpoints
 62
     0
440
 16777216
100
AcDbPoint
 10
3466.25
 20
2037.5
 30
0.0
  0
POINT
  5
F66
330
7AA
100
AcDbEntity
  8
Defpoints
 62
     0
440
 16777216
100
AcDbPoint
 10
3447.25
 20
1987.5
 30
0.0
  0
POINT
  5
F67
330
7AA
100
AcDbEntity
  8
Defpoints
 62
     0
440
 16777216
100
AcDbPoint
 10
3569.550158566474
 20
1987.5
 30
0.0
  0
ENDBLK
  5
7AC
330
7AA
100
AcDbEntity
  8
0
100
AcDbBlockEnd
  0
BLOCK
  5
800
330
7FF
100
AcDbEntity
  8
0
100
AcDbBlockBegin
  2
*D25
 70
     1
 10
0.0
 20
0.0
 30
0.0
  3
*D25
  1

  0
LINE
  5
F68
330
7FF
100
AcDbEntity
  8
寸法
 62
     0
440
 16777216
370
    -2
100
AcDbLine
 10
3490.625
 20
2337.5
 30
0.0
 11
3588.300158566474
 21
2337.5
 31
0.0
  0
LINE
  5
F69
330
7FF
100
AcDbEntity
  8
寸法
 62
     0
440
 16777216
370
    -2
100
AcDbLine
 10
3490.625
 20
2037.5
 30
0.0
 11
3588.300158566474
 21
2037.5
 31
0.0
  0
LINE
  5
F6A
330
7FF
100
AcDbEntity
  8
寸法
 62
     0
440
 16777216
370
    -2
100
AcDbLine
 10
3569.550158566474
 20
2300.0
 30
0.0
 11
3569.550158566474
 21
2075.0
 31
0.0
  0
SOLID
  5
F6B
330
7FF
100
AcDbEntity
  8
寸法
 62
     0
440
 16777216
100
AcDbTrace
 10
3563.300158566474
 20
2300.0
 30
0.0
 11
3575.800158566474
 21
2300.0
 31
0.0
 12
3569.550158566474
 22
2337.5
 32
0.0
 13
3569.550158566474
 23
2337.5
 33
0.0
  0
SOLID
  5
F6C
330
7FF
100
AcDbEntity
  8
寸法
 62
     0
440
 16777216
100
AcDbTrace
 10
3563.300158566474
 20
2075.0
 30
0.0
 11
3575.800158566474
 21
2075.0
 31
0.0
 12
3569.550158566474
 22
2037.5
 32
0.0
 13
3569.550158566474
 23
2037.5
 33
0.0
  0
MTEXT
  5
F6D
330
7FF
100
AcDbEntity
  8
寸法
 62
     0
440
 16777216
100
AcDbMText
 10
3526.425158566473
 20
2187.500000000001
 30
0.0
 40
37.5
 41
0.0
 46
0.0
 71
     5
 72
     1
  1
300
 11
0.0000000000000001
 21
1.0
 31
0.0
 73
     1
 44
1.0
  0
POINT
  5
F6E
330
7FF
100
AcDbEntity
  8
Defpoints
 62
     0
440
 16777216
100
AcDbPoint
 10
3466.25
 20
2337.5
 30
0.0
  0
POINT
  5
F6F
330
7FF
100
AcDbEntity
  8
Defpoints
 62
     0
440
 16777216
100
AcDbPoint
 10
3466.25
 20
2037.5
 30
0.0
  0
POINT
  5
F70
330
7FF
100
AcDbEntity
  8
Defpoints
 62
     0
440
 16777216
100
AcDbPoint
 10
3569.550158566474
 20
2037.5
 30
0.0
  0
ENDBLK
  5
801
330
7FF
100
AcDbEntity
  8
0
100
AcDbBlockEnd
  0
BLOCK
  5
83C
330
83B
100
AcDbEntity
  8
0
100
AcDbBlockBegin
  2
*D26
 70
     1
 10
0.0
 20
0.0
 30
0.0
  3
*D26
  1

  0
LINE
  5
F71
330
83B
100
AcDbEntity
  8
寸法
 62
     0
440
 16777216
370
    -2
100
AcDbLine
 10
3066.25
 20
2392.875
 30
0.0
 11
3066.25
 21
2623.892479652936
 31
0.0
  0
LINE
  5
F72
330
83B
100
AcDbEntity
  8
寸法
 62
     0
440
 16777216
370
    -2
100
AcDbLine
 10
3466.25
 20
2392.875
 30
0.0
 11
3466.25
 21
2623.892479652936
 31
0.0
  0
LINE
  5
F73
330
83B
100
AcDbEntity
  8
寸法
 62
     0
440
 16777216
370
    -2
100
AcDbLine
 10
3103.75
 20
2605.142479652935
 30
0.0
 11
3428.75
 21
2605.142479652935
 31
0.0
  0
SOLID
  5
F74
330
83B
100
AcDbEntity
  8
寸法
 62
     0
440
 16777216
100
AcDbTrace
 10
3103.75
 20
2611.392479652935
 30
0.0
 11
3103.75
 21
2598.892479652935
 31
0.0
 12
3066.25
 22
2605.142479652935
 32
0.0
 13
3066.25
 23
2605.142479652935
 33
0.0
  0
SOLID
  5
F75
330
83B
100
AcDbEntity
  8
寸法
 62
     0
440
 16777216
100
AcDbTrace
 10
3428.75
 20
2611.392479652935
 30
0.0
 11
3428.75
 21
2598.892479652935
 31
0.0
 12
3466.25
 22
2605.142479652935
 32
0.0
 13
3466.25
 23
2605.142479652935
 33
0.0
  0
MTEXT
  5
F76
330
83B
100
AcDbEntity
  8
寸法
 62
     0
440
 16777216
100
AcDbMText
 10
3266.25
 20
2648.267479652936
 30
0.0
 40
37.5
 41
0.0
 46
0.0
 71
     5
 72
     1
  1
400
 73
     1
 44
1.0
  0
POINT
  5
F77
330
83B
100
AcDbEntity
  8
Defpoints
 62
     0
440
 16777216
100
AcDbPoint
 10
3066.25
 20
2368.5
 30
0.0
  0
POINT
  5
F78
330
83B
100
AcDbEntity
  8
Defpoints
 62
     0
440
 16777216
100
AcDbPoint
 10
3466.25
 20
2368.5
 30
0.0
  0
POINT
  5
F79
330
83B
100
AcDbEntity
  8
Defpoints
 62
     0
440
 16777216
100
AcDbPoint
 10
3466.25
 20
2605.142479652935
 30
0.0
  0
ENDBLK
  5
83D
330
83B
100
AcDbEntity
  8
0
100
AcDbBlockEnd
  0
BLOCK
  5
849
330
848
100
AcDbEntity
  8
0
100
AcDbBlockBegin
  2
*D27
 70
     1
 10
0.0
 20
0.0
 30
0.0
  3
*D27
  1

  0
LINE
  5
F7A
330
848
100
AcDbEntity
  8
寸法
 62
     0
440
 16777216
370
    -2
100
AcDbLine
 10
3471.625
 20
2387.5
 30
0.0
 11
3682.726784932495
 21
2387.5
 31
0.0
  0
LINE
  5
F7B
330
848
100
AcDbEntity
  8
寸法
 62
     0
440
 16777216
370
    -2
100
AcDbLine
 10
3471.625
 20
1987.5
 30
0.0
 11
3682.726784932495
 21
1987.5
 31
0.0
  0
LINE
  5
F7C
330
848
100
AcDbEntity
  8
寸法
 62
     0
440
 16777216
370
    -2
100
AcDbLine
 10
3663.976784932495
 20
2350.0
 30
0.0
 11
3663.976784932495
 21
2025.0
 31
0.0
  0
SOLID
  5
F7D
330
848
100
AcDbEntity
  8
寸法
 62
     0
440
 16777216
100
AcDbTrace
 10
3657.726784932495
 20
2350.0
 30
0.0
 11
3670.226784932495
 21
2350.0
 31
0.0
 12
3663.976784932495
 22
2387.5
 32
0.0
 13
3663.976784932495
 23
2387.5
 33
0.0
  0
SOLID
  5
F7E
330
848
100
AcDbEntity
  8
寸法
 62
     0
440
 16777216
100
AcDbTrace
 10
3657.726784932495
 20
2025.0
 30
0.0
 11
3670.226784932495
 21
2025.0
 31
0.0
 12
3663.976784932495
 22
1987.5
 32
0.0
 13
3663.976784932495
 23
1987.5
 33
0.0
  0
MTEXT
  5
F7F
330
848
100
AcDbEntity
  8
寸法
 62
     0
440
 16777216
100
AcDbMText
 10
3620.851784932494
 20
2187.500000000001
 30
0.0
 40
37.5
 41
0.0
 46
0.0
 71
     5
 72
     1
  1
400
 11
0.0000000000000001
 21
1.0
 31
0.0
 73
     1
 44
1.0
  0
POINT
  5
F80
330
848
100
AcDbEntity
  8
Defpoints
 62
     0
440
 16777216
100
AcDbPoint
 10
3447.25
 20
2387.5
 30
0.0
  0
POINT
  5
F81
330
848
100
AcDbEntity
  8
Defpoints
 62
     0
440
 16777216
100
AcDbPoint
 10
3447.25
 20
1987.5
 30
0.0
  0
POINT
  5
F82
330
848
100
AcDbEntity
  8
Defpoints
 62
     0
440
 16777216
100
AcDbPoint
 10
3663.976784932495
 20
1987.5
 30
0.0
  0
ENDBLK
  5
84A
330
848
100
AcDbEntity
  8
0
100
AcDbBlockEnd
  0
BLOCK
  5
95A
330
959
100
AcDbEntity
  8
0
100
AcDbBlockBegin
  2
*D28
 70
     1
 10
0.0
 20
0.0
 30
0.0
  3
*D28
  1

  0
LINE
  5
F83
330
959
100
AcDbEntity
  8
寸法
 62
     0
440
 16777216
370
    -2
100
AcDbLine
 10
3490.625
 20
1687.5
 30
0.0
 11
3588.300158566474
 21
1687.5
 31
0.0
  0
LINE
  5
F84
330
959
100
AcDbEntity
  8
寸法
 62
     0
440
 16777216
370
    -2
100
AcDbLine
 10
3490.625
 20
1387.5
 30
0.0
 11
3588.300158566474
 21
1387.5
 31
0.0
  0
LINE
  5
F85
330
959
100
AcDbEntity
  8
寸法
 62
     0
440
 16777216
370
    -2
100
AcDbLine
 10
3569.550158566474
 20
1650.0
 30
0.0
 11
3569.550158566474
 21
1425.0
 31
0.0
  0
SOLID
  5
F86
330
959
100
AcDbEntity
  8
寸法
 62
     0
440
 16777216
100
AcDbTrace
 10
3563.300158566474
 20
1650.0
 30
0.0
 11
3575.800158566474
 21
1650.0
 31
0.0
 12
3569.550158566474
 22
1687.5
 32
0.0
 13
3569.550158566474
 23
1687.5
 33
0.0
  0
SOLID
  5
F87
330
959
100
AcDbEntity
  8
寸法
 62
     0
440
 16777216
100
AcDbTrace
 10
3563.300158566474
 20
1425.0
 30
0.0
 11
3575.800158566474
 21
1425.0
 31
0.0
 12
3569.550158566474
 22
1387.5
 32
0.0
 13
3569.550158566474
 23
1387.5
 33
0.0
  0
MTEXT
  5
F88
330
959
100
AcDbEntity
  8
寸法
 62
     0
440
 16777216
100
AcDbMText
 10
3526.425158566473
 20
1537.5
 30
0.0
 40
37.5
 41
0.0
 46
0.0
 71
     5
 72
     1
  1
300
 11
0.0000000000000001
 21
1.0
 31
0.0
 73
     1
 44
1.0
  0
POINT
  5
F89
330
959
100
AcDbEntity
  8
Defpoints
 62
     0
440
 16777216
100
AcDbPoint
 10
3466.25
 20
1687.5
 30
0.0
  0
POINT
  5
F8A
330
959
100
AcDbEntity
  8
Defpoints
 62
     0
440
 16777216
100
AcDbPoint
 10
3466.25
 20
1387.5
 30
0.0
  0
POINT
  5
F8B
330
959
100
AcDbEntity
  8
Defpoints
 62
     0
440
 16777216
100
AcDbPoint
 10
3569.550158566474
 20
1387.5
 30
0.0
  0
ENDBLK
  5
95B
330
959
100
AcDbEntity
  8
0
100
AcDbBlockEnd
  0
BLOCK
  5
972
330
971
100
AcDbEntity
  8
0
100
AcDbBlockBegin
  2
*D29
 70
     1
 10
0.0
 20
0.0
 30
0.0
  3
*D29
  1

  0
LINE
  5
F8C
330
971
100
AcDbEntity
  8
寸法
 62
     0
440
 16777216
370
    -2
100
AcDbLine
 10
3490.625000000001
 20
1087.5
 30
0.0
 11
3588.300158566474
 21
1087.5
 31
0.0
  0
LINE
  5
F8D
330
971
100
AcDbEntity
  8
寸法
 62
     0
440
 16777216
370
    -2
100
AcDbLine
 10
3490.625
 20
937.5
 30
0.0
 11
3588.300158566473
 21
937.5
 31
0.0
  0
LINE
  5
F8E
330
971
100
AcDbEntity
  8
寸法
 62
     0
440
 16777216
370
    -2
100
AcDbLine
 10
3569.550158566474
 20
1050.0
 30
0.0
 11
3569.550158566473
 21
975.0
 31
0.0
  0
SOLID
  5
F8F
330
971
100
AcDbEntity
  8
寸法
 62
     0
440
 16777216
100
AcDbTrace
 10
3563.300158566474
 20
1050.0
 30
0.0
 11
3575.800158566474
 21
1050.0
 31
0.0
 12
3569.550158566474
 22
1087.5
 32
0.0
 13
3569.550158566474
 23
1087.5
 33
0.0
  0
SOLID
  5
F90
330
971
100
AcDbEntity
  8
寸法
 62
     0
440
 16777216
100
AcDbTrace
 10
3563.300158566473
 20
975.0
 30
0.0
 11
3575.800158566473
 21
975.0
 31
0.0
 12
3569.550158566473
 22
937.5
 32
0.0
 13
3569.550158566473
 23
937.5
 33
0.0
  0
MTEXT
  5
F91
330
971
100
AcDbEntity
  8
寸法
 62
     0
440
 16777216
100
AcDbMText
 10
3526.425158566473
 20
1012.5
 30
0.0
 40
37.5
 41
0.0
 46
0.0
 71
     5
 72
     1
  1
150
 11
0.0000000000000001
 21
1.0
 31
0.0
 73
     1
 44
1.0
  0
POINT
  5
F92
330
971
100
AcDbEntity
  8
Defpoints
 62
     0
440
 16777216
100
AcDbPoint
 10
3466.250000000001
 20
1087.5
 30
0.0
  0
POINT
  5
F93
330
971
100
AcDbEntity
  8
Defpoints
 62
     0
440
 16777216
100
AcDbPoint
 10
3466.25
 20
937.5
 30
0.0
  0
POINT
  5
F94
330
971
100
AcDbEntity
  8
Defpoints
 62
     0
440
 16777216
100
AcDbPoint
 10
3569.550158566473
 20
937.5
 30
0.0
  0
ENDBLK
  5
973
330
971
100
AcDbEntity
  8
0
100
AcDbBlockEnd
  0
BLOCK
  5
9FD
330
9FC
100
AcDbEntity
  8
0
100
AcDbBlockBegin
  2
*D30
 70
     1
 10
0.0
 20
0.0
 30
0.0
  3
*D30
  1

  0
LINE
  5
F95
330
9FC
100
AcDbEntity
  8
寸法
 62
     0
440
 16777216
370
    -2
100
AcDbLine
 10
1393.125
 20
362.5
 30
0.0
 11
1460.78975814693
 21
362.5
 31
0.0
  0
LINE
  5
F96
330
9FC
100
AcDbEntity
  8
寸法
 62
     0
440
 16777216
370
    -2
100
AcDbLine
 10
1393.125
 20
412.5
 30
0.0
 11
1460.78975814693
 21
412.4999999999999
 31
0.0
  0
LINE
  5
F97
330
9FC
100
AcDbEntity
  8
寸法
 62
     0
440
 16777216
370
    -2
100
AcDbLine
 10
1442.03975814693
 20
325.0
 30
0.0
 11
1442.03975814693
 21
287.5
 31
0.0
  0
LINE
  5
F98
330
9FC
100
AcDbEntity
  8
寸法
 62
     0
440
 16777216
370
    -2
100
AcDbLine
 10
1442.03975814693
 20
449.9999999999999
 30
0.0
 11
1442.03975814693
 21
487.4999999999999
 31
0.0
  0
MTEXT
  5
F99
330
9FC
100
AcDbEntity
  8
寸法
 62
     0
440
 16777216
100
AcDbMText
 10
1495.124997853991
 20
389.8790129060999
 30
0.0
 40
37.5
 41
0.0
 46
0.0
 71
     5
 72
     1
  1
50
 11
0.0000000000000001
 21
1.0
 31
0.0
 73
     1
 44
1.0
  0
LINE
  5
F9A
330
9FC
100
AcDbEntity
  8
寸法
 62
     0
440
 16777216
370
    -2
100
AcDbLine
 10
1442.03975814693
 20
362.5
 30
0.0
 11
1442.03975814693
 21
412.4999999999999
 31
0.0
  0
SOLID
  5
F9B
330
9FC
100
AcDbEntity
  8
寸法
 62
     0
440
 16777216
100
AcDbTrace
 10
1435.78975814693
 20
325.0
 30
0.0
 11
1448.28975814693
 21
325.0
 31
0.0
 12
1442.03975814693
 22
362.5
 32
0.0
 13
1442.03975814693
 23
362.5
 33
0.0
  0
SOLID
  5
F9C
330
9FC
100
AcDbEntity
  8
寸法
 62
     0
440
 16777216
100
AcDbTrace
 10
1435.78975814693
 20
449.9999999999999
 30
0.0
 11
1448.28975814693
 21
449.9999999999999
 31
0.0
 12
1442.03975814693
 22
412.4999999999999
 32
0.0
 13
1442.03975814693
 23
412.4999999999999
 33
0.0
  0
POINT
  5
F9D
330
9FC
100
AcDbEntity
  8
Defpoints
 62
     0
440
 16777216
100
AcDbPoint
 10
1368.75
 20
362.5
 30
0.0
  0
POINT
  5
F9E
330
9FC
100
AcDbEntity
  8
Defpoints
 62
     0
440
 16777216
100
AcDbPoint
 10
1368.75
 20
412.5
 30
0.0
  0
POINT
  5
F9F
330
9FC
100
AcDbEntity
  8
Defpoints
 62
     0
440
 16777216
100
AcDbPoint
 10
1442.03975814693
 20
412.4999999999999
 30
0.0
  0
ENDBLK
  5
9FE
330
9FC
100
AcDbEntity
  8
0
100
AcDbBlockEnd
  0
ENDSEC
  0
SECTION
  2
ENTITIES
  0
LWPOLYLINE
  5
9A
330
67
100
AcDbEntity
  8
用紙
100
AcDbPolyline
 90
        4
 70
     1
 43
0.0
 10
0.0
 20
0.0
 10
4455.0
 20
0.0
 10
4455.0
 20
3150.0
 10
0.0
 20
3150.0
  0
LWPOLYLINE
  5
9B
330
67
100
AcDbEntity
  8
輪郭
100
AcDbPolyline
 90
        4
 70
     1
 43
0.0
 10
150.0
 20
150.0
 10
4305.0
 20
150.0
 10
4305.0
 20
3000.0
 10
150.0
 20
3000.0
  0
LINE
  5
C4
330
67
100
AcDbEntity
  8
表題
100
AcDbLine
 10
3030.0
 20
150.0
 30
0.0
 11
4305.0
 21
150.0
 31
0.0
  0
LINE
  5
C5
330
67
100
AcDbEntity
  8
表題
100
AcDbLine
 10
4305.0
 20
150.0
 30
0.0
 11
4305.0
 21
525.0
 31
0.0
  0
LINE
  5
C6
330
67
100
AcDbEntity
  8
表題
100
AcDbLine
 10
4079.999999999999
 20
225.0
 30
0.0
 11
4079.999999999999
 21
375.0
 31
0.0
  0
LINE
  5
C7
330
67
100
AcDbEntity
  8
表題
100
AcDbLine
 10
3855.0
 20
225.0
 30
0.0
 11
3855.0
 21
375.0
 31
0.0
  0
LINE
  5
C8
330
67
100
AcDbEntity
  8
表題
100
AcDbLine
 10
4305.0
 20
525.0
 30
0.0
 11
3030.0
 21
525.0
 31
0.0
  0
LINE
  5
C9
330
67
100
AcDbEntity
  8
表題
100
AcDbLine
 10
4305.0
 20
375.0
 30
0.0
 11
3030.0
 21
375.0
 31
0.0
  0
LINE
  5
CA
330
67
100
AcDbEntity
  8
表題
100
AcDbLine
 10
4305.0
 20
300.0
 30
0.0
 11
3030.0
 21
300.0
 31
0.0
  0
LINE
  5
CB
330
67
100
AcDbEntity
  8
表題
100
AcDbLine
 10
4305.0
 20
225.0
 30
0.0
 11
3030.0
 21
225.0
 31
0.0
  0
LINE
  5
CC
330
67
100
AcDbEntity
  8
表題
100
AcDbLine
 10
3030.0
 20
525.0
 30
0.0
 11
3030.0
 21
150.0
 31
0.0
  0
LINE
  5
CD
330
67
100
AcDbEntity
  8
表題
100
AcDbLine
 10
3255.0
 20
525.0
 30
0.0
 11
3255.0
 21
375.0
 31
0.0
  0
TEXT
  5
CE
330
67
100
AcDbEntity
  8
表題
100
AcDbText
 10
3054.784263959391
 20
427.5
 30
0.0
 40
45.0
  1
製品名
  7
文字
 72
     1
 11
3142.5
 21
450.0
 31
0.0
100
AcDbText
 73
     2
  0
TEXT
  5
CF
330
67
100
AcDbEntity
  8
表題
100
AcDbText
 10
3429.137055837563
 20
427.5
 30
0.0
 40
45.0
  1
特殊改良ます　ＣＤ３００
  7
文字
 72
     1
 11
3780.0
 21
450.0
 31
0.0
100
AcDbText
 73
     2
  0
TEXT
  5
D0
330
67
100
AcDbEntity
  8
表題
100
AcDbText
 10
3237.829949238578
 20
315.0
 30
0.0
 40
45.0
  1
図　面　番　号
  7
文字
 72
     1
 11
3442.499999999999
 21
337.5
 31
0.0
100
AcDbText
 73
     2
  0
TEXT
  5
D1
330
67
100
AcDbEntity
  8
表題
100
AcDbText
 10
3909.022842639592
 20
315.0
 30
0.0
 40
45.0
  1
担当
  7
文字
 72
     1
 11
3967.499999999999
 21
337.5
 31
0.0
100
AcDbText
 73
     2
  0
TEXT
  5
D2
330
67
100
AcDbEntity
  8
表題
100
AcDbText
 10
4119.403553299492
 20
240.0
 30
0.0
 40
45.0
  1
1：15
  7
文字
 72
     1
 11
4192.5
 21
262.5
 31
0.0
100
AcDbText
 73
     2
  0
TEXT
  5
D3
330
67
100
AcDbEntity
  8
表題
100
AcDbText
 10
3433.591370558376
 20
165.0
 30
0.0
 40
45.0
  1
大生建材株式会社
  7
文字
 72
     1
 11
3667.5
 21
187.5
 31
0.0
100
AcDbText
 73
     2
  0
TEXT
  5
D4
330
67
100
AcDbEntity
  8
表題
100
AcDbText
 10
4134.022842639594
 20
315.0
 30
0.0
 40
45.0
  1
尺度
  7
文字
 72
     1
 11
4192.5
 21
337.5
 31
0.0
100
AcDbText
 73
     2
  0
LWPOLYLINE
  5
16A
330
67
100
AcDbEntity
  8
製品
100
AcDbPolyline
 90
        4
 70
     1
 43
0.0
 10
1003.75
 20
2372.5
 10
1373.75
 20
2372.5
 10
1373.75
 20
2002.5
 10
1003.75
 20
2002.5
  0
LWPOLYLINE
  5
16B
330
67
100
AcDbEntity
  8
製品
100
AcDbPolyline
 90
        4
 70
     1
 43
0.0
 10
1003.75
 20
947.4999999999999
 10
1373.75
 20
947.4999999999999
 10
1373.75
 20
577.5
 10
1003.75
 20
577.5
  0
LWPOLYLINE
  5
16C
330
67
100
AcDbEntity
  8
製品
100
AcDbPolyline
 90
        4
 70
     1
 43
0.0
 10
1008.75
 20
2367.5
 10
1368.75
 20
2367.5
 10
1368.75
 20
2007.5
 10
1008.75
 20
2007.5
  0
LWPOLYLINE
  5
16D
330
67
100
AcDbEntity
  8
製品
100
AcDbPolyline
 90
        4
 70
     1
 43
0.0
 10
1006.75
 20
944.5
 10
1370.75
 20
944.5
 10
1370.75
 20
580.4999999999999
 10
1006.75
 20
580.4999999999999
  0
LINE
  5
172
330
67
100
AcDbEntity
  8
製品
100
AcDbLine
 10
1008.75
 20
1787.5
 30
0.0
 11
1003.75
 21
1832.5
 31
0.0
  0
LINE
  5
173
330
67
100
AcDbEntity
  8
製品
100
AcDbLine
 10
1003.75
 20
1832.5
 30
0.0
 11
1008.75
 21
1837.5
 31
0.0
  0
LINE
  5
174
330
67
100
AcDbEntity
  8
製品
100
AcDbLine
 10
1008.75
 20
1837.5
 30
0.0
 11
1368.75
 21
1837.5
 31
0.0
  0
LINE
  5
175
102
{ACAD_REACTORS
330
34B
102
}
330
67
100
AcDbEntity
  8
製品
100
AcDbLine
 10
1368.75
 20
1837.5
 30
0.0
 11
1373.75
 21
1832.5
 31
0.0
  0
LINE
  5
176
330
67
100
AcDbEntity
  8
製品
100
AcDbLine
 10
1373.75
 20
1832.5
 30
0.0
 11
1368.75
 21
1787.5
 31
0.0
  0
LINE
  5
177
102
{ACAD_REACTORS
330
34B
330
363
102
}
330
67
100
AcDbEntity
  8
製品
100
AcDbLine
 10
1368.75
 20
1787.5
 30
0.0
 11
1008.75
 21
1787.5
 31
0.0
  0
LINE
  5
17A
330
67
100
AcDbEntity
  8
製品
100
AcDbLine
 10
1008.75
 20
362.5
 30
0.0
 11
1003.75
 21
409.4999999999999
 31
0.0
  0
LINE
  5
17B
330
67
100
AcDbEntity
  8
製品
100
AcDbLine
 10
1003.75
 20
409.4999999999999
 30
0.0
 11
1006.75
 21
412.5
 31
0.0
  0
LINE
  5
17C
330
67
100
AcDbEntity
  8
製品
100
AcDbLine
 10
1006.75
 20
412.5
 30
0.0
 11
1370.75
 21
412.5
 31
0.0
  0
LINE
  5
17D
330
67
100
AcDbEntity
  8
製品
100
AcDbLine
 10
1370.75
 20
412.5
 30
0.0
 11
1373.75
 21
409.4999999999999
 31
0.0
  0
LINE
  5
17E
330
67
100
AcDbEntity
  8
製品
100
AcDbLine
 10
1373.75
 20
409.4999999999999
 30
0.0
 11
1368.75
 21
362.5
 31
0.0
  0
LINE
  5
17F
330
67
100
AcDbEntity
  8
製品
100
AcDbLine
 10
1368.75
 20
362.5
 30
0.0
 11
1008.75
 21
362.5
 31
0.0
  0
LINE
  5
180
330
67
100
AcDbEntity
  8
製品2
100
AcDbLine
 10
1003.75
 20
409.4999999999999
 30
0.0
 11
1373.75
 21
409.4999999999999
 31
0.0
  0
LINE
  5
181
330
67
100
AcDbEntity
  8
製品2
100
AcDbLine
 10
1003.75
 20
1832.5
 30
0.0
 11
1373.75
 21
1832.5
 31
0.0
  0
LINE
  5
182
330
67
100
AcDbEntity
  8
製品
100
AcDbLine
 10
1008.75
 20
2007.5
 30
0.0
 11
1003.75
 21
2002.5
 31
0.0
  0
LINE
  5
183
102
{ACAD_REACTORS
330
301
102
}
330
67
100
AcDbEntity
  8
製品
100
AcDbLine
 10
1368.75
 20
2007.5
 30
0.0
 11
1373.75
 21
2002.5
 31
0.0
  0
LINE
  5
184
102
{ACAD_REACTORS
330
2E9
102
}
330
67
100
AcDbEntity
  8
製品
100
AcDbLine
 10
1008.75
 20
2367.5
 30
0.0
 11
1003.75
 21
2372.5
 31
0.0
  0
LINE
  5
185
102
{ACAD_REACTORS
330
2E9
102
}
330
67
100
AcDbEntity
  8
製品
100
AcDbLine
 10
1368.75
 20
2367.5
 30
0.0
 11
1373.75
 21
2372.5
 31
0.0
  0
LINE
  5
186
330
67
100
AcDbEntity
  8
製品
100
AcDbLine
 10
1006.75
 20
580.4999999999999
 30
0.0
 11
1003.75
 21
577.5
 31
0.0
  0
LINE
  5
187
330
67
100
AcDbEntity
  8
製品
100
AcDbLine
 10
1370.75
 20
580.4999999999999
 30
0.0
 11
1373.75
 21
577.5
 31
0.0
  0
LINE
  5
188
330
67
100
AcDbEntity
  8
製品
100
AcDbLine
 10
1006.75
 20
944.5
 30
0.0
 11
1003.75
 21
947.4999999999999
 31
0.0
  0
LINE
  5
189
330
67
100
AcDbEntity
  8
製品
100
AcDbLine
 10
1370.75
 20
944.5
 30
0.0
 11
1373.75
 21
947.4999999999999
 31
0.0
  0
ARC
  5
196
330
67
100
AcDbEntity
  8
製品
100
AcDbCircle
 10
1079.75
 20
716.0
 30
0.0
 40
21.0
100
AcDbArc
 50
180.0
 51
0.0
  0
ARC
  5
197
330
67
100
AcDbEntity
  8
製品
100
AcDbCircle
 10
1079.75
 20
809.0
 30
0.0
 40
21.0
100
AcDbArc
 50
0.0
 51
180.0
  0
ARC
  5
198
330
67
100
AcDbEntity
  8
製品
100
AcDbCircle
 10
1297.75
 20
809.0
 30
0.0
 40
21.0
100
AcDbArc
 50
0.0
 51
180.0
  0
ARC
  5
199
330
67
100
AcDbEntity
  8
製品
100
AcDbCircle
 10
1297.75
 20
716.0
 30
0.0
 40
21.0
100
AcDbArc
 50
180.0
 51
0.0
  0
LINE
  5
19A
330
67
100
AcDbEntity
  8
製品
100
AcDbLine
 10
1058.75
 20
809.0
 30
0.0
 11
1058.75
 21
716.0
 31
0.0
  0
LINE
  5
19B
330
67
100
AcDbEntity
  8
製品
100
AcDbLine
 10
1100.75
 20
809.0
 30
0.0
 11
1100.75
 21
716.0
 31
0.0
  0
LINE
  5
19C
330
67
100
AcDbEntity
  8
製品
100
AcDbLine
 10
1276.75
 20
809.0
 30
0.0
 11
1276.75
 21
716.0
 31
0.0
  0
LINE
  5
19D
330
67
100
AcDbEntity
  8
製品
100
AcDbLine
 10
1318.75
 20
809.0
 30
0.0
 11
1318.75
 21
716.0
 31
0.0
  0
ARC
  5
19F
330
67
100
AcDbEntity
  8
製品
100
AcDbCircle
 10
1079.75
 20
809.0
 30
0.0
 40
18.0
100
AcDbArc
 50
0.0
 51
180.0
  0
LINE
  5
1A0
330
67
100
AcDbEntity
  8
製品
100
AcDbLine
 10
1061.75
 20
809.0
 30
0.0
 11
1061.75
 21
716.0
 31
0.0
  0
LINE
  5
1A1
330
67
100
AcDbEntity
  8
製品
100
AcDbLine
 10
1097.75
 20
809.0
 30
0.0
 11
1097.75
 21
716.0
 31
0.0
  0
ARC
  5
1A2
330
67
100
AcDbEntity
  8
製品
100
AcDbCircle
 10
1079.75
 20
716.0
 30
0.0
 40
18.0
100
AcDbArc
 50
180.0
 51
0.0
  0
ARC
  5
1A3
330
67
100
AcDbEntity
  8
製品
100
AcDbCircle
 10
1297.75
 20
809.0
 30
0.0
 40
18.0
100
AcDbArc
 50
0.0
 51
180.0
  0
LINE
  5
1A4
330
67
100
AcDbEntity
  8
製品
100
AcDbLine
 10
1279.75
 20
809.0
 30
0.0
 11
1279.75
 21
716.0
 31
0.0
  0
LINE
  5
1A5
330
67
100
AcDbEntity
  8
製品
100
AcDbLine
 10
1315.75
 20
809.0
 30
0.0
 11
1315.75
 21
716.0
 31
0.0
  0
ARC
  5
1A6
330
67
100
AcDbEntity
  8
製品
100
AcDbCircle
 10
1297.75
 20
716.0
 30
0.0
 40
18.0
100
AcDbArc
 50
180.0
 51
0.0
  0
LINE
  5
1B2
330
67
100
AcDbEntity
  8
製品
100
AcDbLine
 10
1058.75
 20
412.5
 30
0.0
 11
1061.75
 21
409.4999999999999
 31
0.0
  0
LINE
  5
1B3
330
67
100
AcDbEntity
  8
製品
100
AcDbLine
 10
1061.75
 20
409.4999999999999
 30
0.0
 11
1067.25
 21
362.5
 31
0.0
  0
LINE
  5
1B4
330
67
100
AcDbEntity
  8
製品
100
AcDbLine
 10
1100.75
 20
412.5
 30
0.0
 11
1097.75
 21
409.4999999999999
 31
0.0
  0
LINE
  5
1B5
330
67
100
AcDbEntity
  8
製品
100
AcDbLine
 10
1097.75
 20
409.4999999999999
 30
0.0
 11
1092.25
 21
362.5
 31
0.0
  0
LINE
  5
1B6
330
67
100
AcDbEntity
  8
製品
100
AcDbLine
 10
1276.75
 20
412.5
 30
0.0
 11
1279.75
 21
409.4999999999999
 31
0.0
  0
LINE
  5
1B7
330
67
100
AcDbEntity
  8
製品
100
AcDbLine
 10
1279.75
 20
409.4999999999999
 30
0.0
 11
1285.25
 21
362.5
 31
0.0
  0
LINE
  5
1B8
330
67
100
AcDbEntity
  8
製品
100
AcDbLine
 10
1310.25
 20
362.5
 30
0.0
 11
1315.75
 21
409.4999999999999
 31
0.0
  0
LINE
  5
1B9
330
67
100
AcDbEntity
  8
製品
100
AcDbLine
 10
1315.75
 20
409.4999999999999
 30
0.0
 11
1318.75
 21
412.5
 31
0.0
  0
ARC
  5
1BA
330
67
100
AcDbEntity
  8
製品1
100
AcDbCircle
 10
1079.75
 20
809.0
 30
0.0
 40
12.5
100
AcDbArc
 50
0.0
 51
180.0
  0
ARC
  5
1BB
330
67
100
AcDbEntity
  8
製品1
100
AcDbCircle
 10
1079.75
 20
716.0
 30
0.0
 40
12.5
100
AcDbArc
 50
180.0
 51
0.0
  0
ARC
  5
1BC
330
67
100
AcDbEntity
  8
製品1
100
AcDbCircle
 10
1297.75
 20
716.0
 30
0.0
 40
12.5
100
AcDbArc
 50
180.0
 51
0.0
  0
ARC
  5
1BD
330
67
100
AcDbEntity
  8
製品1
100
AcDbCircle
 10
1297.75
 20
809.0
 30
0.0
 40
12.5
100
AcDbArc
 50
0.0
 51
180.0
  0
LINE
  5
1BF
330
67
100
AcDbEntity
  8
製品1
100
AcDbLine
 10
1067.25
 20
716.0
 30
0.0
 11
1067.25
 21
809.0
 31
0.0
  0
LINE
  5
1C0
330
67
100
AcDbEntity
  8
製品1
100
AcDbLine
 10
1092.25
 20
809.0
 30
0.0
 11
1092.25
 21
716.0
 31
0.0
  0
LINE
  5
1C1
330
67
100
AcDbEntity
  8
製品1
100
AcDbLine
 10
1285.25
 20
716.0
 30
0.0
 11
1285.25
 21
809.0
 31
0.0
  0
LINE
  5
1C2
330
67
100
AcDbEntity
  8
製品1
100
AcDbLine
 10
1310.25
 20
809.0
 30
0.0
 11
1310.25
 21
716.0
 31
0.0
  0
ARC
  5
1CB
330
67
100
AcDbEntity
  8
製品
100
AcDbCircle
 10
1091.75
 20
2187.5
 30
0.0
 40
25.0
100
AcDbArc
 50
129.791819499557
 51
230.208180500443
  0
ARC
  5
1CC
330
67
100
AcDbEntity
  8
製品
100
AcDbCircle
 10
1285.75
 20
2187.5
 30
0.0
 40
25.0
100
AcDbArc
 50
129.791819499557
 51
230.208180500443
  0
ARC
  5
1CF
330
67
100
AcDbEntity
  8
製品
100
AcDbCircle
 10
1091.75
 20
2241.5
 30
0.0
 40
16.0
100
AcDbArc
 50
0.0
 51
180.0
  0
ARC
  5
1D0
330
67
100
AcDbEntity
  8
製品
100
AcDbCircle
 10
1091.75
 20
2133.5
 30
0.0
 40
16.0
100
AcDbArc
 50
180.0
 51
0.0
  0
ARC
  5
1D1
330
67
100
AcDbEntity
  8
製品
100
AcDbCircle
 10
1285.75
 20
2133.5
 30
0.0
 40
16.0
100
AcDbArc
 50
180.0
 51
0.0
  0
ARC
  5
1D2
330
67
100
AcDbEntity
  8
製品
100
AcDbCircle
 10
1285.75
 20
2241.5
 30
0.0
 40
16.0
100
AcDbArc
 50
0.0
 51
180.0
  0
LINE
  5
1D3
330
67
100
AcDbEntity
  8
製品
100
AcDbLine
 10
1075.75
 20
2241.5
 30
0.0
 11
1075.75
 21
2206.709372712299
 31
0.0
  0
LINE
  5
1D4
330
67
100
AcDbEntity
  8
製品
100
AcDbLine
 10
1075.75
 20
2168.290627287701
 30
0.0
 11
1075.75
 21
2133.5
 31
0.0
  0
LINE
  5
1D5
330
67
100
AcDbEntity
  8
製品
100
AcDbLine
 10
1107.75
 20
2168.290627287701
 30
0.0
 11
1107.75
 21
2133.5
 31
0.0
  0
LINE
  5
1D6
330
67
100
AcDbEntity
  8
製品
100
AcDbLine
 10
1107.75
 20
2241.5
 30
0.0
 11
1107.75
 21
2206.709372712299
 31
0.0
  0
LINE
  5
1D7
330
67
100
AcDbEntity
  8
製品
100
AcDbLine
 10
1269.75
 20
2241.5
 30
0.0
 11
1269.75
 21
2206.709372712299
 31
0.0
  0
LINE
  5
1D8
330
67
100
AcDbEntity
  8
製品
100
AcDbLine
 10
1301.75
 20
2241.5
 30
0.0
 11
1301.75
 21
2206.709372712299
 31
0.0
  0
LINE
  5
1D9
330
67
100
AcDbEntity
  8
製品
100
AcDbLine
 10
1269.75
 20
2168.290627287701
 30
0.0
 11
1269.75
 21
2133.5
 31
0.0
  0
LINE
  5
1DA
330
67
100
AcDbEntity
  8
製品
100
AcDbLine
 10
1301.75
 20
2168.290627287701
 30
0.0
 11
1301.75
 21
2133.5
 31
0.0
  0
ARC
  5
1DB
330
67
100
AcDbEntity
  8
製品
100
AcDbCircle
 10
1091.75
 20
2187.5
 30
0.0
 40
25.0
100
AcDbArc
 50
309.7918194995571
 51
50.20818050044293
  0
ARC
  5
1DC
330
67
100
AcDbEntity
  8
製品
100
AcDbCircle
 10
1285.75
 20
2187.5
 30
0.0
 40
25.0
100
AcDbArc
 50
309.7918194995571
 51
50.20818050044293
  0
CIRCLE
  5
1E1
330
67
100
AcDbEntity
  8
製品
100
AcDbCircle
 10
1091.75
 20
2242.5
 30
0.0
 40
5.0
  0
CIRCLE
  5
1E2
330
67
100
AcDbEntity
  8
製品
100
AcDbCircle
 10
1091.75
 20
2132.5
 30
0.0
 40
5.0
  0
CIRCLE
  5
1E3
330
67
100
AcDbEntity
  8
製品
100
AcDbCircle
 10
1285.75
 20
2132.5
 30
0.0
 40
5.0
  0
CIRCLE
  5
1E4
330
67
100
AcDbEntity
  8
製品
100
AcDbCircle
 10
1285.75
 20
2242.5
 30
0.0
 40
5.0
  0
ARC
  5
1EA
330
67
100
AcDbEntity
  8
製品
100
AcDbCircle
 10
1091.75
 20
2187.5
 30
0.0
 40
21.0
100
AcDbArc
 50
304.8499045790468
 51
55.15009542095316
  0
LINE
  5
1EB
330
67
100
AcDbEntity
  8
製品
100
AcDbLine
 10
1103.75
 20
2241.5
 30
0.0
 11
1103.75
 21
2204.733687939614
 31
0.0
  0
LINE
  5
1EC
330
67
100
AcDbEntity
  8
製品
100
AcDbLine
 10
1079.75
 20
2241.5
 30
0.0
 11
1079.75
 21
2204.733687939614
 31
0.0
  0
ARC
  5
1ED
330
67
100
AcDbEntity
  8
製品
100
AcDbCircle
 10
1091.75
 20
2187.5
 30
0.0
 40
21.0
100
AcDbArc
 50
124.8499045790468
 51
235.1500954209531
  0
LINE
  5
1EE
330
67
100
AcDbEntity
  8
製品
100
AcDbLine
 10
1079.75
 20
2170.266312060386
 30
0.0
 11
1079.75
 21
2133.5
 31
0.0
  0
LINE
  5
1EF
330
67
100
AcDbEntity
  8
製品
100
AcDbLine
 10
1103.75
 20
2170.266312060386
 30
0.0
 11
1103.75
 21
2133.5
 31
0.0
  0
ARC
  5
1F0
330
67
100
AcDbEntity
  8
製品
100
AcDbCircle
 10
1091.75
 20
2133.5
 30
0.0
 40
12.0
100
AcDbArc
 50
180.0
 51
0.0
  0
ARC
  5
1F1
330
67
100
AcDbEntity
  8
製品
100
AcDbCircle
 10
1091.75
 20
2241.5
 30
0.0
 40
12.0
100
AcDbArc
 50
0.0
 51
180.0
  0
ARC
  5
1F5
330
67
100
AcDbEntity
  8
製品
100
AcDbCircle
 10
1285.75
 20
2241.5
 30
0.0
 40
12.0
100
AcDbArc
 50
0.0
 51
180.0
  0
LINE
  5
1F6
330
67
100
AcDbEntity
  8
製品
100
AcDbLine
 10
1273.75
 20
2241.5
 30
0.0
 11
1273.75
 21
2204.733687939614
 31
0.0
  0
LINE
  5
1F7
330
67
100
AcDbEntity
  8
製品
100
AcDbLine
 10
1297.75
 20
2241.5
 30
0.0
 11
1297.75
 21
2204.733687939614
 31
0.0
  0
ARC
  5
1F8
330
67
100
AcDbEntity
  8
製品
100
AcDbCircle
 10
1285.75
 20
2187.5
 30
0.0
 40
21.0
100
AcDbArc
 50
304.8499045790468
 51
55.15009542095316
  0
ARC
  5
1F9
330
67
100
AcDbEntity
  8
製品
100
AcDbCircle
 10
1285.75
 20
2187.5
 30
0.0
 40
21.0
100
AcDbArc
 50
124.8499045790468
 51
235.1500954209531
  0
LINE
  5
1FA
330
67
100
AcDbEntity
  8
製品
100
AcDbLine
 10
1273.75
 20
2170.266312060386
 30
0.0
 11
1273.75
 21
2133.5
 31
0.0
  0
LINE
  5
1FB
330
67
100
AcDbEntity
  8
製品
100
AcDbLine
 10
1297.75
 20
2170.266312060386
 30
0.0
 11
1297.75
 21
2133.5
 31
0.0
  0
ARC
  5
1FC
330
67
100
AcDbEntity
  8
製品
100
AcDbCircle
 10
1285.75
 20
2133.5
 30
0.0
 40
12.0
100
AcDbArc
 50
180.0
 51
0.0
  0
LINE
  5
205
330
67
100
AcDbEntity
  8
製品
100
AcDbLine
 10
1066.75
 20
1837.5
 30
0.0
 11
1070.75
 21
1826.5
 31
0.0
  0
LINE
  5
206
330
67
100
AcDbEntity
  8
製品
100
AcDbLine
 10
1070.75
 20
1826.5
 30
0.0
 11
1112.75
 21
1826.5
 31
0.0
  0
LINE
  5
207
330
67
100
AcDbEntity
  8
製品
100
AcDbLine
 10
1112.75
 20
1826.5
 30
0.0
 11
1116.75
 21
1837.5
 31
0.0
  0
LINE
  5
208
330
67
100
AcDbEntity
  8
製品
100
AcDbLine
 10
1070.75
 20
1837.5
 30
0.0
 11
1075.75
 21
1826.5
 31
0.0
  0
LINE
  5
209
330
67
100
AcDbEntity
  8
製品
100
AcDbLine
 10
1112.75
 20
1837.5
 30
0.0
 11
1107.75
 21
1826.5
 31
0.0
  0
LINE
  5
210
330
67
100
AcDbEntity
  8
製品
100
AcDbLine
 10
1086.75
 20
1826.5
 30
0.0
 11
1086.75
 21
1787.5
 31
0.0
  0
LINE
  5
211
330
67
100
AcDbEntity
  8
製品
100
AcDbLine
 10
1096.75
 20
1826.5
 30
0.0
 11
1096.75
 21
1787.5
 31
0.0
  0
LINE
  5
212
330
67
100
AcDbEntity
  8
製品
100
AcDbLine
 10
1260.75
 20
1837.5
 30
0.0
 11
1264.75
 21
1826.5
 31
0.0
  0
LINE
  5
213
330
67
100
AcDbEntity
  8
製品
100
AcDbLine
 10
1264.75
 20
1826.5
 30
0.0
 11
1306.75
 21
1826.5
 31
0.0
  0
LINE
  5
214
330
67
100
AcDbEntity
  8
製品
100
AcDbLine
 10
1306.75
 20
1826.5
 30
0.0
 11
1310.75
 21
1837.5
 31
0.0
  0
LINE
  5
215
330
67
100
AcDbEntity
  8
製品
100
AcDbLine
 10
1264.75
 20
1837.5
 30
0.0
 11
1269.75
 21
1826.5
 31
0.0
  0
LINE
  5
216
330
67
100
AcDbEntity
  8
製品
100
AcDbLine
 10
1306.75
 20
1837.5
 30
0.0
 11
1301.75
 21
1826.5
 31
0.0
  0
LINE
  5
217
330
67
100
AcDbEntity
  8
製品
100
AcDbLine
 10
1280.75
 20
1826.5
 30
0.0
 11
1280.75
 21
1787.5
 31
0.0
  0
LINE
  5
218
330
67
100
AcDbEntity
  8
製品
100
AcDbLine
 10
1290.75
 20
1826.5
 30
0.0
 11
1290.75
 21
1787.5
 31
0.0
  0
TEXT
  5
235
330
67
100
AcDbEntity
  8
文字
100
AcDbText
 10
1119.787503409145
 20
2846.818145241389
 30
0.0
 40
35.0
  1
汚　蓋
  7
文字
 72
     1
 11
1188.010853662952
 21
2864.318145241389
 31
0.0
100
AcDbText
 73
     2
  0
TEXT
  5
236
330
67
100
AcDbEntity
  8
文字
100
AcDbText
 10
1119.787503409145
 20
1320.572329827953
 30
0.0
 40
35.0
  1
雨　蓋
  7
文字
 72
     1
 11
1188.010853662952
 21
1338.072329827953
 31
0.0
100
AcDbText
 73
     2
  0
TEXT
  5
240
330
67
100
AcDbEntity
  8
文字
100
AcDbText
 10
1028.823036404069
 20
2746.818145241388
 30
0.0
 40
35.0
  1
参考重量　17kg
  7
文字
 72
     1
 11
1188.010853662952
 21
2764.318145241388
 31
0.0
100
AcDbText
 73
     2
  0
TEXT
  5
241
330
67
100
AcDbEntity
  8
文字
100
AcDbText
 10
1028.823036404069
 20
1221.818145241388
 30
0.0
 40
35.0
  1
参考重量　17kg
  7
文字
 72
     1
 11
1188.010853662952
 21
1239.318145241388
 31
0.0
100
AcDbText
 73
     2
  0
LWPOLYLINE
  5
247
330
67
100
AcDbEntity
  8
製品
100
AcDbPolyline
 90
        8
 70
     1
 43
0.0
 10
1986.5
 20
2437.5
 10
2468.500000000001
 20
2437.5
 10
2477.5
 20
2428.5
 10
2477.500000000001
 20
1946.5
 10
2468.500000000001
 20
1937.5
 10
1986.5
 20
1937.5
 10
1977.5
 20
1946.5
 10
1977.5
 20
2428.5
  0
LINE
  5
24E
330
67
100
AcDbEntity
  8
製品
100
AcDbLine
 10
1986.5
 20
1687.5
 30
0.0
 11
2468.500000000001
 21
1687.5
 31
0.0
  0
LINE
  5
24F
330
67
100
AcDbEntity
  8
製品
100
AcDbLine
 10
2477.5
 20
1678.5
 30
0.0
 11
2477.5
 21
1587.5
 31
0.0
  0
LINE
  5
250
102
{ACAD_REACTORS
330
691
102
}
330
67
100
AcDbEntity
  8
製品
100
AcDbLine
 10
2477.5
 20
1587.5
 30
0.0
 11
1977.5
 21
1587.5
 31
0.0
  0
LINE
  5
251
330
67
100
AcDbEntity
  8
製品
100
AcDbLine
 10
1977.5
 20
1587.5
 30
0.0
 11
1977.5
 21
1678.5
 31
0.0
  0
LWPOLYLINE
  5
252
330
67
100
AcDbEntity
  8
製品
100
AcDbPolyline
 90
        4
 70
     1
 43
0.0
 10
2037.5
 20
2377.500000000001
 10
2417.5
 20
2377.500000000001
 10
2417.5
 20
1997.5
 10
2037.5
 20
1997.5
  0
LWPOLYLINE
  5
256
102
{ACAD_REACTORS
330
410
330
428
102
}
330
67
100
AcDbEntity
  8
製品
100
AcDbPolyline
 90
        4
 70
     1
 43
0.0
 10
2077.5
 20
2337.5
 10
2377.5
 20
2337.5
 10
2377.500000000001
 20
2037.5
 10
2077.5
 20
2037.5
  0
LWPOLYLINE
  5
257
330
67
100
AcDbEntity
  8
製品
100
AcDbPolyline
 90
        4
 70
     1
 43
0.0
 10
2042.5
 20
2372.5
 10
2412.5
 20
2372.5
 10
2412.5
 20
2002.5
 10
2042.5
 20
2002.5
  0
LINE
  5
25B
330
67
100
AcDbEntity
  8
製品
100
AcDbLine
 10
1986.5
 20
1687.5
 30
0.0
 11
1977.5
 21
1678.5
 31
0.0
  0
LINE
  5
25C
330
67
100
AcDbEntity
  8
製品
100
AcDbLine
 10
2468.500000000001
 20
1687.5
 30
0.0
 11
2477.5
 21
1678.5
 31
0.0
  0
LINE
  5
25D
102
{ACAD_REACTORS
330
49F
330
4BB
102
}
330
67
100
AcDbEntity
  8
製品2
100
AcDbLine
 10
1977.5
 20
1678.5
 30
0.0
 11
2477.5
 21
1678.5
 31
0.0
  0
LWPOLYLINE
  5
265
330
67
100
AcDbEntity
  8
製品
100
AcDbPolyline
 90
        4
 70
     1
 43
0.0
 10
2072.5
 20
2342.500000000001
 10
2382.5
 20
2342.500000000001
 10
2382.500000000001
 20
2032.5
 10
2072.5
 20
2032.5
  0
LINE
  5
26B
330
67
100
AcDbEntity
  8
製品
100
AcDbLine
 10
2077.5
 20
1587.5
 30
0.0
 11
2072.5
 21
1634.5
 31
0.0
  0
LINE
  5
26D
102
{ACAD_REACTORS
330
49F
102
}
330
67
100
AcDbEntity
  8
製品
100
AcDbLine
 10
2042.5
 20
1634.5
 30
0.0
 11
2037.5
 21
1687.5
 31
0.0
  0
LINE
  5
26E
102
{ACAD_REACTORS
330
4BB
102
}
330
67
100
AcDbEntity
  8
製品
100
AcDbLine
 10
2417.5
 20
1687.5
 30
0.0
 11
2412.5
 21
1634.5
 31
0.0
  0
LINE
  5
26F
330
67
100
AcDbEntity
  8
製品
100
AcDbLine
 10
2412.5
 20
1634.5
 30
0.0
 11
2042.5
 21
1634.5
 31
0.0
  0
LINE
  5
270
330
67
100
AcDbEntity
  8
製品
100
AcDbLine
 10
2382.5
 20
1634.5
 30
0.0
 11
2377.5
 21
1587.5
 31
0.0
  0
LINE
  5
274
330
67
100
AcDbEntity
  8
製品2
100
AcDbLine
 10
1986.5
 20
1687.5
 30
0.0
 11
1986.5
 21
1587.5
 31
0.0
  0
LINE
  5
275
102
{ACAD_REACTORS
330
675
102
}
330
67
100
AcDbEntity
  8
製品2
100
AcDbLine
 10
2468.500000000001
 20
1687.5
 30
0.0
 11
2468.500000000001
 21
1587.5
 31
0.0
  0
LINE
  5
276
102
{ACAD_REACTORS
330
46B
102
}
330
67
100
AcDbEntity
  8
製品
100
AcDbLine
 10
1977.5
 20
2428.5
 30
0.0
 11
2477.5
 21
2428.5
 31
0.0
  0
LINE
  5
277
102
{ACAD_REACTORS
330
483
102
}
330
67
100
AcDbEntity
  8
製品
100
AcDbLine
 10
2468.500000000001
 20
2437.5
 30
0.0
 11
2468.500000000001
 21
1937.5
 31
0.0
  0
LINE
  5
278
330
67
100
AcDbEntity
  8
製品
100
AcDbLine
 10
2477.500000000001
 20
1946.5
 30
0.0
 11
1977.5
 21
1946.5
 31
0.0
  0
LINE
  5
279
330
67
100
AcDbEntity
  8
製品
100
AcDbLine
 10
1986.5
 20
1937.5
 30
0.0
 11
1986.5
 21
2437.5
 31
0.0
  0
LWPOLYLINE
  5
27E
102
{ACAD_REACTORS
330
7A8
330
7C4
330
746
330
72A
102
}
330
67
100
AcDbEntity
  8
製品
100
AcDbPolyline
 90
        8
 70
     1
 43
0.0
 10
3085.25
 20
2387.5
 10
3447.25
 20
2387.5
 10
3466.25
 20
2368.5
 10
3466.25
 20
2006.5
 10
3447.25
 20
1987.5
 10
3085.25
 20
1987.5
 10
3066.25
 20
2006.5
 10
3066.25
 20
2368.5
  0
LWPOLYLINE
  5
27F
330
67
100
AcDbEntity
  8
製品
100
AcDbPolyline
 90
        8
 70
     1
 43
0.0
 10
3144.25
 20
2337.5
 10
3388.25
 20
2337.5
 42
-0.4142135623730951
 10
3416.25
 20
2309.5
 10
3416.25
 20
2065.5
 42
-0.4142135623730951
 10
3388.25
 20
2037.5
 10
3144.25
 20
2037.5
 42
-0.4142135623730951
 10
3116.25
 20
2065.5
 10
3116.25
 20
2309.5
 42
-0.4142135623730951
  0
LWPOLYLINE
  5
2A1
330
67
100
AcDbEntity
  8
製品
100
AcDbPolyline
 90
        4
 70
     1
 43
0.0
 10
3066.25
 20
1687.5
 10
3466.25
 20
1687.5
 10
3466.25
 20
1387.5
 10
3066.25
 20
1387.5
  0
LINE
  5
2A2
330
67
100
AcDbEntity
  8
製品
100
AcDbLine
 10
3116.25
 20
1687.5
 30
0.0
 11
3116.25
 21
1387.5
 31
0.0
  0
LINE
  5
2A3
330
67
100
AcDbEntity
  8
製品
100
AcDbLine
 10
3416.25
 20
1687.5
 30
0.0
 11
3416.25
 21
1387.5
 31
0.0
  0
LWPOLYLINE
  5
2A6
102
{ACAD_REACTORS
330
987
102
}
330
67
100
AcDbEntity
  8
製品
100
AcDbPolyline
 90
        4
 70
     1
 43
0.0
 10
3066.25
 20
1087.5
 10
3466.25
 20
1087.5
 10
3466.25
 20
937.5
 10
3066.25
 20
937.5
  0
LINE
  5
2A7
330
67
100
AcDbEntity
  8
製品
100
AcDbLine
 10
3116.25
 20
1087.5
 30
0.0
 11
3116.25
 21
937.5
 31
0.0
  0
LINE
  5
2A8
330
67
100
AcDbEntity
  8
製品
100
AcDbLine
 10
3416.25
 20
1087.5
 30
0.0
 11
3416.25
 21
937.5
 31
0.0
  0
DIMENSION
  5
2D2
102
{ACAD_XDICTIONARY
360
2DF
102
}
102
{ACAD_REACTORS
330
2E9
102
}
330
67
100
AcDbEntity
  8
寸法
100
AcDbDimension
  2
*D1
 10
1373.75
 20
2460.496302162781
 30
0.0
 11
1188.75
 21
2503.621302162782
 31
0.0
 70
    32
 71
     5
 42
369.9999999999998
 73
     0
 74
     0
 75
     0
  3
ISO-25
100
AcDbAlignedDimension
 13
1003.75
 23
2372.5
 33
0.0
 14
1373.75
 24
2372.5
 34
0.0
100
AcDbRotatedDimension
  0
DIMENSION
  5
2EA
102
{ACAD_XDICTIONARY
360
2F7
102
}
102
{ACAD_REACTORS
330
301
102
}
330
67
100
AcDbEntity
  8
寸法
100
AcDbDimension
  2
*D2
 10
1472.20451629386
 20
2002.5
 30
0.0
 11
1429.07951629386
 21
2187.5
 31
0.0
 70
    32
 71
     5
 42
370.0000000000002
 73
     0
 74
     0
 75
     0
  3
ISO-25
100
AcDbAlignedDimension
 13
1373.75
 23
2372.5
 33
0.0
 14
1373.75
 24
2002.5
 34
0.0
 50
90.0
100
AcDbRotatedDimension
  0
DIMENSION
  5
330
102
{ACAD_XDICTIONARY
360
33F
102
}
102
{ACAD_REACTORS
330
34B
102
}
330
67
100
AcDbEntity
  8
寸法
100
AcDbDimension
  2
*D3
 10
1442.03975814693
 20
1837.5
 30
0.0
 11
1495.124997853991
 21
1814.8790129061
 31
0.0
 70
   160
 71
     5
 42
50.0
 73
     0
 74
     0
 75
     0
  3
ISO-25
100
AcDbAlignedDimension
 13
1368.75
 23
1787.5
 33
0.0
 14
1368.75
 24
1837.5
 34
0.0
 50
90.0
100
AcDbRotatedDimension
1001
ACAD
1000
DSTYLE
1002
{
1070
   279
1070
     2
1002
}
  0
DIMENSION
  5
34C
102
{ACAD_XDICTIONARY
360
359
102
}
102
{ACAD_REACTORS
330
363
102
}
330
67
100
AcDbEntity
  8
寸法
100
AcDbDimension
  2
*D4
 10
1368.75
 20
1688.317423848663
 30
0.0
 11
1188.75
 21
1731.442423848663
 31
0.0
 70
    32
 71
     5
 42
360.0
 73
     0
 74
     0
 75
     0
  3
ISO-25
100
AcDbAlignedDimension
 13
1008.75
 23
1787.5
 33
0.0
 14
1368.75
 24
1787.5
 34
0.0
100
AcDbRotatedDimension
  0
DIMENSION
  5
395
330
67
100
AcDbEntity
  8
寸法
100
AcDbDimension
  2
*D5
 10
1373.75
 20
1035.496302162781
 30
0.0
 11
1188.75
 21
1078.621302162781
 31
0.0
 70
    32
 71
     5
 42
369.9999999999998
 73
     0
 74
     0
 75
     0
  3
ISO-25
100
AcDbAlignedDimension
 13
1003.75
 23
947.4999999999999
 33
0.0
 14
1373.75
 24
947.4999999999999
 34
0.0
100
AcDbRotatedDimension
  0
DIMENSION
  5
398
330
67
100
AcDbEntity
  8
寸法
100
AcDbDimension
  2
*D6
 10
1472.20451629386
 20
577.5
 30
0.0
 11
1429.07951629386
 21
762.5000000000002
 31
0.0
 70
    32
 71
     5
 42
370.0
 73
     0
 74
     0
 75
     0
  3
ISO-25
100
AcDbAlignedDimension
 13
1373.75
 23
947.4999999999999
 33
0.0
 14
1373.75
 24
577.5
 34
0.0
 50
90.0
100
AcDbRotatedDimension
  0
DIMENSION
  5
39E
330
67
100
AcDbEntity
  8
寸法
100
AcDbDimension
  2
*D7
 10
1368.75
 20
263.3174238486631
 30
0.0
 11
1188.75
 21
306.4424238486631
 31
0.0
 70
    32
 71
     5
 42
360.0
 73
     0
 74
     0
 75
     0
  3
ISO-25
100
AcDbAlignedDimension
 13
1008.75
 23
362.5
 33
0.0
 14
1368.75
 24
362.5
 34
0.0
100
AcDbRotatedDimension
  0
DIMENSION
  5
3F9
102
{ACAD_XDICTIONARY
360
406
102
}
102
{ACAD_REACTORS
330
410
102
}
330
67
100
AcDbEntity
  8
寸法
100
AcDbDimension
  2
*D8
 10
2377.500000000001
 20
2088.550807445597
 30
0.0
 11
2227.5
 21
2131.675807445597
 31
0.0
 70
    32
 71
     5
 42
300.0000000000004
 73
     0
 74
     0
 75
     0
  3
ISO-25
100
AcDbAlignedDimension
 13
2077.5
 23
2037.5
 33
0.0
 14
2377.500000000001
 24
2037.5
 34
0.0
100
AcDbRotatedDimension
  0
DIMENSION
  5
411
102
{ACAD_XDICTIONARY
360
41E
102
}
102
{ACAD_REACTORS
330
428
102
}
330
67
100
AcDbEntity
  8
寸法
100
AcDbDimension
  2
*D9
 10
2340.000000000001
 20
2037.5
 30
0.0
 11
2340.000000000001
 21
2219.45336741345
 31
0.0
 70
   160
 71
     5
 42
300.0
 73
     0
 74
     0
 75
     0
  3
ISO-25
100
AcDbAlignedDimension
 13
2377.5
 23
2337.5
 33
0.0
 14
2377.500000000001
 24
2037.5
 34
0.0
 50
90.0
100
AcDbRotatedDimension
  0
DIMENSION
  5
454
102
{ACAD_XDICTIONARY
360
461
102
}
102
{ACAD_REACTORS
330
46B
102
}
330
67
100
AcDbEntity
  8
寸法
100
AcDbDimension
  2
*D10
 10
2477.5
 20
2481.133942115673
 30
0.0
 11
2227.5
 21
2524.258942115673
 31
0.0
 70
    32
 71
     5
 42
499.9999999999998
 73
     0
 74
     0
 75
     0
  3
ISO-25
100
AcDbAlignedDimension
 13
1977.5
 23
2428.5
 33
0.0
 14
2477.5
 24
2428.5
 34
0.0
100
AcDbRotatedDimension
  0
DIMENSION
  5
46C
102
{ACAD_XDICTIONARY
360
479
102
}
102
{ACAD_REACTORS
330
483
102
}
330
67
100
AcDbEntity
  8
寸法
100
AcDbDimension
  2
*D11
 10
2565.169830853607
 20
1937.5
 30
0.0
 11
2522.044830853606
 21
2187.500000000001
 31
0.0
 70
    32
 71
     5
 42
500.0000000000004
 73
     0
 74
     0
 75
     0
  3
ISO-25
100
AcDbAlignedDimension
 13
2468.500000000001
 23
2437.5
 33
0.0
 14
2468.500000000001
 24
1937.5
 34
0.0
 50
90.0
100
AcDbRotatedDimension
  0
DIMENSION
  5
484
102
{ACAD_XDICTIONARY
360
493
102
}
102
{ACAD_REACTORS
330
49F
102
}
330
67
100
AcDbEntity
  8
寸法
100
AcDbDimension
  2
*D12
 10
1977.5
 20
1740.378327370962
 30
0.0
 11
2007.6360474907
 21
1787.5
 31
0.0
 70
   160
 71
     5
 42
60.0
 73
     0
 74
     0
 75
     0
  3
ISO-25
100
AcDbAlignedDimension
 13
2037.5
 23
1687.5
 33
0.0
 14
1977.5
 24
1678.5
 34
0.0
100
AcDbRotatedDimension
1001
ACAD
1000
DSTYLE
1002
{
1070
   343
1005
5EA
1070
   173
1070
     1
1070
   344
1005
0
1070
   279
1070
     2
1002
}
  0
DIMENSION
  5
4A0
102
{ACAD_XDICTIONARY
360
4AF
102
}
102
{ACAD_REACTORS
330
4BB
102
}
330
67
100
AcDbEntity
  8
寸法
100
AcDbDimension
  2
*D13
 10
2477.5
 20
1740.378327370962
 30
0.0
 11
2447.5
 21
1787.5
 31
0.0
 70
   160
 71
     5
 42
60.0
 73
     0
 74
     0
 75
     0
  3
ISO-25
100
AcDbAlignedDimension
 13
2417.5
 23
1687.5
 33
0.0
 14
2477.5
 24
1678.5
 34
0.0
100
AcDbRotatedDimension
1001
ACAD
1000
DSTYLE
1002
{
1070
   343
1005
5EA
1070
   173
1070
     1
1070
   344
1005
0
1070
   279
1070
     2
1002
}
  0
DIMENSION
  5
5B8
330
67
100
AcDbEntity
  8
寸法
100
AcDbDimension
  2
*D14
 10
2077.5
 20
1740.378327370962
 30
0.0
 11
2147.081875063961
 21
1787.5
 31
0.0
 70
   160
 71
     5
 42
40.0
 73
     0
 74
     0
 75
     0
  3
ISO-25
100
AcDbAlignedDimension
 13
2037.5
 23
1687.5
 33
0.0
 14
2077.5
 24
1687.5
 34
0.0
100
AcDbRotatedDimension
1001
ACAD
1000
DSTYLE
1002
{
1070
   173
1070
     1
1070
   279
1070
     2
1070
   343
1005
5EA
1002
}
  0
DIMENSION
  5
604
330
67
100
AcDbEntity
  8
寸法
100
AcDbDimension
  2
*D16
 10
2377.5
 20
1740.378327370962
 30
0.0
 11
2311.559577846847
 21
1787.5
 31
0.0
 70
   160
 71
     5
 42
40.0
 73
     0
 74
     0
 75
     0
  3
ISO-25
100
AcDbAlignedDimension
 13
2417.5
 23
1687.5
 33
0.0
 14
2377.5
 24
1687.5
 34
0.0
100
AcDbRotatedDimension
1001
ACAD
1000
DSTYLE
1002
{
1070
   173
1070
     1
1070
   279
1070
     2
1070
   343
1005
5EA
1002
}
  0
LINE
  5
659
102
{ACAD_REACTORS
330
675
102
}
330
67
100
AcDbEntity
  8
寸法
100
AcDbLine
 10
2412.5
 20
1634.5
 30
0.0
 11
2477.5
 21
1634.5
 31
0.0
  0
DIMENSION
  5
65A
102
{ACAD_XDICTIONARY
360
669
102
}
102
{ACAD_REACTORS
330
675
102
}
330
67
100
AcDbEntity
  8
寸法
100
AcDbDimension
  2
*D17
 10
2565.169830853607
 20
1687.5
 30
0.0
 11
2616.065981169262
 21
1737.5
 31
0.0
 70
   160
 71
     5
 42
53.0
 73
     0
 74
     0
 75
     0
  3
ISO-25
100
AcDbAlignedDimension
 13
2477.5
 23
1634.5
 33
0.0
 14
2468.500000000001
 24
1687.5
 34
0.0
 50
90.0
100
AcDbRotatedDimension
1001
ACAD
1000
DSTYLE
1002
{
1070
   173
1070
     1
1070
   279
1070
     2
1070
   343
1005
5EA
1002
}
  0
DIMENSION
  5
676
102
{ACAD_XDICTIONARY
360
685
102
}
102
{ACAD_REACTORS
330
691
102
}
330
67
100
AcDbEntity
  8
寸法
100
AcDbDimension
  2
*D18
 10
2565.169830853607
 20
1587.5
 30
0.0
 11
2617.728474192909
 21
1531.21751397619
 31
0.0
 70
   160
 71
     5
 42
47.0
 73
     0
 74
     0
 75
     0
  3
ISO-25
100
AcDbAlignedDimension
 13
2477.5
 23
1634.5
 33
0.0
 14
2477.5
 24
1587.5
 34
0.0
 50
90.0
100
AcDbRotatedDimension
1001
ACAD
1000
DSTYLE
1002
{
1070
   173
1070
     1
1070
   279
1070
     2
1070
   343
1005
5EA
1002
}
  0
DIMENSION
  5
6EA
330
67
100
AcDbEntity
  8
寸法
100
AcDbDimension
  2
*D19
 10
2668.44275212215
 20
1587.5
 30
0.0
 11
2711.647824463866
 21
1637.5
 31
0.0
 70
   160
 71
     5
 42
100.0
 73
     0
 74
     0
 75
     0
  3
ISO-25
100
AcDbAlignedDimension
 13
2468.500000000001
 23
1687.5
 33
0.0
 14
2477.5
 24
1587.5
 34
0.0
 50
90.0
100
AcDbRotatedDimension
1001
ACAD
1000
DSTYLE
1002
{
1070
   279
1070
     2
1002
}
  0
DIMENSION
  5
70F
102
{ACAD_XDICTIONARY
360
71E
102
}
102
{ACAD_REACTORS
330
72A
102
}
330
67
100
AcDbEntity
  8
寸法
100
AcDbDimension
  2
*D20
 10
3066.25
 20
2520.867808321949
 30
0.0
 11
3004.816875989929
 21
2553.090479539291
 31
0.0
 70
   160
 71
     5
 42
50.0
 73
     0
 74
     0
 75
     0
  3
ISO-25
100
AcDbAlignedDimension
 13
3116.25
 23
2387.5
 33
0.0
 14
3066.25
 24
2368.5
 34
0.0
100
AcDbRotatedDimension
1001
ACAD
1000
DSTYLE
1002
{
1070
   279
1070
     2
1002
}
  0
DIMENSION
  5
72B
102
{ACAD_XDICTIONARY
360
73A
102
}
102
{ACAD_REACTORS
330
746
102
}
330
67
100
AcDbEntity
  8
寸法
100
AcDbDimension
  2
*D21
 10
3466.25
 20
2520.867808321949
 30
0.0
 11
3531.87231887167
 21
2549.785587113234
 31
0.0
 70
   160
 71
     5
 42
50.0
 73
     0
 74
     0
 75
     0
  3
ISO-25
100
AcDbAlignedDimension
 13
3416.25
 23
2387.5
 33
0.0
 14
3466.25
 24
2368.5
 34
0.0
100
AcDbRotatedDimension
1001
ACAD
1000
DSTYLE
1002
{
1070
   279
1070
     2
1002
}
  0
DIMENSION
  5
747
330
67
100
AcDbEntity
  8
寸法
100
AcDbDimension
  2
*D22
 10
3416.25
 20
2520.867808321949
 30
0.0
 11
3266.25
 21
2563.99280832195
 31
0.0
 70
    32
 71
     5
 42
300.0000000000004
 73
     0
 74
     0
 75
     0
  3
ISO-25
100
AcDbAlignedDimension
 13
3116.25
 23
2387.5
 33
0.0
 14
3416.25
 24
2387.5
 34
0.0
100
AcDbRotatedDimension
  0
DIMENSION
  5
78D
102
{ACAD_XDICTIONARY
360
79C
102
}
102
{ACAD_REACTORS
330
7A8
102
}
330
67
100
AcDbEntity
  8
寸法
100
AcDbDimension
  2
*D23
 10
3569.550158566474
 20
2387.5
 30
0.0
 11
3538.420502454928
 21
2456.516757952984
 31
0.0
 70
   160
 71
     5
 42
50.0
 73
     0
 74
     0
 75
     0
  3
ISO-25
100
AcDbAlignedDimension
 13
3466.25
 23
2337.5
 33
0.0
 14
3447.25
 24
2387.5
 34
0.0
 50
90.0
100
AcDbRotatedDimension
1001
ACAD
1000
DSTYLE
1002
{
1070
   279
1070
     2
1002
}
  0
DIMENSION
  5
7A9
102
{ACAD_XDICTIONARY
360
7B8
102
}
102
{ACAD_REACTORS
330
7C4
102
}
330
67
100
AcDbEntity
  8
寸法
100
AcDbDimension
  2
*D24
 10
3569.550158566474
 20
1987.5
 30
0.0
 11
3535.307528360771
 21
1931.753536879087
 31
0.0
 70
   160
 71
     5
 42
50.0
 73
     0
 74
     0
 75
     0
  3
ISO-25
100
AcDbAlignedDimension
 13
3466.25
 23
2037.5
 33
0.0
 14
3447.25
 24
1987.5
 34
0.0
 50
90.0
100
AcDbRotatedDimension
1001
ACAD
1000
DSTYLE
1002
{
1070
   279
1070
     2
1002
}
  0
DIMENSION
  5
7FE
330
67
100
AcDbEntity
  8
寸法
100
AcDbDimension
  2
*D25
 10
3569.550158566474
 20
2037.5
 30
0.0
 11
3526.425158566473
 21
2187.500000000001
 31
0.0
 70
    32
 71
     5
 42
300.0000000000002
 73
     0
 74
     0
 75
     0
  3
ISO-25
100
AcDbAlignedDimension
 13
3466.25
 23
2337.5
 33
0.0
 14
3466.25
 24
2037.5
 34
0.0
 50
90.0
100
AcDbRotatedDimension
1001
ACAD
1000
DSTYLE
1002
{
1070
   279
1070
     2
1002
}
  0
DIMENSION
  5
83A
330
67
100
AcDbEntity
  8
寸法
100
AcDbDimension
  2
*D26
 10
3466.25
 20
2605.142479652935
 30
0.0
 11
3266.25
 21
2648.267479652936
 31
0.0
 70
    32
 71
     5
 42
400.0
 73
     0
 74
     0
 75
     0
  3
ISO-25
100
AcDbAlignedDimension
 13
3066.25
 23
2368.5
 33
0.0
 14
3466.25
 24
2368.5
 34
0.0
100
AcDbRotatedDimension
  0
DIMENSION
  5
847
330
67
100
AcDbEntity
  8
寸法
100
AcDbDimension
  2
*D27
 10
3663.976784932495
 20
1987.5
 30
0.0
 11
3620.851784932494
 21
2187.500000000001
 31
0.0
 70
    32
 71
     5
 42
400.0000000000002
 73
     0
 74
     0
 75
     0
  3
ISO-25
100
AcDbAlignedDimension
 13
3447.25
 23
2387.5
 33
0.0
 14
3447.25
 24
1987.5
 34
0.0
 50
90.0
100
AcDbRotatedDimension
  0
DIMENSION
  5
958
330
67
100
AcDbEntity
  8
寸法
100
AcDbDimension
  2
*D28
 10
3569.550158566474
 20
1387.5
 30
0.0
 11
3526.425158566473
 21
1537.5
 31
0.0
 70
    32
 71
     5
 42
300.0
 73
     0
 74
     0
 75
     0
  3
ISO-25
100
AcDbAlignedDimension
 13
3466.25
 23
1687.5
 33
0.0
 14
3466.25
 24
1387.5
 34
0.0
 50
90.0
100
AcDbRotatedDimension
  0
DIMENSION
  5
970
102
{ACAD_XDICTIONARY
360
97D
102
}
102
{ACAD_REACTORS
330
987
102
}
330
67
100
AcDbEntity
  8
寸法
100
AcDbDimension
  2
*D29
 10
3569.550158566473
 20
937.5
 30
0.0
 11
3526.425158566473
 21
1012.5
 31
0.0
 70
    32
 71
     5
 42
149.9999999999999
 73
     0
 74
     0
 75
     0
  3
ISO-25
100
AcDbAlignedDimension
 13
3466.250000000001
 23
1087.5
 33
0.0
 14
3466.25
 24
937.5
 34
0.0
 50
90.0
100
AcDbRotatedDimension
  0
DIMENSION
  5
9F9
330
67
100
AcDbEntity
  8
寸法
100
AcDbDimension
  2
*D30
 10
1442.03975814693
 20
412.4999999999999
 30
0.0
 11
1495.124997853991
 21
389.8790129060999
 31
0.0
 70
   160
 71
     5
 42
50.0
 73
     0
 74
     0
 75
     0
  3
ISO-25
100
AcDbAlignedDimension
 13
1368.75
 23
362.5
 33
0.0
 14
1368.75
 24
412.5
 34
0.0
 50
90.0
100
AcDbRotatedDimension
1001
ACAD
1000
DSTYLE
1002
{
1070
   279
1070
     2
1002
}
  0
TEXT
  5
CDA
330
67
100
AcDbEntity
  8
文字
100
AcDbText
 10
2159.276649746193
 20
2846.818145241389
 30
0.0
 40
35.0
  1
縁　塊
  7
文字
 72
     1
 11
2227.5
 21
2864.318145241389
 31
0.0
100
AcDbText
 73
     2
  0
TEXT
  5
CDB
330
67
100
AcDbEntity
  8
文字
100
AcDbText
 10
2068.312182741117
 20
2746.818145241388
 30
0.0
 40
35.0
  1
参考重量　32kg
  7
文字
 72
     1
 11
2227.5
 21
2764.318145241388
 31
0.0
100
AcDbText
 73
     2
  0
TEXT
  5
CDC
330
67
100
AcDbEntity
  8
文字
100
AcDbText
 10
3198.026649746193
 20
2846.818145241389
 30
0.0
 40
35.0
  1
側　塊
  7
文字
 72
     1
 11
3266.25
 21
2864.318145241389
 31
0.0
100
AcDbText
 73
     2
  0
TEXT
  5
CDD
330
67
100
AcDbEntity
  8
文字
100
AcDbText
 10
3107.062182741117
 20
1755.598257988959
 30
0.0
 40
35.0
  1
参考重量　50kg
  7
文字
 72
     1
 11
3266.25
 21
1773.098257988959
 31
0.0
100
AcDbText
 73
     2
  0
TEXT
  5
CE0
330
67
100
AcDbEntity
  8
文字
100
AcDbText
 10
3107.062182741117
 20
1165.877700836405
 30
0.0
 40
35.0
  1
参考重量　25kg
  7
文字
 72
     1
 11
3266.25
 21
1183.377700836405
 31
0.0
100
AcDbText
 73
     2
  0
LINE
  5
D90
330
67
100
AcDbEntity
  8
鉄筋
100
AcDbLine
 10
1018.75
 20
917.5
 30
0.0
 11
1358.75
 21
917.5
 31
0.0
  0
LINE
  5
D92
330
67
100
AcDbEntity
  8
鉄筋
100
AcDbLine
 10
1343.75
 20
932.5000000000001
 30
0.0
 11
1343.75
 21
592.4999999999999
 31
0.0
  0
LINE
  5
D94
330
67
100
AcDbEntity
  8
鉄筋
100
AcDbLine
 10
1358.75
 20
607.5
 30
0.0
 11
1018.75
 21
607.5
 31
0.0
  0
LINE
  5
D96
330
67
100
AcDbEntity
  8
鉄筋
100
AcDbLine
 10
1033.75
 20
592.4999999999999
 30
0.0
 11
1033.75
 21
932.5000000000001
 31
0.0
  0
LINE
  5
D9A
330
67
100
AcDbEntity
  8
鉄筋
100
AcDbLine
 10
1358.75
 20
1802.5
 30
0.0
 11
1018.75
 21
1802.5
 31
0.0
  0
CIRCLE
  5
DA0
330
67
100
AcDbEntity
  8
鉄筋2
100
AcDbCircle
 10
1033.75
 20
1804.5
 30
0.0
 40
2.0
  0
CIRCLE
  5
DA1
330
67
100
AcDbEntity
  8
鉄筋2
100
AcDbCircle
 10
1123.75
 20
1804.5
 30
0.0
 40
2.0
  0
CIRCLE
  5
DA2
330
67
100
AcDbEntity
  8
鉄筋2
100
AcDbCircle
 10
1253.75
 20
1804.5
 30
0.0
 40
2.0
  0
CIRCLE
  5
DA3
330
67
100
AcDbEntity
  8
鉄筋2
100
AcDbCircle
 10
1343.75
 20
1804.5
 30
0.0
 40
2.0
  0
LINE
  5
DA4
330
67
100
AcDbEntity
  8
鉄筋
100
AcDbLine
 10
1358.75
 20
377.5
 30
0.0
 11
1018.75
 21
377.5
 31
0.0
  0
CIRCLE
  5
DA5
330
67
100
AcDbEntity
  8
鉄筋2
100
AcDbCircle
 10
1033.75
 20
379.5
 30
0.0
 40
2.0
  0
CIRCLE
  5
DA6
330
67
100
AcDbEntity
  8
鉄筋2
100
AcDbCircle
 10
1123.75
 20
379.5
 30
0.0
 40
2.0
  0
CIRCLE
  5
DA7
330
67
100
AcDbEntity
  8
鉄筋2
100
AcDbCircle
 10
1253.75
 20
379.5
 30
0.0
 40
2.0
  0
CIRCLE
  5
DA8
330
67
100
AcDbEntity
  8
鉄筋2
100
AcDbCircle
 10
1343.75
 20
379.5
 30
0.0
 40
2.0
  0
LINE
  5
DDF
330
67
100
AcDbEntity
  8
鉄筋
100
AcDbLine
 10
1992.5
 20
1602.5
 30
0.0
 11
1992.5
 21
1672.5
 31
0.0
  0
LINE
  5
DE0
330
67
100
AcDbEntity
  8
鉄筋
100
AcDbLine
 10
1992.5
 20
1672.5
 30
0.0
 11
2022.5
 21
1672.5
 31
0.0
  0
LINE
  5
DE1
330
67
100
AcDbEntity
  8
鉄筋
100
AcDbLine
 10
2022.5
 20
1672.5
 30
0.0
 11
2022.5
 21
1619.5
 31
0.0
  0
LINE
  5
DE2
330
67
100
AcDbEntity
  8
鉄筋
100
AcDbLine
 10
2022.5
 20
1619.5
 30
0.0
 11
2057.5
 21
1619.5
 31
0.0
  0
LINE
  5
DE3
330
67
100
AcDbEntity
  8
鉄筋
100
AcDbLine
 10
2057.5
 20
1619.5
 30
0.0
 11
2057.5
 21
1602.5
 31
0.0
  0
LINE
  5
DE4
330
67
100
AcDbEntity
  8
鉄筋
100
AcDbLine
 10
2057.5
 20
1602.5
 30
0.0
 11
1992.5
 21
1602.5
 31
0.0
  0
LINE
  5
DE5
330
67
100
AcDbEntity
  8
鉄筋
100
AcDbLine
 10
2397.5
 20
1602.5
 30
0.0
 11
2397.5
 21
1619.5
 31
0.0
  0
LINE
  5
DE6
330
67
100
AcDbEntity
  8
鉄筋
100
AcDbLine
 10
2397.5
 20
1619.5
 30
0.0
 11
2432.5
 21
1619.5
 31
0.0
  0
LINE
  5
DE7
330
67
100
AcDbEntity
  8
鉄筋
100
AcDbLine
 10
2432.5
 20
1619.5
 30
0.0
 11
2432.5
 21
1672.5
 31
0.0
  0
LINE
  5
DE8
330
67
100
AcDbEntity
  8
鉄筋
100
AcDbLine
 10
2432.5
 20
1672.5
 30
0.0
 11
2462.5
 21
1672.5
 31
0.0
  0
LINE
  5
DE9
330
67
100
AcDbEntity
  8
鉄筋
100
AcDbLine
 10
2462.5
 20
1672.5
 30
0.0
 11
2462.5
 21
1602.5
 31
0.0
  0
LINE
  5
DEA
330
67
100
AcDbEntity
  8
鉄筋
100
AcDbLine
 10
2462.5
 20
1602.5
 30
0.0
 11
2397.5
 21
1602.5
 31
0.0
  0
CIRCLE
  5
DF7
330
67
100
AcDbEntity
  8
鉄筋2
100
AcDbCircle
 10
1994.5
 20
1670.5
 30
0.0
 40
2.0
  0
CIRCLE
  5
DF8
330
67
100
AcDbEntity
  8
鉄筋2
100
AcDbCircle
 10
2020.5
 20
1670.5
 30
0.0
 40
2.0
  0
CIRCLE
  5
DF9
330
67
100
AcDbEntity
  8
鉄筋2
100
AcDbCircle
 10
1994.5
 20
1604.5
 30
0.0
 40
2.0
  0
CIRCLE
  5
DFA
330
67
100
AcDbEntity
  8
鉄筋2
100
AcDbCircle
 10
2055.5
 20
1604.5
 30
0.0
 40
2.0
  0
CIRCLE
  5
DFB
330
67
100
AcDbEntity
  8
鉄筋2
100
AcDbCircle
 10
2055.5
 20
1617.5
 30
0.0
 40
2.0
  0
CIRCLE
  5
DFC
330
67
100
AcDbEntity
  8
鉄筋2
100
AcDbCircle
 10
2460.5
 20
1604.5
 30
0.0
 40
2.0
  0
CIRCLE
  5
DFD
330
67
100
AcDbEntity
  8
鉄筋2
100
AcDbCircle
 10
2460.5
 20
1670.5
 30
0.0
 40
2.0
  0
CIRCLE
  5
DFE
330
67
100
AcDbEntity
  8
鉄筋2
100
AcDbCircle
 10
2434.5
 20
1670.5
 30
0.0
 40
2.0
  0
CIRCLE
  5
DFF
330
67
100
AcDbEntity
  8
鉄筋2
100
AcDbCircle
 10
2399.5
 20
1604.5
 30
0.0
 40
2.0
  0
CIRCLE
  5
E00
330
67
100
AcDbEntity
  8
鉄筋2
100
AcDbCircle
 10
2399.5
 20
1617.5
 30
0.0
 40
2.0
  0
LWPOLYLINE
  5
E01
102
{ACAD_REACTORS
330
FDA
102
}
330
67
100
AcDbEntity
  8
鉄筋
100
AcDbPolyline
 90
        8
 70
     1
 43
0.0
 10
1992.713203435597
 20
2422.500000000001
 10
2462.286796564404
 20
2422.500000000001
 10
2462.5
 20
2422.286796564404
 10
2462.5
 20
1952.713203435596
 10
2462.286796564404
 20
1952.5
 10
1992.713203435597
 20
1952.5
 10
1992.5
 20
1952.713203435596
 10
1992.5
 20
2422.286796564404
  0
LWPOLYLINE
  5
E04
102
{ACAD_REACTORS
330
FD7
102
}
330
67
100
AcDbEntity
  8
鉄筋
100
AcDbPolyline
 90
        4
 70
     1
 43
0.0
 10
2018.5
 20
2396.5
 10
2436.5
 20
2396.5
 10
2436.5
 20
1978.5
 10
2018.5
 20
1978.5
  0
LWPOLYLINE
  5
E08
102
{ACAD_REACTORS
330
FD4
102
}
330
67
100
AcDbEntity
  8
鉄筋
100
AcDbPolyline
 90
        4
 70
     1
 43
0.0
 10
2057.5
 20
2357.500000000001
 10
2397.5
 20
2357.500000000001
 10
2397.5
 20
2017.5
 10
2057.5
 20
2017.5
  0
LINE
  5
E3E
330
67
100
AcDbEntity
  8
鉄筋
100
AcDbLine
 10
1992.5
 20
2265.0
 30
0.0
 11
2057.5
 21
2265.0
 31
0.0
  0
LINE
  5
E3F
330
67
100
AcDbEntity
  8
鉄筋
100
AcDbLine
 10
1992.5
 20
2110.0
 30
0.0
 11
2057.5
 21
2110.0
 31
0.0
  0
LINE
  5
E40
330
67
100
AcDbEntity
  8
鉄筋
100
AcDbLine
 10
2462.5
 20
2265.0
 30
0.0
 11
2397.5
 21
2265.0
 31
0.0
  0
LINE
  5
E41
330
67
100
AcDbEntity
  8
鉄筋
100
AcDbLine
 10
2462.5
 20
2110.0
 30
0.0
 11
2397.5
 21
2110.0
 31
0.0
  0
LINE
  5
E42
330
67
100
AcDbEntity
  8
鉄筋
100
AcDbLine
 10
2150.0
 20
2422.500000000001
 30
0.0
 11
2150.0
 21
2357.500000000001
 31
0.0
  0
LINE
  5
E43
330
67
100
AcDbEntity
  8
鉄筋
100
AcDbLine
 10
2305.0
 20
2422.500000000001
 30
0.0
 11
2305.0
 21
2357.500000000001
 31
0.0
  0
LINE
  5
E44
102
{ACAD_REACTORS
330
FCB
102
}
330
67
100
AcDbEntity
  8
鉄筋
100
AcDbLine
 10
2150.0
 20
1952.5
 30
0.0
 11
2150.0
 21
2017.5
 31
0.0
  0
LINE
  5
E45
102
{ACAD_REACTORS
330
FC8
102
}
330
67
100
AcDbEntity
  8
鉄筋
100
AcDbLine
 10
2305.0
 20
1952.5
 30
0.0
 11
2305.0
 21
2017.5
 31
0.0
  0
LWPOLYLINE
  5
E58
330
67
100
AcDbEntity
  8
鉄筋
100
AcDbPolyline
 90
        4
 70
     1
 43
0.0
 10
3091.25
 20
2362.5
 10
3441.25
 20
2362.5
 10
3441.25
 20
2012.5
 10
3091.25
 20
2012.5
  0
CIRCLE
  5
E5D
330
67
100
AcDbEntity
  8
鉄筋2
100
AcDbCircle
 10
3093.25
 20
2360.5
 30
0.0
 40
2.0
  0
CIRCLE
  5
E5E
330
67
100
AcDbEntity
  8
鉄筋2
100
AcDbCircle
 10
3266.25
 20
2360.5
 30
0.0
 40
2.0
  0
CIRCLE
  5
E5F
330
67
100
AcDbEntity
  8
鉄筋2
100
AcDbCircle
 10
3439.250000000001
 20
2360.5
 30
0.0
 40
2.0
  0
CIRCLE
  5
E60
330
67
100
AcDbEntity
  8
鉄筋2
100
AcDbCircle
 10
3439.25
 20
2187.5
 30
0.0
 40
2.0
  0
CIRCLE
  5
E61
330
67
100
AcDbEntity
  8
鉄筋2
100
AcDbCircle
 10
3093.25
 20
2187.5
 30
0.0
 40
2.0
  0
CIRCLE
  5
E62
330
67
100
AcDbEntity
  8
鉄筋2
100
AcDbCircle
 10
3093.25
 20
2014.5
 30
0.0
 40
2.0
  0
CIRCLE
  5
E63
330
67
100
AcDbEntity
  8
鉄筋2
100
AcDbCircle
 10
3266.25
 20
2014.5
 30
0.0
 40
2.0
  0
CIRCLE
  5
E64
330
67
100
AcDbEntity
  8
鉄筋2
100
AcDbCircle
 10
3439.25
 20
2014.5
 30
0.0
 40
2.0
  0
CIRCLE
  5
E6F
330
67
100
AcDbEntity
  8
鉄筋2
100
AcDbCircle
 10
3091.25
 20
1657.5
 30
0.0
 40
2.0
  0
LINE
  5
E70
102
{ACAD_REACTORS
330
1015
102
}
330
67
100
AcDbEntity
  8
鉄筋
100
AcDbLine
 10
3093.25
 20
1672.5
 30
0.0
 11
3093.25
 21
1402.5
 31
0.0
  0
LINE
  5
E71
102
{ACAD_REACTORS
330
10F7
102
}
330
67
100
AcDbEntity
  8
鉄筋
100
AcDbLine
 10
3439.25
 20
1672.5
 30
0.0
 11
3439.25
 21
1402.5
 31
0.0
  0
CIRCLE
  5
E74
102
{ACAD_REACTORS
330
1021
102
}
330
67
100
AcDbEntity
  8
鉄筋2
100
AcDbCircle
 10
3091.25
 20
1537.5
 30
0.0
 40
2.0
  0
CIRCLE
  5
E75
102
{ACAD_REACTORS
330
102E
102
}
330
67
100
AcDbEntity
  8
鉄筋2
100
AcDbCircle
 10
3091.25
 20
1417.5
 30
0.0
 40
2.0
  0
CIRCLE
  5
E76
330
67
100
AcDbEntity
  8
鉄筋2
100
AcDbCircle
 10
3441.250000000001
 20
1417.5
 30
0.0
 40
2.0
  0
CIRCLE
  5
E77
330
67
100
AcDbEntity
  8
鉄筋2
100
AcDbCircle
 10
3441.25
 20
1537.5
 30
0.0
 40
2.0
  0
CIRCLE
  5
E78
330
67
100
AcDbEntity
  8
鉄筋2
100
AcDbCircle
 10
3441.25
 20
1657.5
 30
0.0
 40
2.0
  0
LINE
  5
E79
330
67
100
AcDbEntity
  8
鉄筋
100
AcDbLine
 10
3093.25
 20
1072.5
 30
0.0
 11
3093.25
 21
952.5
 31
0.0
  0
LINE
  5
E7B
330
67
100
AcDbEntity
  8
鉄筋
100
AcDbLine
 10
3439.25
 20
1072.5
 30
0.0
 11
3439.25
 21
952.5
 31
0.0
  0
CIRCLE
  5
E7C
330
67
100
AcDbEntity
  8
鉄筋2
100
AcDbCircle
 10
3091.25
 20
1057.5
 30
0.0
 40
2.0
  0
CIRCLE
  5
E7D
102
{ACAD_REACTORS
330
1113
102
}
330
67
100
AcDbEntity
  8
鉄筋2
100
AcDbCircle
 10
3091.25
 20
967.5
 30
0.0
 40
2.0
  0
CIRCLE
  5
E7E
330
67
100
AcDbEntity
  8
鉄筋2
100
AcDbCircle
 10
3441.25
 20
967.5
 30
0.0
 40
2.0
  0
CIRCLE
  5
E7F
330
67
100
AcDbEntity
  8
鉄筋2
100
AcDbCircle
 10
3441.25
 20
1057.5
 30
0.0
 40
2.0
  0
MTEXT
  5
FAA
330
67
100
AcDbEntity
  8
寸法
100
AcDbMText
 10
1210.5
 20
2070.0
 30
0.0
 40
37.5
 41
0.0
 46
0.0
 71
     1
 72
     5
  1

 73
     1
 44
1.0
  0
MTEXT
  5
FAF
330
67
100
AcDbEntity
  8
寸法
100
AcDbMText
 10
1167.0
 20
2160.0
 30
0.0
 40
37.5
 41
0.0
 46
0.0
 71
     3
 72
     5
  1

 73
     1
 44
1.0
  0
MTEXT
  5
FB4
330
67
100
AcDbEntity
  8
寸法
100
AcDbMText
 10
1210.5
 20
2290.0
 30
0.0
 40
37.5
 41
0.0
 46
0.0
 71
     1
 72
     5
  1

 73
     1
 44
1.0
  0
MULTILEADER
  5
FC6
102
{ACAD_XDICTIONARY
360
FC7
102
}
102
{ACAD_REACTORS
330
FC8
102
}
330
67
100
AcDbEntity
  8
寸法
 92
     1068
310
2C0400001A0000000C00000016000000000000C00C00000033000000000000000C00000013000000993A0000BC00000026000000DF2F5721D8FCA24059498E80D44F9D40000000000000000000000000000000000000000000000000000000000000F03F000000000000F03F00000000000000000000000000000000C60300
310
0001000000010000000000000000003E40000000000000F03F0000000000000000000000000000F03F0000000000000000000000000000000000000000000000000000000001000000320000002DFF33FF200030FFB430B730C330AF30000079000000000000004600BC00000026000000F78CCBF21D54A34059498E80D44F
310
9D40000000000000000000000000000000000000000000000000000000000000F03F000000000000F03F0000000000000000000000000000000034002D000000000002000000010000000000000000003E40000000000000F03F0000000000000000000000000000F03F000000000000000000000000000000000000000000
310
000000000000000100000000000000000000007400780074002E00730068007800000000001D2DC000000026000000F78CCBF21DCCA34059498E80D44F9D40000000000000000000000000000000000000000000000000000000000000F03F000000000000F03F0000000000000000000000000000000018FF2C6700003100
310
02000000010000000000000000003E40000000000000F03F0000000000000000000000000000F03F0000000000000000000000000000000000000000000000000000000001000000320000002DFF33FF200030FFB430B730C330AF300000770000000000000067000C00000033000000000000000C00000010000000050000
310
000C00000016000000000000C00C00000012000000FF7F00000C00000013000000010000000C0000001400000001000000540000000700000003000000886EE5B4AC1CA24027C0BDE795AD9E400000000000000000000000000002A240B2B35154EB1A9F4000000000000000007CC0B269F62CA240D3CF4547CCC49E400000
310
0000000000000C00000013000000891300003C000000060000000200000082174C8FD124A240FDC7811731B99E400000000000000000C8D2E24F12A7A24070A602529A4B9D4000000000000000000C00000013000000112700003C0000000600000002000000C8D2E24F12A7A24070A602529A4B9D40000000000000000095
310
9FAF1CDFB1A24070A602529A4B9D4000000000000000000C00000016000000000000C00C00000012000000FF7F00000C00000017000000000000000C000000130000009A3A00003C0000000600000002000000959FAF1CDFB1A24070A602529A4B9D400000000000000000F78CCBF29D5AA44070A602529A4B9D4000000000
310
000000000C00000016000000000000C00C00000012000000FF7F00000C00000017000000FFFFFFFF0C0000003300000000000000
100
AcDbMLeader
300
CONTEXT_DATA{
 40
15.0
 10
2392.935765732031
 20
1874.900703469666
 30
0.0
 41
30.0
140
30.0
145
46.34999999999999
174
     6
175
     6
176
     0
177
     0
290
     1
304
{\fMS PGothic|b0|i0|c128|p50;φ}4-{\fMS PGothic|b0|i0|c128|p50;８本}
 11
0.0
 21
0.0
 31
1.0
340
50
 12
2439.285765732031
 22
1910.900703469666
 32
0.0
 13
1.0
 23
0.0
 33
0.0
 42
0.0
 43
0.0
 44
0.0
 45
1.0
170
     1
 90
-1073741824
171
     1
172
     5
 91
-1073741824
141
0.0
 92
        0
291
     0
292
     0
173
     0
293
     0
142
0.0
143
0.0
294
     0
295
     0
296
     0
110
2305.0
120
1990.729813839524
130
0.0
111
1.0
121
0.0
131
0.0
112
0.0
122
1.0
132
0.0
297
     0
302
LEADER{
290
     1
291
     1
 10
2387.535765732031
 20
1874.900703469666
 30
0.0
 11
1.0
 21
0.0
 31
0.0
 90
        0
 40
5.399999999999999
304
LEADER_LINE{
 10
2305.0
 20
1990.729813839524
 30
0.0
 91
        0
305
}
303
}
301
}
340
62
 90
   279552
170
     1
 91
-1056964608
341
56
171
    -2
290
     1
291
     1
 41
0.36
 42
2.0
172
     2
343
50
173
     6
 95
        6
174
     1
175
     0
 92
-1056964608
292
     0
 93
-1056964608
 10
1.0
 20
1.0
 30
1.0
 43
0.0
176
     0
293
     0
294
     0
178
     0
179
     1
 45
15.0
1001
ACAD_MLEADERVER
1070
     2
  0
MULTILEADER
  5
FC9
102
{ACAD_XDICTIONARY
360
FCA
102
}
102
{ACAD_REACTORS
330
FCB
102
}
330
67
100
AcDbEntity
  8
寸法
 92
      500
310
F4010000170000000C00000016000000000000C00C00000033000000000000000C00000013000000993A00000C00000033000000000000000C00000010000000050000000C00000016000000000000C00C00000012000000FF7F00000C00000013000000010000000C00000014000000010000005400000007000000030000
310
006C87B93F3BFEA040D113B11164BF9E4000000000000000000000000000CCA0400000000000049F400000000000000000E47C015CA406A140976AEF9AAEE39E4000000000000000000C00000013000000891300003C00000006000000020000002882DDCD6F02A140343F505689D19E400000000000000000C8D2E24F12A7
310
A24070A602529A4B9D4000000000000000000C00000013000000112700003C0000000600000002000000C8D2E24F12A7A24070A602529A4B9D400000000000000000959FAF1CDFB1A24070A602529A4B9D4000000000000000000C00000016000000000000C00C00000012000000FF7F00000C00000017000000000000000C
310
000000130000009A3A00003C0000000600000002000000959FAF1CDFB1A24070A602529A4B9D400000000000000000C8D2E24F920EA34070A602529A4B9D4000000000000000000C00000016000000000000C00C00000012000000FF7F00000C00000017000000FFFFFFFF0C0000003300000000000000
100
AcDbMLeader
300
CONTEXT_DATA{
 40
15.0
 10
2392.935765732031
 20
1874.900703469666
 30
0.0
 41
30.0
140
30.0
145
46.34999999999999
174
     6
175
     6
176
     0
177
     0
290
     1
304

 11
0.0
 21
0.0
 31
1.0
340
50
 12
2439.285765732031
 22
1904.900703469666
 32
0.0
 13
1.0
 23
0.0
 33
0.0
 42
0.0
 43
0.0
 44
0.0
 45
1.0
170
     1
 90
-1073741824
171
     1
172
     5
 91
-1073741824
141
0.0
 92
        0
291
     0
292
     0
173
     0
293
     0
142
0.0
143
0.0
294
     0
295
     0
296
     0
110
2150.0
120
1985.0
130
0.0
111
1.0
121
0.0
131
0.0
112
0.0
122
1.0
132
0.0
297
     0
302
LEADER{
290
     1
291
     1
 10
2387.535765732031
 20
1874.900703469666
 30
0.0
 11
1.0
 21
0.0
 31
0.0
 90
        0
 40
5.399999999999999
304
LEADER_LINE{
 10
2150.0
 20
1985.0
 30
0.0
 91
        0
305
}
303
}
301
}
340
62
 90
   279552
170
     1
 91
-1056964608
341
56
171
    -2
290
     1
291
     1
 41
0.36
 42
2.0
172
     2
343
50
173
     6
 95
        6
174
     1
175
     0
 92
-1056964608
292
     0
 93
-1056964608
 10
1.0
 20
1.0
 30
1.0
 43
0.0
176
     0
293
     0
294
     0
178
     0
179
     1
 45
15.0
1001
ACAD_MLEADERVER
1070
     2
  0
MULTILEADER
  5
FD2
102
{ACAD_XDICTIONARY
360
FD3
102
}
102
{ACAD_REACTORS
330
FD4
102
}
330
67
100
AcDbEntity
  8
寸法
 92
     1064
310
280400001A0000000C00000016000000000000C00C00000033000000000000000C00000013000000993A0000BC00000026000000678C48F64B9F9A40C56A583730D49F40000000000000000000000000000000000000000000000000000000000000F03F000000000000F03F00000000000000000000000000000000C60300
310
0001000000010000000000000000003E40000000000000F03F0000000000000000000000000000F03F0000000000000000000000000000000000000000000000000000000001000000320000002DFF33FF200030FFB430B730C330AF30000000000000000000000000BC0000002600000095463199D74D9B40C56A583730D4
310
9F40000000000000000000000000000000000000000000000000000000000000F03F000000000000F03F0000000000000000000000000000000034002D003500000003000000010000000000000000003E40000000000000F03F0000000000000000000000000000F03F000000000000000000000000000000000000000000
310
000000000000000100000000000000000000007400780074002E00730068007800000000001D2DBC0000002600000095463199D7B59C40C56A583730D49F40000000000000000000000000000000000000000000000000000000000000F03F000000000000F03F000000000000000000000000000000002C67000001000000
310
010000000000000000003E40000000000000F03F0000000000000000000000000000F03F0000000000000000000000000000000000000000000000000000000001000000320000002DFF33FF200030FFB430B730C330AF300000000000000000000000000C00000033000000000000000C00000010000000050000000C0000
310
0016000000000000C00C00000012000000FF7F00000C00000013000000010000000C0000001400000001000000540000000700000003000000D198210CA0C99F40CB946D0B6BEFA0400000000000000000000000000013A040000000000017A1400000000000000000B84BFB0A4BE89F40815205F893E2A040000000000000
310
00000C00000013000000891300003C000000060000000200000045728E8BF5D89F40A673B981FFE8A0400000000000000000502FD424862A9E40DCC7CC08F6CF9F4000000000000000000C00000013000000112700003C0000000600000002000000502FD424862A9E40DCC7CC08F6CF9F400000000000000000B6953A8BEC
310
149E40DCC7CC08F6CF9F4000000000000000000C00000016000000000000C00C00000012000000FF7F00000C00000017000000000000000C000000130000009A3A00003C000000060000000200000038D25F53C0C29A40DCC7CC08F6CF9F400000000000000000B6953A8BEC149E40DCC7CC08F6CF9F400000000000000000
310
0C00000016000000000000C00C00000012000000FF7F00000C00000017000000FFFFFFFF0C0000003300000000000000
100
AcDbMLeader
300
CONTEXT_DATA{
 40
15.0
 10
1666.33781804772
 20
2035.990267944049
 30
0.0
 41
30.0
140
30.0
145
46.34999999999999
174
     6
175
     6
176
     2
177
     0
290
     1
304
{\fMS PGothic|b0|i0|c128|p50;φ}4-5{\fMS PGothic|b0|i0|c128|p50;本}
 11
0.0
 21
0.0
 31
1.0
340
50
 12
1878.880999865901
 22
2071.990267944048
 32
0.0
 13
1.0
 23
0.0
 33
0.0
 42
0.0
 43
0.0
 44
0.0
 45
1.0
170
     1
 90
-1073741824
171
     3
172
     5
 91
-1073741824
141
0.0
 92
        0
291
     0
292
     0
173
     0
293
     0
142
0.0
143
0.0
294
     0
295
     0
296
     0
110
2057.5
120
2187.5
130
0.0
111
1.0
121
0.0
131
0.0
112
0.0
122
1.0
132
0.0
297
     0
302
LEADER{
290
     1
291
     1
 10
1930.630999865902
 20
2035.990267944049
 30
0.0
 11
-1.0
 21
0.0
 31
0.0
 90
        0
 40
5.399999999999999
304
LEADER_LINE{
 10
2057.5
 20
2187.5
 30
0.0
 91
        0
305
}
303
}
301
}
340
62
 90
   279552
170
     1
 91
-1056964608
341
56
171
    -2
290
     1
291
     1
 41
0.36
 42
2.0
172
     2
343
50
173
     6
 95
        6
174
     1
175
     2
 92
-1056964608
292
     0
 93
-1056964608
 10
1.0
 20
1.0
 30
1.0
 43
0.0
176
     0
293
     0
294
     0
178
     0
179
     3
 45
15.0
1001
ACAD_MLEADERVER
1070
     2
  0
MULTILEADER
  5
FD5
102
{ACAD_XDICTIONARY
360
FD6
102
}
102
{ACAD_REACTORS
330
FD7
102
}
330
67
100
AcDbEntity
  8
寸法
 92
      500
310
F4010000170000000C00000016000000000000C00C00000033000000000000000C00000013000000993A00000C00000033000000000000000C00000010000000050000000C00000016000000000000C00C00000012000000FF7F00000C00000013000000010000000C00000014000000010000005400000007000000030000
310
007E54610C7F3C9F40A02595311DE8A040000000000000000001000000008A9F40000000000017A14000000000000000007891E622195F9F407423DB8A14DEA04000000000000000000C00000013000000891300003C0000000600000002000000FBF2A317CC4D9F408A2438DE18E3A0400000000000000000502FD424862A
310
9E40DCC7CC08F6CF9F4000000000000000000C00000013000000112700003C0000000600000002000000502FD424862A9E40DCC7CC08F6CF9F400000000000000000B6953A8BEC149E40DCC7CC08F6CF9F4000000000000000000C00000016000000000000C00C00000012000000FF7F00000C00000017000000000000000C
310
000000130000009A3A00003C00000006000000020000004F2FD424865B9D40DCC7CC08F6CF9F400000000000000000B5953A8BEC149E40DCC7CC08F6CF9F4000000000000000000C00000016000000000000C00C00000012000000FF7F00000C00000017000000FFFFFFFF0C0000003300000000000000
100
AcDbMLeader
300
CONTEXT_DATA{
 40
15.0
 10
1832.530999865901
 20
2035.990267944049
 30
0.0
 41
30.0
140
30.0
145
46.34999999999999
174
     6
175
     6
176
     2
177
     0
290
     1
304

 11
0.0
 21
0.0
 31
1.0
340
50
 12
1878.880999865901
 22
2065.990267944048
 32
0.0
 13
1.0
 23
0.0
 33
0.0
 42
0.0
 43
0.0
 44
0.0
 45
1.0
170
     1
 90
-1073741824
171
     3
172
     5
 91
-1073741824
141
0.0
 92
        0
291
     0
292
     0
173
     0
293
     0
142
0.0
143
0.0
294
     0
295
     0
296
     0
110
2018.5
120
2187.5
130
0.0
111
1.0
121
0.0
131
0.0
112
0.0
122
1.0
132
0.0
297
     0
302
LEADER{
290
     1
291
     1
 10
1930.630999865902
 20
2035.990267944049
 30
0.0
 11
-1.0
 21
0.0
 31
0.0
 90
        0
 40
5.399999999999999
304
LEADER_LINE{
 10
2018.5
 20
2187.5
 30
0.0
 91
        0
305
}
303
}
301
}
340
62
 90
   279552
170
     1
 91
-1056964608
341
56
171
    -2
290
     1
291
     1
 41
0.36
 42
2.0
172
     2
343
50
173
     6
 95
        6
174
     1
175
     2
 92
-1056964608
292
     0
 93
-1056964608
 10
1.0
 20
1.0
 30
1.0
 43
0.0
176
     0
293
     0
294
     0
178
     0
179
     3
 45
15.0
1001
ACAD_MLEADERVER
1070
     2
  0
MULTILEADER
  5
FD8
102
{ACAD_XDICTIONARY
360
FD9
102
}
102
{ACAD_REACTORS
330
FDA
102
}
330
67
100
AcDbEntity
  8
寸法
 92
      500
310
F4010000170000000C00000016000000000000C00C00000033000000000000000C00000013000000993A00000C00000033000000000000000C00000010000000050000000C00000016000000000000C00C00000012000000FF7F00000C00000013000000010000000C00000014000000010000005400000007000000030000
310
002952F36B1EE29E40051584B43BE3A04000000000000000000100000000229F40000000000017A1400000000000000000E5FA667B26079F40C6F0201DACDBA04000000000000000000C00000013000000891300003C00000006000000020000008726AD73A2F49E40E582D2E873DFA0400000000000000000502FD424862A
310
9E40DCC7CC08F6CF9F4000000000000000000C00000013000000112700003C0000000600000002000000502FD424862A9E40DCC7CC08F6CF9F400000000000000000B6953A8BEC149E40DCC7CC08F6CF9F4000000000000000000C00000016000000000000C00C00000012000000FF7F00000C00000017000000000000000C
310
000000130000009A3A00003C00000006000000020000004F2FD424865B9D40DCC7CC08F6CF9F400000000000000000B5953A8BEC149E40DCC7CC08F6CF9F4000000000000000000C00000016000000000000C00C00000012000000FF7F00000C00000017000000FFFFFFFF0C0000003300000000000000
100
AcDbMLeader
300
CONTEXT_DATA{
 40
15.0
 10
1832.530999865901
 20
2035.990267944049
 30
0.0
 41
30.0
140
30.0
145
46.34999999999999
174
     6
175
     6
176
     2
177
     0
290
     1
304

 11
0.0
 21
0.0
 31
1.0
340
50
 12
1878.880999865901
 22
2065.990267944048
 32
0.0
 13
1.0
 23
0.0
 33
0.0
 42
0.0
 43
0.0
 44
0.0
 45
1.0
170
     1
 90
-1073741824
171
     3
172
     5
 91
-1073741824
141
0.0
 92
        0
291
     0
292
     0
173
     0
293
     0
142
0.0
143
0.0
294
     0
295
     0
296
     0
110
1992.5
120
2187.5
130
0.0
111
1.0
121
0.0
131
0.0
112
0.0
122
1.0
132
0.0
297
     0
302
LEADER{
290
     1
291
     1
 10
1930.630999865902
 20
2035.990267944049
 30
0.0
 11
-1.0
 21
0.0
 31
0.0
 90
        0
 40
5.399999999999999
304
LEADER_LINE{
 10
1992.5
 20
2187.5
 30
0.0
 91
        0
305
}
303
}
301
}
340
62
 90
   279552
170
     1
 91
-1056964608
341
56
171
    -2
290
     1
291
     1
 41
0.36
 42
2.0
172
     2
343
50
173
     6
 95
        6
174
     1
175
     2
 92
-1056964608
292
     0
 93
-1056964608
 10
1.0
 20
1.0
 30
1.0
 43
0.0
176
     0
293
     0
294
     0
178
     0
179
     3
 45
15.0
1001
ACAD_MLEADERVER
1070
     2
  0
MULTILEADER
  5
FDB
330
67
100
AcDbEntity
  8
寸法
 92
      500
310
F4010000170000000C00000016000000000000C00C00000033000000000000000C00000013000000993A00000C00000033000000000000000C00000010000000050000000C00000016000000000000C00C00000012000000FF7F00000C00000013000000010000000C00000014000000010000005400000007000000030000
310
00FFFFFFFFFF869440000000000045A0400000000000000000FFFFFFFFFFFE944000000000003BA0400000000000000000FFFFFFFFFF869440000000000031A04000000000000000000C00000013000000891300003C0000000600000002000000FFFFFFFFFF86944000000000003BA04000000000000000000000000000E7
310
934000000000003BA04000000000000000000C00000013000000112700003C00000006000000020000000000000000E7934000000000003BA04000000000000000006666666666D1934000000000003BA04000000000000000000C00000016000000000000C00C00000012000000FF7F00000C00000017000000000000000C
310
000000130000009A3A00003C0000000600000002000000FFFFFFFFFF17934000000000003BA04000000000000000006566666666D1934000000000003BA04000000000000000000C00000016000000000000C00C00000012000000FF7F00000C00000017000000FFFFFFFF0C0000003300000000000000
100
AcDbMLeader
300
CONTEXT_DATA{
 40
15.0
 10
1175.65
 20
2077.5
 30
0.0
 41
30.0
140
30.0
145
46.34999999999999
174
     6
175
     6
176
     2
177
     0
290
     1
304

 11
0.0
 21
0.0
 31
1.0
340
50
 12
1222.0
 22
2107.5
 32
0.0
 13
1.0
 23
0.0
 33
0.0
 42
0.0
 43
0.0
 44
0.0
 45
1.0
170
     1
 90
-1073741824
171
     3
172
     5
 91
-1073741824
141
0.0
 92
        0
291
     0
292
     0
173
     0
293
     0
142
0.0
143
0.0
294
     0
295
     0
296
     0
110
1343.75
120
2077.5
130
0.0
111
1.0
121
0.0
131
0.0
112
0.0
122
1.0
132
0.0
297
     0
302
LEADER{
290
     1
291
     1
 10
1273.75
 20
2077.5
 30
0.0
 11
-1.0
 21
0.0
 31
0.0
 90
        0
 40
5.399999999999999
304
LEADER_LINE{
 10
1343.75
 20
2077.5
 30
0.0
 91
        0
305
}
303
}
301
}
340
62
 90
   279552
170
     1
 91
-1056964608
341
56
171
    -2
290
     1
291
     1
 41
0.36
 42
2.0
172
     2
343
50
173
     6
 95
        6
174
     1
175
     2
 92
-1056964608
292
     0
 93
-1056964608
 10
1.0
 20
1.0
 30
1.0
 43
0.0
176
     0
293
     0
294
     0
178
     0
179
     3
 45
15.0
1001
ACAD_MLEADERVER
1070
     2
  0
MULTILEADER
  5
FDC
330
67
100
AcDbEntity
  8
寸法
 92
      500
310
F4010000170000000C00000016000000000000C00C00000033000000000000000C00000013000000993A00000C00000033000000000000000C00000010000000050000000C00000016000000000000C00C00000012000000FF7F00000C00000013000000010000000C00000014000000010000005400000007000000030000
310
000000000000179140000000000045A040000000000000000000000000008F914000000000003BA04000000000000000000000000000179140000000000031A04000000000000000000C00000013000000891300003C0000000600000002000000000000000017914000000000003BA0400000000000000000010000000077
310
904000000000003BA04000000000000000000C00000013000000112700003C0000000600000002000000010000000077904000000000003BA0400000000000000000676666666661904000000000003BA04000000000000000000C00000016000000000000C00C00000012000000FF7F00000C00000017000000000000000C
310
000000130000009A3A00003C00000006000000020000000100000000508F4000000000003BA0400000000000000000676666666661904000000000003BA04000000000000000000C00000016000000000000C00C00000012000000FF7F00000C00000017000000FFFFFFFF0C0000003300000000000000
100
AcDbMLeader
300
CONTEXT_DATA{
 40
15.0
 10
955.6500000000001
 20
2077.5
 30
0.0
 41
30.0
140
30.0
145
46.34999999999999
174
     6
175
     6
176
     2
177
     0
290
     1
304

 11
0.0
 21
0.0
 31
1.0
340
50
 12
1002.0
 22
2107.5
 32
0.0
 13
1.0
 23
0.0
 33
0.0
 42
0.0
 43
0.0
 44
0.0
 45
1.0
170
     1
 90
-1073741824
171
     3
172
     5
 91
-1073741824
141
0.0
 92
        0
291
     0
292
     0
173
     0
293
     0
142
0.0
143
0.0
294
     0
295
     0
296
     0
110
1123.75
120
2077.5
130
0.0
111
1.0
121
0.0
131
0.0
112
0.0
122
1.0
132
0.0
297
     0
302
LEADER{
290
     1
291
     1
 10
1053.75
 20
2077.5
 30
0.0
 11
-1.0
 21
0.0
 31
0.0
 90
        0
 40
5.399999999999999
304
LEADER_LINE{
 10
1123.75
 20
2077.5
 30
0.0
 91
        0
305
}
303
}
301
}
340
62
 90
   279552
170
     1
 91
-1056964608
341
56
171
    -2
290
     1
291
     1
 41
0.36
 42
2.0
172
     2
343
50
173
     6
 95
        6
174
     1
175
     2
 92
-1056964608
292
     0
 93
-1056964608
 10
1.0
 20
1.0
 30
1.0
 43
0.0
176
     0
293
     0
294
     0
178
     0
179
     3
 45
15.0
1001
ACAD_MLEADERVER
1070
     2
  0
MULTILEADER
  5
FDD
330
67
100
AcDbEntity
  8
寸法
 92
      500
310
F4010000170000000C00000016000000000000C00C00000033000000000000000C00000013000000993A00000C00000033000000000000000C00000010000000050000000C00000016000000000000C00C00000012000000FF7F00000C00000013000000010000000C00000014000000010000005400000007000000030000
310
00FFFFFFFFFF1E9340000000000045A0400000000000000000FFFFFFFFFF96934000000000003BA0400000000000000000FFFFFFFFFF1E9340000000000031A04000000000000000000C00000013000000891300003C0000000600000002000000FFFFFFFFFF1E934000000000003BA040000000000000000000000000008F
310
914000000000003BA04000000000000000000C00000013000000112700003C000000060000000200000000000000008F914000000000003BA0400000000000000000666666666679914000000000003BA04000000000000000000C00000016000000000000C00C00000012000000FF7F00000C00000017000000000000000C
310
000000130000009A3A00003C0000000600000002000000FFFFFFFFFFBF904000000000003BA0400000000000000000656666666679914000000000003BA04000000000000000000C00000016000000000000C00C00000012000000FF7F00000C00000017000000FFFFFFFF0C0000003300000000000000
100
AcDbMLeader
300
CONTEXT_DATA{
 40
15.0
 10
1025.65
 20
2077.5
 30
0.0
 41
30.0
140
30.0
145
46.34999999999999
174
     6
175
     6
176
     2
177
     0
290
     1
304

 11
0.0
 21
0.0
 31
1.0
340
50
 12
1072.0
 22
2107.5
 32
0.0
 13
1.0
 23
0.0
 33
0.0
 42
0.0
 43
0.0
 44
0.0
 45
1.0
170
     1
 90
-1073741824
171
     3
172
     5
 91
-1073741824
141
0.0
 92
        0
291
     0
292
     0
173
     0
293
     0
142
0.0
143
0.0
294
     0
295
     0
296
     0
110
1253.75
120
2077.5
130
0.0
111
1.0
121
0.0
131
0.0
112
0.0
122
1.0
132
0.0
297
     0
302
LEADER{
290
     1
291
     1
 10
1123.75
 20
2077.5
 30
0.0
 11
-1.0
 21
0.0
 31
0.0
 90
        0
 40
5.399999999999999
304
LEADER_LINE{
 10
1253.75
 20
2077.5
 30
0.0
 91
        0
305
}
303
}
301
}
340
62
 90
   279552
170
     1
 91
-1056964608
341
56
171
    -2
290
     1
291
     1
 41
0.36
 42
2.0
172
     2
343
50
173
     6
 95
        6
174
     1
175
     2
 92
-1056964608
292
     0
 93
-1056964608
 10
1.0
 20
1.0
 30
1.0
 43
0.0
176
     0
293
     0
294
     0
178
     0
179
     3
 45
15.0
1001
ACAD_MLEADERVER
1070
     2
  0
MTEXT
  5
FE8
330
67
100
AcDbEntity
  8
寸法
100
AcDbMText
 10
1240.5
 20
2062.5
 30
0.0
 40
30.0
 41
0.0
 46
0.0
 71
     1
 72
     5
  1

 73
     1
 44
1.0
  0
LWPOLYLINE
  5
FEA
102
{ACAD_REACTORS
330
103C
102
}
330
67
100
AcDbEntity
  8
寸法
  6
ByBlock
370
    -2
100
AcDbPolyline
 90
        2
 70
     0
 43
0.0
 10
1188.75
 20
2092.5
 10
1188.75
 20
2032.5
  0
SOLID
  5
FEB
330
67
100
AcDbEntity
  8
寸法
100
AcDbTrace
 10
1183.75
 20
2092.5
 30
0.0
 11
1188.75
 21
2122.5
 31
0.0
 12
1193.75
 22
2092.5
 32
0.0
 13
1193.75
 23
2092.5
 33
0.0
  0
MTEXT
  5
FED
330
67
100
AcDbEntity
  8
寸法
100
AcDbMText
 10
1240.5
 20
2152.5
 30
0.0
 40
30.0
 41
0.0
 46
0.0
 71
     1
 72
     5
  1

 73
     1
 44
1.0
  0
LWPOLYLINE
  5
FEF
330
67
100
AcDbEntity
  8
寸法
  6
ByBlock
370
    -2
100
AcDbPolyline
 90
        2
 70
     0
 43
0.0
 10
1188.75
 20
2222.5
 10
1188.75
 20
2122.5
  0
SOLID
  5
FF0
330
67
100
AcDbEntity
  8
寸法
100
AcDbTrace
 10
1183.75
 20
2222.5
 30
0.0
 11
1188.75
 21
2252.5
 31
0.0
 12
1193.75
 22
2222.5
 32
0.0
 13
1193.75
 23
2222.5
 33
0.0
  0
MTEXT
  5
FF2
330
67
100
AcDbEntity
  8
寸法
100
AcDbMText
 10
1240.5
 20
2268.629345573608
 30
0.0
 40
30.0
 41
0.0
 46
0.0
 71
     1
 72
     5
  1

 73
     1
 44
1.0
  0
LWPOLYLINE
  5
FF4
330
67
100
AcDbEntity
  8
寸法
  6
ByBlock
370
    -2
100
AcDbPolyline
 90
        2
 70
     0
 43
0.0
 10
1188.75
 20
2312.5
 10
1188.75
 20
2238.629345573608
  0
SOLID
  5
FF5
330
67
100
AcDbEntity
  8
寸法
100
AcDbTrace
 10
1183.75
 20
2312.5
 30
0.0
 11
1188.75
 21
2342.5
 31
0.0
 12
1193.75
 22
2312.5
 32
0.0
 13
1193.75
 23
2312.5
 33
0.0
  0
MULTILEADER
  5
FF9
330
67
100
AcDbEntity
  8
寸法
 92
      500
310
F4010000170000000C00000016000000000000C00C00000033000000000000000C00000013000000993A00000C00000033000000000000000C00000010000000050000000C00000016000000000000C00C00000012000000FF7F00000C00000013000000010000000C00000014000000010000005400000007000000030000
310
00FFFFFFFFFF869440E83A75FBB98A84400000000000000000FFFFFFFFFFFE9440E83A75FBB96284400000000000000000FFFFFFFFFF869440E83A75FBB93A844000000000000000000C00000013000000891300003C0000000600000002000000FFFFFFFFFF869440E83A75FBB962844000000000000000000000000000E7
310
9340E83A75FBB962844000000000000000000C00000013000000112700003C00000006000000020000000000000000E79340E83A75FBB962844000000000000000006666666666D19340E83A75FBB962844000000000000000000C00000016000000000000C00C00000012000000FF7F00000C00000017000000000000000C
310
000000130000009A3A00003C0000000600000002000000FFFFFFFFFF179340E83A75FBB962844000000000000000006566666666D19340E83A75FBB962844000000000000000000C00000016000000000000C00C00000012000000FF7F00000C00000017000000FFFFFFFF0C0000003300000000000000
100
AcDbMLeader
300
CONTEXT_DATA{
 40
15.0
 10
1175.65
 20
652.3408116491891
 30
0.0
 41
30.0
140
30.0
145
46.34999999999999
174
     6
175
     6
176
     2
177
     0
290
     1
304

 11
0.0
 21
0.0
 31
1.0
340
50
 12
1222.0
 22
682.3408116491891
 32
0.0
 13
1.0
 23
0.0
 33
0.0
 42
0.0
 43
0.0
 44
0.0
 45
1.0
170
     1
 90
-1073741824
171
     3
172
     5
 91
-1073741824
141
0.0
 92
        0
291
     0
292
     0
173
     0
293
     0
142
0.0
143
0.0
294
     0
295
     0
296
     0
110
1343.75
120
652.3408116491891
130
0.0
111
1.0
121
0.0
131
0.0
112
0.0
122
1.0
132
0.0
297
     0
302
LEADER{
290
     1
291
     1
 10
1273.75
 20
652.3408116491891
 30
0.0
 11
-1.0
 21
0.0
 31
0.0
 90
        0
 40
5.399999999999999
304
LEADER_LINE{
 10
1343.75
 20
652.3408116491891
 30
0.0
 91
        0
305
}
303
}
301
}
340
62
 90
   279552
170
     1
 91
-1056964608
341
56
171
    -2
290
     1
291
     1
 41
0.36
 42
2.0
172
     2
343
50
173
     6
 95
        6
174
     1
175
     2
 92
-1056964608
292
     0
 93
-1056964608
 10
1.0
 20
1.0
 30
1.0
 43
0.0
176
     0
293
     0
294
     0
178
     0
179
     3
 45
15.0
1001
ACAD_MLEADERVER
1070
     2
  0
MULTILEADER
  5
FFA
330
67
100
AcDbEntity
  8
寸法
 92
      500
310
F4010000170000000C00000016000000000000C00C00000033000000000000000C00000013000000993A00000C00000033000000000000000C00000010000000050000000C00000016000000000000C00C00000012000000FF7F00000C00000013000000010000000C00000014000000010000005400000007000000030000
310
000000000000179140E83A75FBB98A8440000000000000000000000000008F9140E83A75FBB962844000000000000000000000000000179140E83A75FBB93A844000000000000000000C00000013000000891300003C00000006000000020000000000000000179140E83A75FBB96284400000000000000000010000000077
310
9040E83A75FBB962844000000000000000000C00000013000000112700003C00000006000000020000000100000000779040E83A75FBB962844000000000000000006766666666619040E83A75FBB962844000000000000000000C00000016000000000000C00C00000012000000FF7F00000C00000017000000000000000C
310
000000130000009A3A00003C00000006000000020000000100000000508F40E83A75FBB962844000000000000000006766666666619040E83A75FBB962844000000000000000000C00000016000000000000C00C00000012000000FF7F00000C00000017000000FFFFFFFF0C0000003300000000000000
100
AcDbMLeader
300
CONTEXT_DATA{
 40
15.0
 10
955.6500000000001
 20
652.3408116491891
 30
0.0
 41
30.0
140
30.0
145
46.34999999999999
174
     6
175
     6
176
     2
177
     0
290
     1
304

 11
0.0
 21
0.0
 31
1.0
340
50
 12
1002.0
 22
682.3408116491891
 32
0.0
 13
1.0
 23
0.0
 33
0.0
 42
0.0
 43
0.0
 44
0.0
 45
1.0
170
     1
 90
-1073741824
171
     3
172
     5
 91
-1073741824
141
0.0
 92
        0
291
     0
292
     0
173
     0
293
     0
142
0.0
143
0.0
294
     0
295
     0
296
     0
110
1123.75
120
652.3408116491891
130
0.0
111
1.0
121
0.0
131
0.0
112
0.0
122
1.0
132
0.0
297
     0
302
LEADER{
290
     1
291
     1
 10
1053.75
 20
652.3408116491891
 30
0.0
 11
-1.0
 21
0.0
 31
0.0
 90
        0
 40
5.399999999999999
304
LEADER_LINE{
 10
1123.75
 20
652.3408116491891
 30
0.0
 91
        0
305
}
303
}
301
}
340
62
 90
   279552
170
     1
 91
-1056964608
341
56
171
    -2
290
     1
291
     1
 41
0.36
 42
2.0
172
     2
343
50
173
     6
 95
        6
174
     1
175
     2
 92
-1056964608
292
     0
 93
-1056964608
 10
1.0
 20
1.0
 30
1.0
 43
0.0
176
     0
293
     0
294
     0
178
     0
179
     3
 45
15.0
1001
ACAD_MLEADERVER
1070
     2
  0
MULTILEADER
  5
FFB
330
67
100
AcDbEntity
  8
寸法
 92
      500
310
F4010000170000000C00000016000000000000C00C00000033000000000000000C00000013000000993A00000C00000033000000000000000C00000010000000050000000C00000016000000000000C00C00000012000000FF7F00000C00000013000000010000000C00000014000000010000005400000007000000030000
310
00FFFFFFFFFF1E9340E83A75FBB98A84400000000000000000FFFFFFFFFF969340E83A75FBB96284400000000000000000FFFFFFFFFF1E9340E83A75FBB93A844000000000000000000C00000013000000891300003C0000000600000002000000FFFFFFFFFF1E9340E83A75FBB9628440000000000000000000000000008F
310
9140E83A75FBB962844000000000000000000C00000013000000112700003C000000060000000200000000000000008F9140E83A75FBB962844000000000000000006666666666799140E83A75FBB962844000000000000000000C00000016000000000000C00C00000012000000FF7F00000C00000017000000000000000C
310
000000130000009A3A00003C0000000600000002000000FFFFFFFFFFBF9040E83A75FBB962844000000000000000006566666666799140E83A75FBB962844000000000000000000C00000016000000000000C00C00000012000000FF7F00000C00000017000000FFFFFFFF0C0000003300000000000000
100
AcDbMLeader
300
CONTEXT_DATA{
 40
15.0
 10
1025.65
 20
652.3408116491891
 30
0.0
 41
30.0
140
30.0
145
46.34999999999999
174
     6
175
     6
176
     2
177
     0
290
     1
304

 11
0.0
 21
0.0
 31
1.0
340
50
 12
1072.0
 22
682.3408116491891
 32
0.0
 13
1.0
 23
0.0
 33
0.0
 42
0.0
 43
0.0
 44
0.0
 45
1.0
170
     1
 90
-1073741824
171
     3
172
     5
 91
-1073741824
141
0.0
 92
        0
291
     0
292
     0
173
     0
293
     0
142
0.0
143
0.0
294
     0
295
     0
296
     0
110
1253.75
120
652.3408116491891
130
0.0
111
1.0
121
0.0
131
0.0
112
0.0
122
1.0
132
0.0
297
     0
302
LEADER{
290
     1
291
     1
 10
1123.75
 20
652.3408116491891
 30
0.0
 11
-1.0
 21
0.0
 31
0.0
 90
        0
 40
5.399999999999999
304
LEADER_LINE{
 10
1253.75
 20
652.3408116491891
 30
0.0
 91
        0
305
}
303
}
301
}
340
62
 90
   279552
170
     1
 91
-1056964608
341
56
171
    -2
290
     1
291
     1
 41
0.36
 42
2.0
172
     2
343
50
173
     6
 95
        6
174
     1
175
     2
 92
-1056964608
292
     0
 93
-1056964608
 10
1.0
 20
1.0
 30
1.0
 43
0.0
176
     0
293
     0
294
     0
178
     0
179
     3
 45
15.0
1001
ACAD_MLEADERVER
1070
     2
  0
LWPOLYLINE
  5
FFE
330
67
100
AcDbEntity
  8
寸法
  6
ByBlock
370
    -2
100
AcDbPolyline
 90
        2
 70
     0
 43
0.0
 10
1188.75
 20
887.3408116491891
 10
1188.75
 20
813.4701572227967
  0
SOLID
  5
FFF
330
67
100
AcDbEntity
  8
寸法
100
AcDbTrace
 10
1183.75
 20
887.3408116491891
 30
0.0
 11
1188.75
 21
917.3408116491891
 31
0.0
 12
1193.75
 22
887.3408116491891
 32
0.0
 13
1193.75
 23
887.3408116491891
 33
0.0
  0
LWPOLYLINE
  5
1000
330
67
100
AcDbEntity
  8
寸法
  6
ByBlock
370
    -2
100
AcDbPolyline
 90
        2
 70
     0
 43
0.0
 10
1188.75
 20
797.3408116491891
 10
1188.75
 20
697.3408116491891
  0
SOLID
  5
1001
330
67
100
AcDbEntity
  8
寸法
100
AcDbTrace
 10
1183.75
 20
797.3408116491891
 30
0.0
 11
1188.75
 21
827.3408116491891
 31
0.0
 12
1193.75
 22
797.3408116491891
 32
0.0
 13
1193.75
 23
797.3408116491891
 33
0.0
  0
LWPOLYLINE
  5
1002
330
67
100
AcDbEntity
  8
寸法
  6
ByBlock
370
    -2
100
AcDbPolyline
 90
        2
 70
     0
 43
0.0
 10
1188.75
 20
667.3408116491891
 10
1188.75
 20
607.3408116491891
  0
SOLID
  5
1003
330
67
100
AcDbEntity
  8
寸法
100
AcDbTrace
 10
1183.75
 20
667.3408116491891
 30
0.0
 11
1188.75
 21
697.3408116491891
 31
0.0
 12
1193.75
 22
667.3408116491891
 32
0.0
 13
1193.75
 23
667.3408116491891
 33
0.0
  0
MTEXT
  5
100E
330
67
100
AcDbEntity
  8
寸法
100
AcDbMText
 10
3108.822937919665
 20
2122.379027050808
 30
0.0
 40
30.0
 41
0.0
 46
0.0
 71
     3
 72
     5
  1

 73
     1
 44
1.0
  0
MULTILEADER
  5
1013
102
{ACAD_XDICTIONARY
360
1014
102
}
102
{ACAD_REACTORS
330
1015
102
}
330
67
100
AcDbEntity
  8
寸法
 92
     1064
310
280400001A0000000C00000016000000000000C00C00000033000000000000000C00000013000000993A0000BC00000026000000E36D909A26ADAB4049A611ABEECE9440000000000000000000000000000000000000000000000000000000000000F03F000000000000F03F00000000000000000000000000000000C60300
310
0001000000010000000000000000003E40000000000000F03F0000000000000000000000000000F03F0000000000000000000000000000000000000000000000000000000001000000320000002DFF33FF200030FFB430B730C330AF30000000000000000000000000BC00000026000000FBCA046C6C04AC4049A611ABEECE
310
9440000000000000000000000000000000000000000000000000000000000000F03F000000000000F03F0000000000000000000000000000000034002D003800000003000000010000000000000000003E40000000000000F03F0000000000000000000000000000F03F000000000000000000000000000000000000000000
310
000000000000000100000000000000000000007400780074002E00730068007800000000001D2DBC00000026000000FBCA046C6CB8AC4049A611ABEECE9440000000000000000000000000000000000000000000000000000000000000F03F000000000000F03F000000000000000000000000000000002C67000001000000
310
010000000000000000003E40000000000000F03F0000000000000000000000000000F03F0000000000000000000000000000000000000000000000000000000001000000320000002DFF33FF200030FFB430B730C330AF300000000000000000000000000C00000033000000000000000C00000010000000050000000C0000
310
0016000000000000C00C00000012000000FF7F00000C00000013000000010000000C0000001400000001000000540000000700000003000000631C3065445FA8403A6D2FD9D2E99640000000000000000000000000802AA84064C1899D572697400000000000000000F6AB658D3A66A840AD5A617F520F9740000000000000
310
00000C00000013000000891300003C00000006000000020000002DE44A79BF62A840F46348AC92FC96400000000000000000CC101CC96057AB406003867CB4CA944000000000000000000C00000013000000112700003C0000000600000002000000CC101CC96057AB406003867CB4CA9440000000000000000099DDE8952D
310
62AB406003867CB4CA944000000000000000000C00000016000000000000C00C00000012000000FF7F00000C00000017000000000000000C000000130000009A3A00003C000000060000000200000099DDE8952D62AB406003867CB4CA94400000000000000000583FD6B1430BAD406003867CB4CA94400000000000000000
310
0C00000016000000000000C00C00000012000000FF7F00000C00000017000000FFFFFFFF0C0000003300000000000000
100
AcDbMLeader
300
CONTEXT_DATA{
 40
15.0
 10
3505.089034344722
 20
1330.676256269413
 30
0.0
 41
30.0
140
30.0
145
46.34999999999999
174
     6
175
     6
176
     0
177
     0
290
     1
304
{\fMS PGothic|b0|i0|c128|p50;φ}4-8{\fMS PGothic|b0|i0|c128|p50;本}
 11
0.0
 21
0.0
 31
1.0
340
50
 12
3551.439034344721
 22
1366.676256269413
 32
0.0
 13
1.0
 23
0.0
 33
0.0
 42
0.0
 43
0.0
 44
0.0
 45
1.0
170
     1
 90
-1073741824
171
     1
172
     5
 91
-1073741824
141
0.0
 92
        0
291
     0
292
     0
173
     0
293
     0
142
0.0
143
0.0
294
     0
295
     0
296
     0
110
3093.25
120
1481.585561897686
130
0.0
111
1.0
121
0.0
131
0.0
112
0.0
122
1.0
132
0.0
297
     0
302
LEADER{
290
     1
291
     1
 10
3499.689034344721
 20
1330.676256269413
 30
0.0
 11
1.0
 21
0.0
 31
0.0
 90
        0
 40
5.399999999999999
304
LEADER_LINE{
 10
3093.25
 20
1481.585561897686
 30
0.0
 91
        0
305
}
303
}
301
}
340
62
 90
   279552
170
     1
 91
-1056964608
341
56
171
    -2
290
     1
291
     1
 41
0.36
 42
2.0
172
     2
343
50
173
     6
 95
        6
174
     1
175
     0
 92
-1056964608
292
     0
 93
-1056964608
 10
1.0
 20
1.0
 30
1.0
 43
0.0
176
     0
293
     0
294
     0
178
     0
179
     1
 45
15.0
1001
ACAD_MLEADERVER
1070
     2
  0
MTEXT
  5
101A
330
67
100
AcDbEntity
  8
寸法
100
AcDbMText
 10
3135.15283984726
 20
1363.02586874508
 30
0.0
 40
30.0
 41
0.0
 46
0.0
 71
     3
 72
     5
  1

 73
     1
 44
1.0
  0
MULTILEADER
  5
101F
102
{ACAD_XDICTIONARY
360
1020
102
}
102
{ACAD_REACTORS
330
1021
102
}
330
67
100
AcDbEntity
  8
寸法
 92
     1064
310
280400001A0000000C00000016000000000000C00C00000033000000000000000C00000013000000993A0000BC000000260000002218EDA8AEC6A540898397DB1CAD9540000000000000000000000000000000000000000000000000000000000000F03F000000000000F03F00000000000000000000000000000000C60300
310
0001000000010000000000000000003E40000000000000F03F0000000000000000000000000000F03F0000000000000000000000000000000000000000000000000000000001000000320000002DFF33FF200030FFB430B730C330AF30000000000000000000000000BC000000260000003A75617AF41DA640898397DB1CAD
310
9540000000000000000000000000000000000000000000000000000000000000F03F000000000000F03F0000000000000000000000000000000034002D003300000003000000010000000000000000003E40000000000000F03F0000000000000000000000000000F03F000000000000000000000000000000000000000000
310
000000000000000100000000000000000000007400780074002E00730068007800000000001D2DBC000000260000003A75617AF4D1A640898397DB1CAD9540000000000000000000000000000000000000000000000000000000000000F03F000000000000F03F000000000000000000000000000000002C67000001000000
310
010000000000000000003E40000000000000F03F0000000000000000000000000000F03F0000000000000000000000000000000000000000000000000000000001000000320000002DFF33FF200030FFB430B730C330AF300000000000000000000000000C00000033000000000000000C00000010000000050000000C0000
310
0016000000000000C00C00000012000000FF7F00000C00000013000000010000000C0000001400000001000000540000000700000003000000BA20EB809FFFA74093F32485689E974000000000000000007B3677639423A840295FE37E880098400000000000000000379411937A11A840E760D49E638C9740000000000000
310
00000C00000013000000891300003C0000000600000002000000795AFE098D08A8403DAAFC1166959740000000000000000097E932C04B8CA740A0E00BADE2A8954000000000000000000C00000013000000112700003C000000060000000200000097E932C04B8CA740A0E00BADE2A895400000000000000000CA1C66F37E
310
81A740A0E00BADE2A8954000000000000000000C00000016000000000000C00C00000012000000FF7F00000C00000017000000000000000C000000130000009A3A00003C00000006000000020000000BBB78D768D8A540A0E00BADE2A895400000000000000000CA1C66F37E81A740A0E00BADE2A895400000000000000000
310
0C00000016000000000000C00C00000012000000FF7F00000C00000017000000FFFFFFFF0C0000003300000000000000
100
AcDbMLeader
300
CONTEXT_DATA{
 40
15.0
 10
2749.854768917878
 20
1386.221363244614
 30
0.0
 41
30.0
140
30.0
145
46.34999999999999
174
     6
175
     6
176
     2
177
     0
290
     1
304
{\fMS PGothic|b0|i0|c128|p50;φ}4-3{\fMS PGothic|b0|i0|c128|p50;本}
 11
0.0
 21
0.0
 31
1.0
340
50
 12
2962.39795073606
 22
1422.221363244615
 32
0.0
 13
1.0
 23
0.0
 33
0.0
 42
0.0
 43
0.0
 44
0.0
 45
1.0
170
     1
 90
-1073741824
171
     3
172
     5
 91
-1073741824
141
0.0
 92
        0
291
     0
292
     0
173
     0
293
     0
142
0.0
143
0.0
294
     0
295
     0
296
     0
110
3089.789821362878
120
1536.133296539958
130
0.0
111
1.0
121
0.0
131
0.0
112
0.0
122
1.0
132
0.0
297
     0
302
LEADER{
290
     1
291
     1
 10
3014.14795073606
 20
1386.221363244614
 30
0.0
 11
-1.0
 21
0.0
 31
0.0
 90
        0
 40
5.399999999999999
304
LEADER_LINE{
 10
3089.789821362878
 20
1536.133296539958
 30
0.0
 91
        0
305
}
303
}
301
}
340
62
 90
   279552
170
     1
 91
-1056964608
341
56
171
    -2
290
     1
291
     1
 41
0.36
 42
2.0
172
     2
343
50
173
     6
 95
        6
174
     1
175
     2
 92
-1056964608
292
     0
 93
-1056964608
 10
1.0
 20
1.0
 30
1.0
 43
0.0
176
     0
293
     0
294
     0
178
     0
179
     3
 45
15.0
1001
ACAD_MLEADERVER
1070
     2
  0
MTEXT
  5
1027
330
67
100
AcDbEntity
  8
寸法
100
AcDbMText
 10
3301.346021665442
 20
1363.02586874508
 30
0.0
 40
30.0
 41
0.0
 46
0.0
 71
     3
 72
     5
  1

 73
     1
 44
1.0
  0
MULTILEADER
  5
102C
102
{ACAD_XDICTIONARY
360
102D
102
}
102
{ACAD_REACTORS
330
102E
102
}
330
67
100
AcDbEntity
  8
寸法
 92
      500
310
F4010000170000000C00000016000000000000C00C00000033000000000000000C00000013000000993A00000C00000033000000000000000C00000010000000050000000C00000016000000000000C00C00000012000000FF7F00000C00000013000000010000000C00000014000000010000005400000007000000030000
310
007D8CC2204FE8A740F9D3284EC50696400000000000000000D17DF00ECE23A840EBF993A6162096400000000000000000B7F25273A1EFA74029553A208CE1954000000000000000000C00000013000000891300003C00000006000000020000009ABF0A4AF8EBA740919431B728F49540000000000000000097E932C04B8C
310
A740A0E00BADE2A8954000000000000000000C00000013000000112700003C000000060000000200000097E932C04B8CA740A0E00BADE2A895400000000000000000CA1C66F37E81A740A0E00BADE2A8954000000000000000000C00000016000000000000C00C00000012000000FF7F00000C00000017000000000000000C
310
000000130000009A3A00003C000000060000000200000097E932C0CB24A740A0E00BADE2A895400000000000000000CA1C66F37E81A740A0E00BADE2A8954000000000000000000C00000016000000000000C00C00000012000000FF7F00000C00000017000000FFFFFFFF0C0000003300000000000000
100
AcDbMLeader
300
CONTEXT_DATA{
 40
15.0
 10
2916.04795073606
 20
1386.221363244614
 30
0.0
 41
30.0
140
30.0
145
46.34999999999999
174
     6
175
     6
176
     2
177
     0
290
     1
304

 11
0.0
 21
0.0
 31
1.0
340
50
 12
2962.39795073606
 22
1416.221363244615
 32
0.0
 13
1.0
 23
0.0
 33
0.0
 42
0.0
 43
0.0
 44
0.0
 45
1.0
170
     1
 90
-1073741824
171
     3
172
     5
 91
-1073741824
141
0.0
 92
        0
291
     0
292
     0
173
     0
293
     0
142
0.0
143
0.0
294
     0
295
     0
296
     0
110
3089.902457728728
120
1416.022119819764
130
0.0
111
1.0
121
0.0
131
0.0
112
0.0
122
1.0
132
0.0
297
     0
302
LEADER{
290
     1
291
     1
 10
3014.14795073606
 20
1386.221363244614
 30
0.0
 11
-1.0
 21
0.0
 31
0.0
 90
        0
 40
5.399999999999999
304
LEADER_LINE{
 10
3089.902457728728
 20
1416.022119819764
 30
0.0
 91
        0
305
}
303
}
301
}
340
62
 90
   279552
170
     1
 91
-1056964608
341
56
171
    -2
290
     1
291
     1
 41
0.36
 42
2.0
172
     2
343
50
173
     6
 95
        6
174
     1
175
     2
 92
-1056964608
292
     0
 93
-1056964608
 10
1.0
 20
1.0
 30
1.0
 43
0.0
176
     0
293
     0
294
     0
178
     0
179
     3
 45
15.0
1001
ACAD_MLEADERVER
1070
     2
  0
MULTILEADER
  5
1035
330
67
100
AcDbEntity
  8
寸法
 92
     1064
310
280400001A0000000C00000016000000000000C00C00000033000000000000000C00000013000000993A0000BC00000026000000C70C4BF946EBA540A1DF80333C498D40000000000000000000000000000000000000000000000000000000000000F03F000000000000F03F00000000000000000000000000000000C60300
310
0001000000010000000000000000003E40000000000000F03F0000000000000000000000000000F03F0000000000000000000000000000000000000000000000000000000001000000320000002DFF33FF200030FFB430B730C330AF30000000000000000000000000BC00000026000000DF69BFCA8C42A640A1DF80333C49
310
8D40000000000000000000000000000000000000000000000000000000000000F03F000000000000F03F0000000000000000000000000000000034002D003200000003000000010000000000000000003E40000000000000F03F0000000000000000000000000000F03F000000000000000000000000000000000000000000
310
000000000000000100000000000000000000007400780074002E00730068007800000000001D2DBC00000026000000DF69BFCA8CF6A640A1DF80333C498D40000000000000000000000000000000000000000000000000000000000000F03F000000000000F03F000000000000000000000000000000002C67000001000000
310
010000000000000000003E40000000000000F03F0000000000000000000000000000F03F0000000000000000000000000000000000000000000000000000000001000000320000002DFF33FF200030FFB430B730C330AF300000000000000000000000000C00000033000000000000000C00000010000000050000000C0000
310
0016000000000000C00C00000012000000FF7F00000C00000013000000010000000C00000014000000010000005400000007000000030000008DC5D4AADC00A840C6CE426C821C904000000000000000007264721ACE23A840861B98911680904000000000000000004949DD10E612A8406C3B87EE390B9040000000000000
310
00000C00000013000000891300003C00000006000000020000006B07D95DE109A8401905652DDE13904000000000000000003CDE9010E4B0A740D09969D6C7408D4000000000000000000C00000013000000112700003C00000006000000020000003CDE9010E4B0A740D09969D6C7408D4000000000000000006F11C44317
310
A6A740D09969D6C7408D4000000000000000000C00000016000000000000C00C00000012000000FF7F00000C00000017000000000000000C000000130000009A3A00003C0000000600000002000000B0AFD62701FDA540D09969D6C7408D4000000000000000006F11C44317A6A740D09969D6C7408D400000000000000000
310
0C00000016000000000000C00C00000012000000FF7F00000C00000017000000FFFFFFFF0C0000003300000000000000
100
AcDbMLeader
300
CONTEXT_DATA{
 40
15.0
 10
2768.152257069536
 20
936.0975769281449
 30
0.0
 41
30.0
140
30.0
145
46.34999999999999
174
     6
175
     6
176
     2
177
     0
290
     1
304
{\fMS PGothic|b0|i0|c128|p50;φ}4-2{\fMS PGothic|b0|i0|c128|p50;本}
 11
0.0
 21
0.0
 31
1.0
340
50
 12
2980.695438887718
 22
972.097576928145
 32
0.0
 13
1.0
 23
0.0
 33
0.0
 42
0.0
 43
0.0
 44
0.0
 45
1.0
170
     1
 90
-1073741824
171
     3
172
     5
 91
-1073741824
141
0.0
 92
        0
291
     0
292
     0
173
     0
293
     0
142
0.0
143
0.0
294
     0
295
     0
296
     0
110
3089.902545523416
120
1056.022039772682
130
0.0
111
1.0
121
0.0
131
0.0
112
0.0
122
1.0
132
0.0
297
     0
302
LEADER{
290
     1
291
     1
 10
3032.445438887719
 20
936.0975769281449
 30
0.0
 11
-1.0
 21
0.0
 31
0.0
 90
        0
 40
5.399999999999999
304
LEADER_LINE{
 10
3089.902545523416
 20
1056.022039772682
 30
0.0
 91
        0
305
}
303
}
301
}
340
62
 90
   279552
170
     1
 91
-1056964608
341
56
171
    -2
290
     1
291
     1
 41
0.36
 42
2.0
172
     2
343
50
173
     6
 95
        6
174
     1
175
     2
 92
-1056964608
292
     0
 93
-1056964608
 10
1.0
 20
1.0
 30
1.0
 43
0.0
176
     0
293
     0
294
     0
178
     0
179
     3
 45
15.0
1001
ACAD_MLEADERVER
1070
     2
  0
MULTILEADER
  5
1036
330
67
100
AcDbEntity
  8
寸法
 92
     1064
310
280400001A0000000C00000016000000000000C00C00000033000000000000000C00000013000000993A0000BC00000026000000FF49939BD9D7864074D145171D3DA040000000000000000000000000000000000000000000000000000000000000F03F000000000000F03F00000000000000000000000000000000C60300
310
0001000000010000000000000000003E40000000000000F03F0000000000000000000000000000F03F0000000000000000000000000000000000000000000000000000000001000000320000002DFF33FF200030FFB430B730C330AF30000000000000000000000000BC000000260000005CBE64E1F034884074D145171D3D
310
A040000000000000000000000000000000000000000000000000000000000000F03F000000000000F03F0000000000000000000000000000000034002D003400000003000000010000000000000000003E40000000000000F03F0000000000000000000000000000F03F000000000000000000000000000000000000000000
310
000000000000000100000000000000000000007400780074002E00730068007800000000001D2DBC000000260000005CBE64E1F0048B4074D145171D3DA040000000000000000000000000000000000000000000000000000000000000F03F000000000000F03F000000000000000000000000000000002C67000001000000
310
010000000000000000003E40000000000000F03F0000000000000000000000000000F03F0000000000000000000000000000000000000000000000000000000001000000320000002DFF33FF200030FFB430B730C330AF300000000000000000000000000C00000033000000000000000C00000010000000050000000C0000
310
0016000000000000C00C00000012000000FF7F00000C00000013000000010000000C000000140000000100000054000000070000000300000000000000005E8F40000000000045A0400000000000000000000000000027904000000000003BA040000000000000000000000000005E8F40000000000031A040000000000000
310
00000C00000013000000891300003C000000060000000200000000000000005E8F4000000000003BA0400000000000000000CF8FAAF84DEE8D4000000000003BA04000000000000000000C00000013000000112700003C0000000600000002000000CF8FAAF84DEE8D4000000000003BA04000000000000000009C5C77C51A
310
C38D4000000000003BA04000000000000000000C00000016000000000000C00C00000012000000FF7F00000C00000017000000000000000C000000130000009A3A00003C0000000600000002000000A1D5C155C21E874000000000003BA04000000000000000009C5C77C51AC38D4000000000003BA0400000000000000000
310
0C00000016000000000000C00C00000012000000FF7F00000C00000017000000FFFFFFFF0C0000003300000000000000
100
AcDbMLeader
300
CONTEXT_DATA{
 40
15.0
 10
693.4948901313132
 20
2077.5
 30
0.0
 41
30.0
140
30.0
145
46.34999999999999
174
     6
175
     6
176
     2
177
     0
290
     1
304
{\fMS PGothic|b0|i0|c128|p50;φ}4-4{\fMS PGothic|b0|i0|c128|p50;本}
 11
0.0
 21
0.0
 31
1.0
340
50
 12
906.0380719494951
 22
2113.5
 32
0.0
 13
1.0
 23
0.0
 33
0.0
 42
0.0
 43
0.0
 44
0.0
 45
1.0
170
     1
 90
-1073741824
171
     3
172
     5
 91
-1073741824
141
0.0
 92
        0
291
     0
292
     0
173
     0
293
     0
142
0.0
143
0.0
294
     0
295
     0
296
     0
110
1033.75
120
2077.5
130
0.0
111
1.0
121
0.0
131
0.0
112
0.0
122
1.0
132
0.0
297
     0
302
LEADER{
290
     1
291
     1
 10
957.7880719494951
 20
2077.5
 30
0.0
 11
-1.0
 21
0.0
 31
0.0
 90
        0
 40
5.399999999999999
304
LEADER_LINE{
 10
1033.75
 20
2077.5
 30
0.0
 91
        0
305
}
303
}
301
}
340
62
 90
   279552
170
     1
 91
-1056964608
341
56
171
    -2
290
     1
291
     1
 41
0.36
 42
2.0
172
     2
343
50
173
     6
 95
        6
174
     1
175
     2
 92
-1056964608
292
     0
 93
-1056964608
 10
1.0
 20
1.0
 30
1.0
 43
0.0
176
     0
293
     0
294
     0
178
     0
179
     3
 45
15.0
1001
ACAD_MLEADERVER
1070
     2
  0
MULTILEADER
  5
103A
102
{ACAD_XDICTIONARY
360
103B
102
}
102
{ACAD_REACTORS
330
103C
102
}
330
67
100
AcDbEntity
  8
寸法
 92
     1064
310
280400001A0000000C00000016000000000000C00C00000033000000000000000C00000013000000993A0000BC000000260000002FBAE8A28B3E934035BB1FA14B3C9E40000000000000000000000000000000000000000000000000000000000000F03F000000000000F03F00000000000000000000000000000000C60300
310
0001000000010000000000000000003E40000000000000F03F0000000000000000000000000000F03F0000000000000000000000000000000000000000000000000000000001000000320000002DFF33FF200030FFB430B730C330AF30000000000000000000000000BC000000260000005D74D14517ED934035BB1FA14B3C
310
9E40000000000000000000000000000000000000000000000000000000000000F03F000000000000F03F0000000000000000000000000000000034002D003400000003000000010000000000000000003E40000000000000F03F0000000000000000000000000000F03F000000000000000000000000000000000000000000
310
000000000000000100000000000000000000007400780074002E00730068007800000000001D2DBC000000260000005D74D1451755954035BB1FA14B3C9E40000000000000000000000000000000000000000000000000000000000000F03F000000000000F03F000000000000000000000000000000002C67000001000000
310
010000000000000000003E40000000000000F03F0000000000000000000000000000F03F0000000000000000000000000000000000000000000000000000000001000000320000002DFF33FF200030FFB430B730C330AF300000000000000000000000000C00000033000000000000000C00000010000000050000000C0000
310
0016000000000000C00C00000012000000FF7F00000C00000013000000010000000C000000140000000100000054000000070000000300000000000000007F924000000000004A9F40000000000000000000000000009392400000000000C29F4000000000000000000000000000A7924000000000004A9F40000000000000
310
00000C00000013000000891300003C0000000600000002000000000000000093924000000000004A9F40000000000000000000000000009392404C18947211389E4000000000000000000C00000013000000112700003C000000060000000200000000000000009392404C18947211389E4000000000000000009A99999999
310
A892404C18947211389E4000000000000000000C00000016000000000000C00C00000012000000FF7F00000C00000017000000000000000C000000130000009A3A00003C00000006000000020000009A99999999A892404C18947211389E400000000000000000185D74D1C5FA95404C18947211389E400000000000000000
310
0C00000016000000000000C00C00000012000000FF7F00000C00000017000000FFFFFFFF0C0000003300000000000000
100
AcDbMLeader
300
CONTEXT_DATA{
 40
15.0
 10
1194.15
 20
1934.017038644774
 30
0.0
 41
30.0
140
30.0
145
46.34999999999999
174
     6
175
     6
176
     0
177
     0
290
     1
304
{\fMS PGothic|b0|i0|c128|p50;φ}4-4{\fMS PGothic|b0|i0|c128|p50;本}
 11
0.0
 21
0.0
 31
1.0
340
50
 12
1240.5
 22
1970.017038644774
 32
0.0
 13
1.0
 23
0.0
 33
0.0
 42
0.0
 43
0.0
 44
0.0
 45
1.0
170
     1
 90
-1073741824
171
     1
172
     5
 91
-1073741824
141
0.0
 92
        0
291
     0
292
     0
173
     0
293
     0
142
0.0
143
0.0
294
     0
295
     0
296
     0
110
1188.75
120
2032.5
130
0.0
111
1.0
121
0.0
131
0.0
112
0.0
122
1.0
132
0.0
297
     0
302
LEADER{
290
     1
291
     1
 10
1188.75
 20
1934.017038644774
 30
0.0
 11
1.0
 21
0.0
 31
0.0
 90
        0
 40
5.399999999999999
304
LEADER_LINE{
 10
1188.75
 20
2032.5
 30
0.0
 91
        0
305
}
303
}
301
}
340
62
 90
   279552
170
     1
 91
-1056964608
341
56
171
    -2
290
     1
291
     1
 41
0.36
 42
2.0
172
     2
343
50
173
     6
 95
        6
174
     1
175
     0
 92
-1056964608
292
     0
 93
-1056964608
 10
1.0
 20
1.0
 30
1.0
 43
0.0
176
     0
293
     0
294
     0
178
     0
179
     1
 45
15.0
1001
ACAD_MLEADERVER
1070
     2
  0
MULTILEADER
  5
103D
330
67
100
AcDbEntity
  8
寸法
 92
     1064
310
280400001A0000000C00000016000000000000C00C00000033000000000000000C00000013000000993A0000BC00000026000000FF49939BD9D78640B9808C582E6B8440000000000000000000000000000000000000000000000000000000000000F03F000000000000F03F00000000000000000000000000000000C60300
310
0001000000010000000000000000003E40000000000000F03F0000000000000000000000000000F03F0000000000000000000000000000000000000000000000000000000001000000320000002DFF33FF200030FFB430B730C330AF30000000000000000000000000BC000000260000005CBE64E1F0348840B9808C582E6B
310
8440000000000000000000000000000000000000000000000000000000000000F03F000000000000F03F0000000000000000000000000000000034002D003400000003000000010000000000000000003E40000000000000F03F0000000000000000000000000000F03F000000000000000000000000000000000000000000
310
000000000000000100000000000000000000007400780074002E00730068007800000000001D2DBC000000260000005CBE64E1F0048B40B9808C582E6B8440000000000000000000000000000000000000000000000000000000000000F03F000000000000F03F000000000000000000000000000000002C67000001000000
310
010000000000000000003E40000000000000F03F0000000000000000000000000000F03F0000000000000000000000000000000000000000000000000000000001000000320000002DFF33FF200030FFB430B730C330AF300000000000000000000000000C00000033000000000000000C00000010000000050000000C0000
310
0016000000000000C00C00000012000000FF7F00000C00000013000000010000000C000000140000000100000054000000070000000300000000000000005E8F40E83A75FBB98A844000000000000000000000000000279040E83A75FBB9628440000000000000000000000000005E8F40E83A75FBB93A8440000000000000
310
00000C00000013000000891300003C000000060000000200000000000000005E8F40E83A75FBB96284400000000000000000CF8FAAF84DEE8D40E83A75FBB962844000000000000000000C00000013000000112700003C0000000600000002000000CF8FAAF84DEE8D40E83A75FBB962844000000000000000009C5C77C51A
310
C38D40E83A75FBB962844000000000000000000C00000016000000000000C00C00000012000000FF7F00000C00000017000000000000000C000000130000009A3A00003C0000000600000002000000A1D5C155C21E8740E83A75FBB962844000000000000000009C5C77C51AC38D40E83A75FBB96284400000000000000000
310
0C00000016000000000000C00C00000012000000FF7F00000C00000017000000FFFFFFFF0C0000003300000000000000
100
AcDbMLeader
300
CONTEXT_DATA{
 40
15.0
 10
693.4948901313132
 20
652.3408116491891
 30
0.0
 41
30.0
140
30.0
145
46.34999999999999
174
     6
175
     6
176
     2
177
     0
290
     1
304
{\fMS PGothic|b0|i0|c128|p50;φ}4-4{\fMS PGothic|b0|i0|c128|p50;本}
 11
0.0
 21
0.0
 31
1.0
340
50
 12
906.0380719494951
 22
688.3408116491891
 32
0.0
 13
1.0
 23
0.0
 33
0.0
 42
0.0
 43
0.0
 44
0.0
 45
1.0
170
     1
 90
-1073741824
171
     3
172
     5
 91
-1073741824
141
0.0
 92
        0
291
     0
292
     0
173
     0
293
     0
142
0.0
143
0.0
294
     0
295
     0
296
     0
110
1033.75
120
652.3408116491891
130
0.0
111
1.0
121
0.0
131
0.0
112
0.0
122
1.0
132
0.0
297
     0
302
LEADER{
290
     1
291
     1
 10
957.7880719494951
 20
652.3408116491891
 30
0.0
 11
-1.0
 21
0.0
 31
0.0
 90
        0
 40
5.399999999999999
304
LEADER_LINE{
 10
1033.75
 20
652.3408116491891
 30
0.0
 91
        0
305
}
303
}
301
}
340
62
 90
   279552
170
     1
 91
-1056964608
341
56
171
    -2
290
     1
291
     1
 41
0.36
 42
2.0
172
     2
343
50
173
     6
 95
        6
174
     1
175
     2
 92
-1056964608
292
     0
 93
-1056964608
 10
1.0
 20
1.0
 30
1.0
 43
0.0
176
     0
293
     0
294
     0
178
     0
179
     3
 45
15.0
1001
ACAD_MLEADERVER
1070
     2
  0
MULTILEADER
  5
103E
330
67
100
AcDbEntity
  8
寸法
 92
     1064
310
280400001A0000000C00000016000000000000C00C00000033000000000000000C00000013000000993A0000BC000000260000002FBAE8A28B3E9340A362697BA2DE7F40000000000000000000000000000000000000000000000000000000000000F03F000000000000F03F00000000000000000000000000000000C60300
310
0001000000010000000000000000003E40000000000000F03F0000000000000000000000000000F03F0000000000000000000000000000000000000000000000000000000001000000320000002DFF33FF200030FFB430B730C330AF30000000000000000000000000BC000000260000005D74D14517ED9340A362697BA2DE
310
7F40000000000000000000000000000000000000000000000000000000000000F03F000000000000F03F0000000000000000000000000000000034002D003400000003000000010000000000000000003E40000000000000F03F0000000000000000000000000000F03F000000000000000000000000000000000000000000
310
000000000000000100000000000000000000007400780074002E00730068007800000000001D2DBC000000260000005D74D14517559540A362697BA2DE7F40000000000000000000000000000000000000000000000000000000000000F03F000000000000F03F000000000000000000000000000000002C67000001000000
310
010000000000000000003E40000000000000F03F0000000000000000000000000000F03F0000000000000000000000000000000000000000000000000000000001000000320000002DFF33FF200030FFB430B730C330AF300000000000000000000000000C00000033000000000000000C00000010000000050000000C0000
310
0016000000000000C00C00000012000000FF7F00000C00000013000000010000000C000000140000000100000054000000070000000300000000000000007F9240E83A75FBB90A824000000000000000000000000000939240E83A75FBB9FA824000000000000000000000000000A79240E83A75FBB90A8240000000000000
310
00000C00000013000000891300003C00000006000000020000000000000000939240E83A75FBB90A82400000000000000000000000000093924000D73AC1B9CD7F4000000000000000000C00000013000000112700003C0000000600000002000000000000000093924000D73AC1B9CD7F4000000000000000009A99999999
310
A8924000D73AC1B9CD7F4000000000000000000C00000016000000000000C00C00000012000000FF7F00000C00000017000000000000000C000000130000009A3A00003C00000006000000020000009A99999999A8924000D73AC1B9CD7F400000000000000000185D74D1C5FA954000D73AC1B9CD7F400000000000000000
310
0C00000016000000000000C00C00000012000000FF7F00000C00000017000000FFFFFFFF0C0000003300000000000000
100
AcDbMLeader
300
CONTEXT_DATA{
 40
15.0
 10
1194.15
 20
508.8578502939635
 30
0.0
 41
30.0
140
30.0
145
46.34999999999999
174
     6
175
     6
176
     0
177
     0
290
     1
304
{\fMS PGothic|b0|i0|c128|p50;φ}4-4{\fMS PGothic|b0|i0|c128|p50;本}
 11
0.0
 21
0.0
 31
1.0
340
50
 12
1240.5
 22
544.8578502939636
 32
0.0
 13
1.0
 23
0.0
 33
0.0
 42
0.0
 43
0.0
 44
0.0
 45
1.0
170
     1
 90
-1073741824
171
     1
172
     5
 91
-1073741824
141
0.0
 92
        0
291
     0
292
     0
173
     0
293
     0
142
0.0
143
0.0
294
     0
295
     0
296
     0
110
1188.75
120
607.3408116491891
130
0.0
111
1.0
121
0.0
131
0.0
112
0.0
122
1.0
132
0.0
297
     0
302
LEADER{
290
     1
291
     1
 10
1188.75
 20
508.8578502939635
 30
0.0
 11
1.0
 21
0.0
 31
0.0
 90
        0
 40
5.399999999999999
304
LEADER_LINE{
 10
1188.75
 20
607.3408116491891
 30
0.0
 91
        0
305
}
303
}
301
}
340
62
 90
   279552
170
     1
 91
-1056964608
341
56
171
    -2
290
     1
291
     1
 41
0.36
 42
2.0
172
     2
343
50
173
     6
 95
        6
174
     1
175
     0
 92
-1056964608
292
     0
 93
-1056964608
 10
1.0
 20
1.0
 30
1.0
 43
0.0
176
     0
293
     0
294
     0
178
     0
179
     1
 45
15.0
1001
ACAD_MLEADERVER
1070
     2
  0
LINE
  5
105C
330
67
100
AcDbEntity
  8
鉄筋
100
AcDbLine
 10
1228.75
 20
932.5000000000001
 30
0.0
 11
1228.75
 21
592.4999999999999
 31
0.0
  0
LINE
  5
105D
330
67
100
AcDbEntity
  8
鉄筋
100
AcDbLine
 10
1148.75
 20
592.4999999999999
 30
0.0
 11
1148.75
 21
932.5000000000001
 31
0.0
  0
LINE
  5
105E
330
67
100
AcDbEntity
  8
鉄筋
100
AcDbLine
 10
1018.75
 20
847.4999999999999
 30
0.0
 11
1358.75
 21
847.4999999999999
 31
0.0
  0
LINE
  5
105F
330
67
100
AcDbEntity
  8
鉄筋
100
AcDbLine
 10
1358.75
 20
677.5
 30
0.0
 11
1018.75
 21
677.5
 31
0.0
  0
LINE
  5
1096
330
67
100
AcDbEntity
  8
鉄筋
100
AcDbLine
 10
1018.75
 20
2342.659188350811
 30
0.0
 11
1358.75
 21
2342.659188350811
 31
0.0
  0
LINE
  5
1097
330
67
100
AcDbEntity
  8
鉄筋
100
AcDbLine
 10
1018.75
 20
2272.659188350811
 30
0.0
 11
1358.75
 21
2272.659188350811
 31
0.0
  0
LINE
  5
1098
330
67
100
AcDbEntity
  8
鉄筋
100
AcDbLine
 10
1343.75
 20
2357.659188350811
 30
0.0
 11
1343.75
 21
2017.659188350811
 31
0.0
  0
LINE
  5
1099
330
67
100
AcDbEntity
  8
鉄筋
100
AcDbLine
 10
1228.75
 20
2357.659188350811
 30
0.0
 11
1228.75
 21
2017.659188350811
 31
0.0
  0
LINE
  5
109A
330
67
100
AcDbEntity
  8
鉄筋
100
AcDbLine
 10
1358.75
 20
2032.659188350811
 30
0.0
 11
1018.75
 21
2032.659188350811
 31
0.0
  0
LINE
  5
109B
330
67
100
AcDbEntity
  8
鉄筋
100
AcDbLine
 10
1358.75
 20
2102.659188350811
 30
0.0
 11
1018.75
 21
2102.659188350811
 31
0.0
  0
LINE
  5
109C
330
67
100
AcDbEntity
  8
鉄筋
100
AcDbLine
 10
1033.75
 20
2017.659188350811
 30
0.0
 11
1033.75
 21
2357.659188350811
 31
0.0
  0
LINE
  5
109D
330
67
100
AcDbEntity
  8
鉄筋
100
AcDbLine
 10
1148.75
 20
2017.659188350811
 30
0.0
 11
1148.75
 21
2357.659188350811
 31
0.0
  0
MULTILEADER
  5
10F2
102
{ACAD_XDICTIONARY
360
10F6
102
}
102
{ACAD_REACTORS
330
10F7
102
}
330
67
100
AcDbEntity
  8
寸法
 92
      500
310
F4010000170000000C00000016000000000000C00C00000033000000000000000C00000013000000993A00000C00000033000000000000000C00000010000000050000000C00000016000000000000C00C00000012000000FF7F00000C00000013000000010000000C00000014000000010000005400000007000000030000
310
005E9157BF9EEDAA40CECC89F5917796400000000000000000FFFFFFFF7FDEAA4060E6113368ED96400000000000000000A88D3157E9FFAA407B2C6252BF87964000000000000000000C00000013000000891300003C0000000600000002000000838F440BC4F6AA40A5FCF5A3A87F96400000000000000000CC101CC96057
310
AB406003867CB4CA944000000000000000000C00000013000000112700003C0000000600000002000000CC101CC96057AB406003867CB4CA9440000000000000000099DDE8952D62AB406003867CB4CA944000000000000000000C00000016000000000000C00C00000012000000FF7F00000C00000017000000000000000C
310
000000130000009A3A00003C000000060000000200000099DDE8952D62AB406003867CB4CA94400000000000000000CC101CC9E0BEAB406003867CB4CA944000000000000000000C00000016000000000000C00C00000012000000FF7F00000C00000017000000FFFFFFFF0C0000003300000000000000
100
AcDbMLeader
300
CONTEXT_DATA{
 40
15.0
 10
3505.089034344722
 20
1330.676256269413
 30
0.0
 41
30.0
140
30.0
145
46.34999999999999
174
     6
175
     6
176
     0
177
     0
290
     1
304

 11
0.0
 21
0.0
 31
1.0
340
50
 12
3551.439034344721
 22
1360.676256269413
 32
0.0
 13
1.0
 23
0.0
 33
0.0
 42
0.0
 43
0.0
 44
0.0
 45
1.0
170
     1
 90
-1073741824
171
     1
172
     5
 91
-1073741824
141
0.0
 92
        0
291
     0
292
     0
173
     0
293
     0
142
0.0
143
0.0
294
     0
295
     0
296
     0
110
3439.25
120
1467.35175731629
130
0.0
111
1.0
121
0.0
131
0.0
112
0.0
122
1.0
132
0.0
297
     0
302
LEADER{
290
     1
291
     1
 10
3499.689034344721
 20
1330.676256269413
 30
0.0
 11
1.0
 21
0.0
 31
0.0
 90
        0
 40
5.399999999999999
304
LEADER_LINE{
 10
3439.25
 20
1467.35175731629
 30
0.0
 91
        0
305
}
303
}
301
}
340
62
 90
   279552
170
     1
 91
-1056964608
341
56
171
    -2
290
     1
291
     1
 41
0.36
 42
2.0
172
     2
343
50
173
     6
 95
        6
174
     1
175
     0
 92
-1056964608
292
     0
 93
-1056964608
 10
1.0
 20
1.0
 30
1.0
 43
0.0
176
     0
293
     0
294
     0
178
     0
179
     1
 45
15.0
1001
ACAD_MLEADERVER
1070
     2
  0
MULTILEADER
  5
1108
330
67
100
AcDbEntity
  8
寸法
 92
     1064
310
280400001A0000000C00000016000000000000C00C00000033000000000000000C00000013000000993A0000BC00000026000000EF8B1FF6ABBDAB40010E3316383B8B40000000000000000000000000000000000000000000000000000000000000F03F000000000000F03F00000000000000000000000000000000C60300
310
0001000000010000000000000000003E40000000000000F03F0000000000000000000000000000F03F0000000000000000000000000000000000000000000000000000000001000000320000002DFF33FF200030FFB430B730C330AF30000000000000000000000000BC0000002600000007E993C7F114AC40010E3316383B
310
8B40000000000000000000000000000000000000000000000000000000000000F03F000000000000F03F0000000000000000000000000000000034002D003800000003000000010000000000000000003E40000000000000F03F0000000000000000000000000000F03F000000000000000000000000000000000000000000
310
000000000000000100000000000000000000007400780074002E00730068007800000000001D2DBC0000002600000007E993C7F1C8AC40010E3316383B8B40000000000000000000000000000000000000000000000000000000000000F03F000000000000F03F000000000000000000000000000000002C67000001000000
310
010000000000000000003E40000000000000F03F0000000000000000000000000000F03F0000000000000000000000000000000000000000000000000000000001000000320000002DFF33FF200030FFB430B730C330AF300000000000000000000000000C00000033000000000000000C00000010000000050000000C0000
310
0016000000000000C00C00000012000000FF7F00000C00000013000000010000000C00000014000000010000005400000007000000030000007BF027A5EA60A840DB83DE0848DD8E400000000000000000F72DFBB6B92AA84082FB7C60CB4B8F400000000000000000580B4EA6F266A84074EE889C8E298F40000000000000
310
00000C00000013000000891300003C0000000600000002000000EAFDBAA5EE63A84028B9B3526B038F400000000000000000D82EAB24E667AB4030C81BB9C3328B4000000000000000000C00000013000000112700003C0000000600000002000000D82EAB24E667AB4030C81BB9C3328B400000000000000000A5FB77F1B2
310
72AB4030C81BB9C3328B4000000000000000000C00000016000000000000C00C00000012000000FF7F00000C00000017000000000000000C000000130000009A3A00003C0000000600000002000000A5FB77F1B272AB4030C81BB9C3328B400000000000000000645D650DC91BAD4030C81BB9C3328B400000000000000000
310
0C00000016000000000000C00C00000012000000FF7F00000C00000017000000FFFFFFFF0C0000003300000000000000
100
AcDbMLeader
300
CONTEXT_DATA{
 40
15.0
 10
3513.349498509854
 20
870.345567910239
 30
0.0
 41
30.0
140
30.0
145
46.34999999999999
174
     6
175
     6
176
     0
177
     0
290
     1
304
{\fMS PGothic|b0|i0|c128|p50;φ}4-8{\fMS PGothic|b0|i0|c128|p50;本}
 11
0.0
 21
0.0
 31
1.0
340
50
 12
3559.699498509854
 22
906.3455679102389
 32
0.0
 13
1.0
 23
0.0
 33
0.0
 42
0.0
 43
0.0
 44
0.0
 45
1.0
170
     1
 90
-1073741824
171
     1
172
     5
 91
-1073741824
141
0.0
 92
        0
291
     0
292
     0
173
     0
293
     0
142
0.0
143
0.0
294
     0
295
     0
296
     0
110
3093.362724160539
120
1001.47430513041
130
0.0
111
1.0
121
0.0
131
0.0
112
0.0
122
1.0
132
0.0
297
     0
302
LEADER{
290
     1
291
     1
 10
3507.949498509854
 20
870.345567910239
 30
0.0
 11
1.0
 21
0.0
 31
0.0
 90
        0
 40
5.399999999999999
304
LEADER_LINE{
 10
3093.362724160539
 20
1001.47430513041
 30
0.0
 91
        0
305
}
303
}
301
}
340
62
 90
   279552
170
     1
 91
-1056964608
341
56
171
    -2
290
     1
291
     1
 41
0.36
 42
2.0
172
     2
343
50
173
     6
 95
        6
174
     1
175
     0
 92
-1056964608
292
     0
 93
-1056964608
 10
1.0
 20
1.0
 30
1.0
 43
0.0
176
     0
293
     0
294
     0
178
     0
179
     1
 45
15.0
1001
ACAD_MLEADERVER
1070
     2
  0
MULTILEADER
  5
110B
330
67
100
AcDbEntity
  8
寸法
 92
      500
310
F4010000170000000C00000016000000000000C00C00000033000000000000000C00000013000000993A00000C00000033000000000000000C00000010000000050000000C00000016000000000000C00C00000012000000FF7F00000C00000013000000010000000C00000014000000010000005400000007000000030000
310
00685E2E939AEFAA4088BE269681BA8E4000000000000000000000000080DEAA400000000000A48F40000000000000000050CD21789C01AB40AEDB06F350DD8E4000000000000000000C00000013000000891300003C0000000600000002000000DC15A8859BF8AA401BCD9644E9CB8E400000000000000000D82EAB24E667
310
AB4030C81BB9C3328B4000000000000000000C00000013000000112700003C0000000600000002000000D82EAB24E667AB4030C81BB9C3328B400000000000000000A5FB77F1B272AB4030C81BB9C3328B4000000000000000000C00000016000000000000C00C00000012000000FF7F00000C00000017000000000000000C
310
000000130000009A3A00003C0000000600000002000000A5FB77F1B272AB4030C81BB9C3328B400000000000000000D82EAB2466CFAB4030C81BB9C3328B4000000000000000000C00000016000000000000C00C00000012000000FF7F00000C00000017000000FFFFFFFF0C0000003300000000000000
100
AcDbMLeader
300
CONTEXT_DATA{
 40
15.0
 10
3513.349498509854
 20
870.345567910239
 30
0.0
 41
30.0
140
30.0
145
46.34999999999999
174
     6
175
     6
176
     0
177
     0
290
     1
304

 11
0.0
 21
0.0
 31
1.0
340
50
 12
3559.699498509854
 22
900.3455679102389
 32
0.0
 13
1.0
 23
0.0
 33
0.0
 42
0.0
 43
0.0
 44
0.0
 45
1.0
170
     1
 90
-1073741824
171
     1
172
     5
 91
-1073741824
141
0.0
 92
        0
291
     0
292
     0
173
     0
293
     0
142
0.0
143
0.0
294
     0
295
     0
296
     0
110
3439.362724160538
120
987.2405005490138
130
0.0
111
1.0
121
0.0
131
0.0
112
0.0
122
1.0
132
0.0
297
     0
302
LEADER{
290
     1
291
     1
 10
3507.949498509854
 20
870.345567910239
 30
0.0
 11
1.0
 21
0.0
 31
0.0
 90
        0
 40
5.399999999999999
304
LEADER_LINE{
 10
3439.25
 20
1012.5
 30
0.0
 91
        0
305
}
303
}
301
}
340
62
 90
   279552
170
     1
 91
-1056964608
341
56
171
    -2
290
     1
291
     1
 41
0.36
 42
2.0
172
     2
343
50
173
     6
 95
        6
174
     1
175
     0
 92
-1056964608
292
     0
 93
-1056964608
 10
1.0
 20
1.0
 30
1.0
 43
0.0
176
     0
293
     0
294
     0
178
     0
179
     1
 45
15.0
1001
ACAD_MLEADERVER
1070
     2
  0
MULTILEADER
  5
110E
102
{ACAD_XDICTIONARY
360
1112
102
}
102
{ACAD_REACTORS
330
1113
102
}
330
67
100
AcDbEntity
  8
寸法
 92
      500
310
F4010000170000000C00000016000000000000C00C00000033000000000000000C00000013000000993A00000C00000033000000000000000C00000010000000050000000C00000016000000000000C00C00000012000000FF7F00000C00000013000000010000000C00000014000000010000005400000007000000030000
310
00A44B8DC826E9A74091AD408AE4EA8D400000000000000000010000008022A84000000000003C8E400000000000000000CE1DEFE2D3F2A740879E93FCE0A48D4000000000000000000C00000013000000891300003C0000000600000002000000B934BE55FDEDA7400C266AC3E2C78D4000000000000000003CDE9010E4B0
310
A740D09969D6C7408D4000000000000000000C00000013000000112700003C00000006000000020000003CDE9010E4B0A740D09969D6C7408D4000000000000000006F11C44317A6A740D09969D6C7408D4000000000000000000C00000016000000000000C00C00000012000000FF7F00000C00000017000000000000000C
310
000000130000009A3A00003C00000006000000020000003CDE90106449A740D09969D6C7408D4000000000000000006F11C44317A6A740D09969D6C7408D4000000000000000000C00000016000000000000C00C00000012000000FF7F00000C00000017000000FFFFFFFF0C0000003300000000000000
100
AcDbMLeader
300
CONTEXT_DATA{
 40
15.0
 10
2934.345438887719
 20
936.0975769281449
 30
0.0
 41
30.0
140
30.0
145
46.34999999999999
174
     6
175
     6
176
     2
177
     0
290
     1
304

 11
0.0
 21
0.0
 31
1.0
340
50
 12
2980.695438887718
 22
966.0975769281449
 32
0.0
 13
1.0
 23
0.0
 33
0.0
 42
0.0
 43
0.0
 44
0.0
 45
1.0
170
     1
 90
-1073741824
171
     3
172
     5
 91
-1073741824
141
0.0
 92
        0
291
     0
292
     0
173
     0
293
     0
142
0.0
143
0.0
294
     0
295
     0
296
     0
110
3089.250000000001
120
967.5
130
0.0
111
1.0
121
0.0
131
0.0
112
0.0
122
1.0
132
0.0
297
     0
302
LEADER{
290
     1
291
     1
 10
3032.445438887719
 20
936.0975769281449
 30
0.0
 11
-1.0
 21
0.0
 31
0.0
 90
        0
 40
5.399999999999999
304
LEADER_LINE{
 10
3089.250000000001
 20
967.5
 30
0.0
 91
        0
305
}
303
}
301
}
340
62
 90
   279552
170
     1
 91
-1056964608
341
56
171
    -2
290
     1
291
     1
 41
0.36
 42
2.0
172
     2
343
50
173
     6
 95
        6
174
     1
175
     2
 92
-1056964608
292
     0
 93
-1056964608
 10
1.0
 20
1.0
 30
1.0
 43
0.0
176
     0
293
     0
294
     0
178
     0
179
     3
 45
15.0
1001
ACAD_MLEADERVER
1070
     2
  0
MULTILEADER
  5
1114
330
67
100
AcDbEntity
  8
寸法
 92
      500
310
F4010000170000000C00000016000000000000C00C00000033000000000000000C00000013000000993A00000C00000033000000000000000C00000010000000050000000C00000016000000000000C00C00000012000000FF7F00000C00000013000000010000000C00000014000000010000005400000007000000030000
310
00971766563309A8401580BDB92374994000000000000000005CFE1572EF22A840183AC4DE5EE299400000000000000000B0C56987771CA840EFCA9EB76769994000000000000000000C00000013000000891300003C0000000600000002000000A3EEE76ED512A8408225AEB8C56E9940000000000000000097E932C04B8C
310
A740A0E00BADE2A8954000000000000000000C00000013000000112700003C000000060000000200000097E932C04B8CA740A0E00BADE2A895400000000000000000CA1C66F37E81A740A0E00BADE2A8954000000000000000000C00000016000000000000C00C00000012000000FF7F00000C00000017000000000000000C
310
000000130000009A3A00003C000000060000000200000097E932C0CB24A740A0E00BADE2A895400000000000000000CA1C66F37E81A740A0E00BADE2A8954000000000000000000C00000016000000000000C00C00000012000000FF7F00000C00000017000000FFFFFFFF0C0000003300000000000000
100
AcDbMLeader
300
CONTEXT_DATA{
 40
15.0
 10
2916.04795073606
 20
1386.221363244614
 30
0.0
 41
30.0
140
30.0
145
46.34999999999999
174
     6
175
     6
176
     2
177
     0
290
     1
304

 11
0.0
 21
0.0
 31
1.0
340
50
 12
2962.39795073606
 22
1416.221363244615
 32
0.0
 13
1.0
 23
0.0
 33
0.0
 42
0.0
 43
0.0
 44
0.0
 45
1.0
170
     1
 90
-1073741824
171
     3
172
     5
 91
-1073741824
141
0.0
 92
        0
291
     0
292
     0
173
     0
293
     0
142
0.0
143
0.0
294
     0
295
     0
296
     0
110
3089.467667281437
120
1656.592646661802
130
0.0
111
1.0
121
0.0
131
0.0
112
0.0
122
1.0
132
0.0
297
     0
302
LEADER{
290
     1
291
     1
 10
3014.14795073606
 20
1386.221363244614
 30
0.0
 11
-1.0
 21
0.0
 31
0.0
 90
        0
 40
5.399999999999999
304
LEADER_LINE{
 10
3089.467667281437
 20
1656.592646661802
 30
0.0
 91
        0
305
}
303
}
301
}
340
62
 90
   279552
170
     1
 91
-1056964608
341
56
171
    -2
290
     1
291
     1
 41
0.36
 42
2.0
172
     2
343
50
173
     6
 95
        6
174
     1
175
     2
 92
-1056964608
292
     0
 93
-1056964608
 10
1.0
 20
1.0
 30
1.0
 43
0.0
176
     0
293
     0
294
     0
178
     0
179
     3
 45
15.0
1001
ACAD_MLEADERVER
1070
     2
  0
CIRCLE
  5
1150
330
67
100
AcDbEntity
  8
製品
100
AcDbCircle
 10
1188.75
 20
762.5
 30
0.0
 40
75.0
  0
CIRCLE
  5
1151
330
67
100
AcDbEntity
  8
製品
100
AcDbCircle
 10
1188.75
 20
2187.5
 30
0.0
 40
75.0
  0
ENDSEC
  0
SECTION
  2
OBJECTS
  0
DICTIONARY
  5
C
330
0
100
AcDbDictionary
281
     1
  3
ACAD_CIP_PREVIOUS_PRODUCT_INFO
350
14E
  3
ACAD_COLOR
350
5E
  3
ACAD_GROUP
350
D
  3
ACAD_LAYOUT
350
5D
  3
ACAD_MATERIAL
350
10
  3
ACAD_MLEADERSTYLE
350
61
  3
ACAD_MLINESTYLE
350
5A
  3
ACAD_PLOTSETTINGS
350
5C
  3
ACAD_PLOTSTYLENAME
350
E
  3
ACAD_SCALELIST
350
3D
  3
ACAD_TABLESTYLE
350
5F
  3
ACAD_VISUALSTYLE
350
29
  3
ACDB_RECOMPOSE_DATA
350
116B
  3
AcDbVariableDictionary
350
8E
  0
DICTIONARY
  5
A1
330
2
100
AcDbDictionary
280
     1
281
     1
  3
ACAD_LAYERSTATES
360
A2
  0
DICTIONARY
  5
9C
330
67
100
AcDbDictionary
280
     1
281
     1
  3
ACAD_SORTENTS
360
9D
  0
DICTIONARY
  5
2DF
330
2D2
100
AcDbDictionary
280
     1
281
     1
  3
ACAD_DIMASSOC
360
2E9
  0
DICTIONARY
  5
2F7
330
2EA
100
AcDbDictionary
280
     1
281
     1
  3
ACAD_DIMASSOC
360
301
  0
DICTIONARY
  5
33F
330
330
100
AcDbDictionary
280
     1
281
     1
  3
ACAD_DIMASSOC
360
34B
  0
DICTIONARY
  5
359
330
34C
100
AcDbDictionary
280
     1
281
     1
  3
ACAD_DIMASSOC
360
363
  0
DICTIONARY
  5
406
330
3F9
100
AcDbDictionary
280
     1
281
     1
  3
ACAD_DIMASSOC
360
410
  0
DICTIONARY
  5
41E
330
411
100
AcDbDictionary
280
     1
281
     1
  3
ACAD_DIMASSOC
360
428
  0
DICTIONARY
  5
461
330
454
100
AcDbDictionary
280
     1
281
     1
  3
ACAD_DIMASSOC
360
46B
  0
DICTIONARY
  5
479
330
46C
100
AcDbDictionary
280
     1
281
     1
  3
ACAD_DIMASSOC
360
483
  0
DICTIONARY
  5
493
330
484
100
AcDbDictionary
280
     1
281
     1
  3
ACAD_DIMASSOC
360
49F
  0
DICTIONARY
  5
4AF
330
4A0
100
AcDbDictionary
280
     1
281
     1
  3
ACAD_DIMASSOC
360
4BB
  0
DICTIONARY
  5
669
330
65A
100
AcDbDictionary
280
     1
281
     1
  3
ACAD_DIMASSOC
360
675
  0
DICTIONARY
  5
685
330
676
100
AcDbDictionary
280
     1
281
     1
  3
ACAD_DIMASSOC
360
691
  0
DICTIONARY
  5
71E
330
70F
100
AcDbDictionary
280
     1
281
     1
  3
ACAD_DIMASSOC
360
72A
  0
DICTIONARY
  5
73A
330
72B
100
AcDbDictionary
280
     1
281
     1
  3
ACAD_DIMASSOC
360
746
  0
DICTIONARY
  5
79C
330
78D
100
AcDbDictionary
280
     1
281
     1
  3
ACAD_DIMASSOC
360
7A8
  0
DICTIONARY
  5
7B8
330
7A9
100
AcDbDictionary
280
     1
281
     1
  3
ACAD_DIMASSOC
360
7C4
  0
DICTIONARY
  5
97D
330
970
100
AcDbDictionary
280
     1
281
     1
  3
ACAD_DIMASSOC
360
987
  0
DICTIONARY
  5
FC7
330
FC6
100
AcDbDictionary
280
     1
281
     1
  3
ACAD_DIMASSOC
360
FC8
  0
DICTIONARY
  5
FCA
330
FC9
100
AcDbDictionary
280
     1
281
     1
  3
ACAD_DIMASSOC
360
FCB
  0
DICTIONARY
  5
FD3
330
FD2
100
AcDbDictionary
280
     1
281
     1
  3
ACAD_DIMASSOC
360
FD4
  0
DICTIONARY
  5
FD6
330
FD5
100
AcDbDictionary
280
     1
281
     1
  3
ACAD_DIMASSOC
360
FD7
  0
DICTIONARY
  5
FD9
330
FD8
100
AcDbDictionary
280
     1
281
     1
  3
ACAD_DIMASSOC
360
FDA
  0
DICTIONARY
  5
1014
330
1013
100
AcDbDictionary
280
     1
281
     1
  3
ACAD_DIMASSOC
360
1015
  0
DICTIONARY
  5
1020
330
101F
100
AcDbDictionary
280
     1
281
     1
  3
ACAD_DIMASSOC
360
1021
  0
DICTIONARY
  5
102D
330
102C
100
AcDbDictionary
280
     1
281
     1
  3
ACAD_DIMASSOC
360
102E
  0
DICTIONARY
  5
103B
330
103A
100
AcDbDictionary
280
     1
281
     1
  3
ACAD_DIMASSOC
360
103C
  0
DICTIONARY
  5
10F6
330
10F2
100
AcDbDictionary
280
     1
281
     1
  3
ACAD_DIMASSOC
360
10F7
  0
DICTIONARY
  5
1112
330
110E
100
AcDbDictionary
280
     1
281
     1
  3
ACAD_DIMASSOC
360
1113
  0
XRECORD
  5
14E
102
{ACAD_REACTORS
330
C
102
}
330
C
100
AcDbXrecord
280
     1
300
ACDLT
300
2012
300

  0
DICTIONARY
  5
5E
102
{ACAD_REACTORS
330
C
102
}
330
C
100
AcDbDictionary
281
     1
  0
DICTIONARY
  5
D
102
{ACAD_REACTORS
330
C
102
}
330
C
100
AcDbDictionary
281
     1
  0
DICTIONARY
  5
5D
102
{ACAD_REACTORS
330
C
102
}
330
C
100
AcDbDictionary
281
     1
  3
Model
350
6A
  3
レイアウト1
350
66
  3
レイアウト2
350
6E
  0
DICTIONARY
  5
10
102
{ACAD_REACTORS
330
C
102
}
330
C
100
AcDbDictionary
281
     1
  3
ByBlock
350
19
  3
ByLayer
350
11
  3
Global
350
21
  0
DICTIONARY
  5
61
102
{ACAD_REACTORS
330
C
102
}
330
C
100
AcDbDictionary
281
     1
  3
Standard
350
62
  0
DICTIONARY
  5
5A
102
{ACAD_REACTORS
330
C
102
}
330
C
100
AcDbDictionary
281
     1
  3
Standard
350
5B
  0
DICTIONARY
  5
5C
102
{ACAD_REACTORS
330
C
102
}
330
C
100
AcDbDictionary
281
     1
  0
ACDBDICTIONARYWDFLT
  5
E
102
{ACAD_REACTORS
330
C
102
}
330
C
100
AcDbDictionary
281
     1
  3
Normal
350
F
100
AcDbDictionaryWithDefault
340
F
  0
DICTIONARY
  5
3D
102
{ACAD_REACTORS
330
C
102
}
330
C
100
AcDbDictionary
281
     1
  3
A0
350
3E
  3
A1
350
3F
  3
A2
350
40
  3
A3
350
41
  3
A4
350
42
  3
A5
350
43
  3
A6
350
44
  3
A7
350
45
  3
A8
350
46
  3
A9
350
47
  3
B0
350
48
  3
B1
350
49
  3
B2
350
4A
  3
B3
350
4B
  3
B4
350
4C
  3
B5
350
4D
  3
B6
350
4E
  0
DICTIONARY
  5
5F
102
{ACAD_REACTORS
330
C
102
}
330
C
100
AcDbDictionary
281
     1
  3
Standard
350
60
  0
DICTIONARY
  5
29
102
{ACAD_REACTORS
330
C
102
}
330
C
100
AcDbDictionary
281
     1
  3
2dWireframe
350
2F
  3
3D Hidden
350
31
  3
3dWireframe
350
30
  3
Basic
350
2E
  3
Brighten
350
35
  3
ColorChange
350
39
  3
Conceptual
350
32
  3
Dim
350
34
  3
EdgeColorOff
350
3C
  3
Facepattern
350
38
  3
Flat
350
2A
  3
FlatWithEdges
350
2B
  3
Gouraud
350
2C
  3
GouraudWithEdges
350
2D
  3
Hidden
350
142
  3
JitterOff
350
3A
  3
Linepattern
350
37
  3
OverhangOff
350
3B
  3
Realistic
350
33
  3
Shaded
350
147
  3
Shaded with edges
350
146
  3
Shades of Gray
350
143
  3
Sketchy
350
144
  3
Thicken
350
36
  3
Wireframe
350
141
  3
X-Ray
350
145
  0
XRECORD
  5
116B
102
{ACAD_REACTORS
330
C
102
}
330
C
100
AcDbXrecord
280
     1
 90
        1
330
60
330
330
330
484
330
4A0
330
5B8
330
604
330
65A
330
676
330
6EA
330
70F
330
72B
330
78D
330
7A9
330
7FE
330
9F9
  0
DICTIONARY
  5
8E
102
{ACAD_REACTORS
330
C
102
}
330
C
100
AcDbDictionary
281
     1
  3
CANNOSCALE
350
91
  3
CMLEADERSTYLE
350
90
  3
CTABLESTYLE
350
8F
  3
MLEADERSCALE
350
831
  3
XCLIPFRAME
350
1169
  0
DICTIONARY
  5
A2
102
{ACAD_REACTORS
330
A1
102
}
330
A1
100
AcDbDictionary
281
     1
  0
SORTENTSTABLE
  5
9D
102
{ACAD_REACTORS
330
9C
102
}
330
9C
100
AcDbSortentsTable
330
67
331
C6
  5
C6
331
1CF
  5
25E
331
1CB
  5
255
331
25D
  5
83A
331
206
  5
27E
331
5B8
  5
D8F
331
188
  5
200
331
958
  5
DA4
331
E61
  5
E6F
331
DEA
  5
E1C
331
FDB
  5
FEA
331
101A
  5
102A
331
184
  5
1FC
331
1BF
  5
247
331
180
  5
1F8
331
1FA
  5
276
331
251
  5
7A9
331
9A
  5
9A
331
17C
  5
1F4
331
1F6
  5
271
331
2A8
  5
D7A
331
1BB
  5
20E
331
DE6
  5
E06
331
E5D
  5
E62
331
DE2
  5
E01
331
4A0
  5
D8E
331
109D
  5
109D
331
E45
  5
E60
331
CDB
  5
DA8
331
7A9
  5
DA0
331
1099
  5
1099
331
E41
  5
E50
331
100E
  5
1027
331
1B7
  5
244
331
174
  5
1ED
331
1EE
  5
26A
331
1B3
  5
240
331
1EA
  5
258
331
241
  5
2A7
331
16C
  5
1E8
331
235
  5
2A2
331
278
  5
65A
331
1E2
  5
27A
331
274
  5
CDB
331
39E
  5
D87
331
270
  5
CDA
331
DA6
  5
DFB
331
105D
  5
DCA
331
1002
  5
101A
331
E7C
  5
FAA
331
DA2
  5
DD0
331
103D
  5
1054
331
FFE
  5
1002
331
E78
  5
E7D
331
FFA
  5
1000
331
1150
  5
1150
331
D1
  5
D1
331
1A3
  5
213
331
CD
  5
CD
331
19F
  5
210
331
1DA
  5
277
331
C9
  5
C9
331
1D6
  5
26D
331
411
  5
D89
331
484
  5
D8D
331
78D
  5
D9B
331
215
  5
29C
331
19B
  5
236
331
1D2
  5
265
331
6EA
  5
D94
331
211
  5
298
331
FAF
  5
FD2
331
E74
  5
E78
331
D9A
  5
DCB
331
E01
  5
2D2
331
DFD
  5
E40
331
1035
  5
103E
331
E70
  5
E76
331
D96
  5
DC9
331
DF9
  5
E35
331
FF2
  5
FEF
331
1114
  5
1114
331
D92
  5
DC0
331
FEA
  5
FFB
331
1108
  5
1108
331
C5
  5
C5
331
197
  5
20F
331
209
  5
295
331
205
  5
27D
331
3F9
  5
D88
331
25C
  5
747
331
46C
  5
D8C
331
E64
  5
E74
331
E60
  5
E65
331
DE9
  5
E1B
331
187
  5
1FF
331
183
  5
1FB
331
1C2
  5
254
331
17F
  5
1F7
331
1F9
  5
25A
331
250
  5
78D
331
17B
  5
1F3
331
1F5
  5
266
331
2A7
  5
D79
331
847
  5
DA3
331
1BA
  5
211
331
1F1
  5
25F
331
2A3
  5
D77
331
454
  5
D8A
331
DE5
  5
E05
331
676
  5
D93
331
E58
  5
E61
331
DE1
  5
E00
331
FD2
  5
FDC
331
109C
  5
109C
331
E44
  5
E5F
331
CDA
  5
DA7
331
E40
  5
E46
331
1098
  5
1098
331
177
  5
1F0
331
1B6
  5
243
331
173
  5
1EC
331
1ED
  5
256
331
27F
  5
D70
331
1B2
  5
23F
331
240
  5
2A5
331
16B
  5
1E9
331
277
  5
659
331
1E1
  5
279
331
FC6
  5
FD8
331
65A
  5
D92
331
E7F
  5
FC6
331
105C
  5
DC1
331
DA5
  5
DFA
331
1001
  5
1013
331
E7B
  5
E7F
331
DA1
  5
DCF
331
E08
  5
39E
331
FF9
  5
FFF
331
D4
  5
D4
331
1A6
  5
216
331
D0
  5
D0
331
1A2
  5
20D
331
26F
  5
9F9
331
CC
  5
CC
331
26B
  5
847
331
395
  5
D85
331
1D9
  5
275
331
218
  5
29F
331
C8
  5
C8
331
214
  5
29B
331
1D5
  5
26B
331
19A
  5
218
331
1D1
  5
262
331
E77
  5
E7C
331
E04
  5
330
331
2EA
  5
D7C
331
210
  5
297
331
E00
  5
E43
331
FF5
  5
FF2
331
FAA
  5
FD5
331
E6F
  5
E75
331
DFC
  5
E3F
331
DF8
  5
E34
331
102C
  5
103A
331
FED
  5
FF4
331
110B
  5
110B
331
C4
  5
C4
331
196
  5
20C
331
208
  5
28E
331
25B
  5
7FE
331
2D2
  5
D7B
331
E63
  5
E71
331
FDD
  5
FED
331
DE8
  5
E08
331
186
  5
1FE
331
257
  5
6EA
331
182
  5
1FA
331
1FC
  5
263
331
1C1
  5
253
331
17E
  5
1F6
331
24F
  5
72B
331
1F8
  5
25D
331
1BD
  5
214
331
17A
  5
1F1
331
E5F
  5
E64
331
2A6
  5
D78
331
1B9
  5
246
331
1F0
  5
261
331
DE4
  5
E04
331
2A2
  5
D76
331
FD5
  5
FDD
331
DE0
  5
DFF
331
CDD
  5
DBA
331
E43
  5
E5E
331
109B
  5
109B
331
83A
  5
DA2
331
1097
  5
1097
331
FC9
  5
FDB
331
176
  5
1EF
331
247
  5
2A8
331
1B5
  5
242
331
172
  5
1EB
331
1EC
  5
268
331
27E
  5
CDD
331
16A
  5
1DD
331
1E4
  5
27C
331
E3F
  5
E45
331
276
  5
604
331
9F9
  5
DA6
331
398
  5
D86
331
DA8
  5
DFD
331
105F
  5
DC8
331
659
  5
D91
331
E7E
  5
FB4
331
DA4
  5
DD2
331
1000
  5
100E
331
DA0
  5
DCD
331
D3
  5
D3
331
1A5
  5
23E
331
CF
  5
CF
331
1A1
  5
23A
331
1DC
  5
25C
331
26E
  5
970
331
CB
  5
CB
331
19D
  5
23D
331
217
  5
29E
331
1D8
  5
272
331
199
  5
215
331
1D4
  5
269
331
213
  5
29A
331
E76
  5
E7B
331
1D0
  5
260
331
DFF
  5
E42
331
7FE
  5
DA1
331
DFB
  5
E3E
331
FF4
  5
FF0
331
D94
  5
DC7
331
FF0
  5
FF9
331
D90
  5
DBC
331
110E
  5
110E
331
FE8
  5
FFA
331
C7
  5
C7
331
207
  5
27F
331
747
  5
D97
331
1CC
  5
259
331
DF7
  5
E33
331
189
  5
209
331
1027
  5
102F
331
E62
  5
E70
331
101F
  5
102C
331
FDC
  5
FEB
331
FD8
  5
FE8
331
10F2
  5
10F2
331
185
  5
1FD
331
256
  5
411
331
181
  5
1F9
331
1FB
  5
278
331
34C
  5
D84
331
252
  5
4A0
331
1C0
  5
250
331
9B
  5
9B
331
17D
  5
1F5
331
1F7
  5
274
331
24E
  5
70F
331
1BC
  5
217
331
1B8
  5
245
331
E5E
  5
E63
331
DE7
  5
E07
331
72B
  5
D96
331
2A1
  5
D75
331
DE3
  5
E02
331
CE0
  5
DBB
331
DDF
  5
DFE
331
CDC
  5
DB9
331
E42
  5
E5D
331
1013
  5
1029
331
109A
  5
109A
331
1096
  5
1096
331
175
  5
1EE
331
1EF
  5
26C
331
1B4
  5
241
331
1EB
  5
26F
331
16D
  5
1EA
331
236
  5
2A4
331
279
  5
676
331
330
  5
D83
331
1E3
  5
27B
331
E3E
  5
E44
331
275
  5
CDC
331
70F
  5
D95
331
DA7
  5
DFC
331
105E
  5
DBE
331
1003
  5
101F
331
E7D
  5
FAF
331
DA3
  5
DD1
331
103E
  5
1055
331
FFF
  5
1003
331
FB4
  5
FC9
331
E79
  5
E7E
331
103A
  5
1053
331
FFB
  5
1001
331
1151
  5
1151
331
D2
  5
D2
331
1A4
  5
23C
331
CE
  5
CE
331
1A0
  5
235
331
1DB
  5
257
331
26D
  5
958
331
CA
  5
CA
331
19C
  5
23B
331
1D7
  5
270
331
604
  5
D90
331
216
  5
29D
331
198
  5
212
331
1D3
  5
267
331
265
  5
46C
331
212
  5
299
331
E75
  5
E79
331
1036
  5
1052
331
E71
  5
E77
331
DFE
  5
E41
331
DFA
  5
E36
331
970
  5
DA5
331
FEF
  5
FF5
331
FEB
  5
FFE
  0
DIMASSOC
  5
2E9
102
{ACAD_REACTORS
330
2DF
102
}
330
2DF
100
AcDbDimAssoc
330
2D2
 90
        3
 70
     0
 71
     0
  1
AcDbOsnapPointRef
 72
     1
331
184
 73
     2
 91
        0
 40
0.9999999999999998
 10
0.0
 20
0.0
 30
2.000000000000000E+50
 75
     0
  1
AcDbOsnapPointRef
 72
     1
331
185
 73
     2
 91
        0
 40
0.9999999999999998
 10
0.0
 20
0.0
 30
2.000000000000000E+50
 75
     0
  0
DIMASSOC
  5
301
102
{ACAD_REACTORS
330
2F7
102
}
330
2F7
100
AcDbDimAssoc
330
2EA
 90
        2
 70
     0
 71
     0
  1
AcDbOsnapPointRef
 72
     1
331
183
 73
     2
 91
        0
 40
0.9999999999999998
 10
0.0
 20
0.0
 30
2.000000000000000E+50
 75
     0
  0
DIMASSOC
  5
34B
102
{ACAD_REACTORS
330
33F
102
}
330
33F
100
AcDbDimAssoc
330
330
 90
        3
 70
     0
 71
     0
  1
AcDbOsnapPointRef
 72
    13
331
177
 73
     2
 91
        0
 40
0.0
 10
0.0
 20
0.0
 30
2.000000000000000E+50
 75
     0
  1
AcDbOsnapPointRef
 72
    13
331
175
 73
     2
 91
        0
 40
0.0
 10
0.0
 20
0.0
 30
2.000000000000000E+50
 75
     0
  0
DIMASSOC
  5
363
102
{ACAD_REACTORS
330
359
102
}
330
359
100
AcDbDimAssoc
330
34C
 90
        1
 70
     0
 71
     0
  1
AcDbOsnapPointRef
 72
     1
331
177
 73
     2
 91
        0
 40
1.0
 10
0.0
 20
0.0
 30
2.000000000000000E+50
 75
     0
  0
DIMASSOC
  5
410
102
{ACAD_REACTORS
330
406
102
}
330
406
100
AcDbDimAssoc
330
3F9
 90
        3
 70
     0
 71
     0
  1
AcDbOsnapPointRef
 72
     1
331
256
 73
     2
 91
        3
 40
1.0
 10
0.0
 20
0.0
 30
2.000000000000000E+50
 75
     0
  1
AcDbOsnapPointRef
 72
     8
331
256
 73
     2
 91
        2
 40
0.9999999999999984
 10
0.0
 20
0.0
 30
0.0
 75
     1
  1
AcDbOsnapPointRef
 72
     1
331
256
 73
     2
 91
        3
 40
1.0
 10
0.0
 20
0.0
 30
2.000000000000000E+50
 75
     0
  0
DIMASSOC
  5
428
102
{ACAD_REACTORS
330
41E
102
}
330
41E
100
AcDbDimAssoc
330
411
 90
        1
 70
     0
 71
     0
  1
AcDbOsnapPointRef
 72
     1
331
256
 73
     2
 91
        1
 40
1.0
 10
0.0
 20
0.0
 30
2.000000000000000E+50
 75
     0
  0
DIMASSOC
  5
46B
102
{ACAD_REACTORS
330
461
102
}
330
461
100
AcDbDimAssoc
330
454
 90
        3
 70
     0
 71
     0
  1
AcDbOsnapPointRef
 72
    13
331
276
 73
     2
 91
        0
 40
0.0
 10
0.0
 20
0.0
 30
2.000000000000000E+50
 75
     0
  1
AcDbOsnapPointRef
 72
     1
331
276
 73
     2
 91
        0
 40
1.0
 10
0.0
 20
0.0
 30
2.000000000000000E+50
 75
     0
  0
DIMASSOC
  5
483
102
{ACAD_REACTORS
330
479
102
}
330
479
100
AcDbDimAssoc
330
46C
 90
        3
 70
     0
 71
     0
  1
AcDbOsnapPointRef
 72
    13
331
277
 73
     2
 91
        0
 40
0.0
 10
0.0
 20
0.0
 30
2.000000000000000E+50
 75
     0
  1
AcDbOsnapPointRef
 72
     1
331
277
 73
     2
 91
        0
 40
1.0
 10
0.0
 20
0.0
 30
2.000000000000000E+50
 75
     0
  0
DIMASSOC
  5
49F
102
{ACAD_REACTORS
330
493
102
}
330
493
100
AcDbDimAssoc
330
484
 90
        3
 70
     0
 71
     0
  1
AcDbOsnapPointRef
 72
     1
331
26D
 73
     2
 91
        0
 40
1.0
 10
0.0
 20
0.0
 30
2.000000000000000E+50
 75
     0
  1
AcDbOsnapPointRef
 72
    13
331
25D
 73
     2
 91
        0
 40
0.0
 10
0.0
 20
0.0
 30
2.000000000000000E+50
 75
     0
  0
DIMASSOC
  5
4BB
102
{ACAD_REACTORS
330
4AF
102
}
330
4AF
100
AcDbDimAssoc
330
4A0
 90
        3
 70
     0
 71
     0
  1
AcDbOsnapPointRef
 72
    13
331
26E
 73
     2
 91
        0
 40
0.0
 10
0.0
 20
0.0
 30
2.000000000000000E+50
 75
     0
  1
AcDbOsnapPointRef
 72
     1
331
25D
 73
     2
 91
        0
 40
1.0
 10
0.0
 20
0.0
 30
2.000000000000000E+50
 75
     0
  0
DIMASSOC
  5
675
102
{ACAD_REACTORS
330
669
102
}
330
669
100
AcDbDimAssoc
330
65A
 90
        3
 70
     0
 71
     0
  1
AcDbOsnapPointRef
 72
     1
331
659
 73
     2
 91
        0
 40
1.0
 10
0.0
 20
0.0
 30
2.000000000000000E+50
 75
     0
  1
AcDbOsnapPointRef
 72
    13
331
275
 73
     2
 91
        0
 40
0.0
 10
0.0
 20
0.0
 30
2.000000000000000E+50
 75
     0
  0
DIMASSOC
  5
691
102
{ACAD_REACTORS
330
685
102
}
330
685
100
AcDbDimAssoc
330
676
 90
        2
 70
     0
 71
     0
  1
AcDbOsnapPointRef
 72
    13
331
250
 73
     2
 91
        0
 40
0.0
 10
0.0
 20
0.0
 30
2.000000000000000E+50
 75
     0
  0
DIMASSOC
  5
72A
102
{ACAD_REACTORS
330
71E
102
}
330
71E
100
AcDbDimAssoc
330
70F
 90
        2
 70
     0
 71
     0
  1
AcDbOsnapPointRef
 72
     1
331
27E
 73
     2
 91
        7
 40
1.0
 10
0.0
 20
0.0
 30
2.000000000000000E+50
 75
     0
  0
DIMASSOC
  5
746
102
{ACAD_REACTORS
330
73A
102
}
330
73A
100
AcDbDimAssoc
330
72B
 90
        2
 70
     0
 71
     0
  1
AcDbOsnapPointRef
 72
     1
331
27E
 73
     2
 91
        2
 40
1.0
 10
0.0
 20
0.0
 30
2.000000000000000E+50
 75
     0
  0
DIMASSOC
  5
7A8
102
{ACAD_REACTORS
330
79C
102
}
330
79C
100
AcDbDimAssoc
330
78D
 90
        2
 70
     0
 71
     0
  1
AcDbOsnapPointRef
 72
     1
331
27E
 73
     2
 91
        1
 40
1.0
 10
0.0
 20
0.0
 30
2.000000000000000E+50
 75
     0
  0
DIMASSOC
  5
7C4
102
{ACAD_REACTORS
330
7B8
102
}
330
7B8
100
AcDbDimAssoc
330
7A9
 90
        2
 70
     0
 71
     0
  1
AcDbOsnapPointRef
 72
     1
331
27E
 73
     2
 91
        4
 40
1.0
 10
0.0
 20
0.0
 30
2.000000000000000E+50
 75
     0
  0
DIMASSOC
  5
987
102
{ACAD_REACTORS
330
97D
102
}
330
97D
100
AcDbDimAssoc
330
970
 90
        2
 70
     0
 71
     0
  1
AcDbOsnapPointRef
 72
     1
331
2A6
 73
     2
 91
        2
 40
1.0
 10
0.0
 20
0.0
 30
2.000000000000000E+50
 75
     0
  0
DIMASSOC
  5
FC8
102
{ACAD_REACTORS
330
FC7
102
}
330
FC7
100
AcDbDimAssoc
330
FC6
 90
        1
 70
     0
 71
     0
  1
AcDbOsnapPointRef
 72
    10
331
E45
 73
     2
 91
        0
 40
0.5881509821465233
 10
0.0
 20
0.0
 30
0.0
 75
     0
  0
DIMASSOC
  5
FCB
102
{ACAD_REACTORS
330
FCA
102
}
330
FCA
100
AcDbDimAssoc
330
FC9
 90
        1
 70
     0
 71
     0
  1
AcDbOsnapPointRef
 72
     2
331
E44
 73
     2
 91
        0
 40
0.5
 10
0.0
 20
0.0
 30
0.0
 75
     0
  0
DIMASSOC
  5
FD4
102
{ACAD_REACTORS
330
FD3
102
}
330
FD3
100
AcDbDimAssoc
330
FD2
 90
        1
 70
     0
 71
     0
  1
AcDbOsnapPointRef
 72
     2
331
E08
 73
     2
 91
        4
 40
0.4999999999999993
 10
0.0
 20
0.0
 30
0.0
 75
     0
  0
DIMASSOC
  5
FD7
102
{ACAD_REACTORS
330
FD6
102
}
330
FD6
100
AcDbDimAssoc
330
FD5
 90
        1
 70
     0
 71
     0
  1
AcDbOsnapPointRef
 72
     2
331
E04
 73
     2
 91
        4
 40
0.4999999999999995
 10
0.0
 20
0.0
 30
0.0
 75
     0
  0
DIMASSOC
  5
FDA
102
{ACAD_REACTORS
330
FD9
102
}
330
FD9
100
AcDbDimAssoc
330
FD8
 90
        1
 70
     0
 71
     0
  1
AcDbOsnapPointRef
 72
     2
331
E01
 73
     2
 91
        7
 40
0.4999999999999995
 10
0.0
 20
0.0
 30
0.0
 75
     0
  0
DIMASSOC
  5
1015
102
{ACAD_REACTORS
330
1014
102
}
330
1014
100
AcDbDimAssoc
330
1013
 90
        1
 70
     0
 71
     0
  1
AcDbOsnapPointRef
 72
    10
331
E70
 73
     2
 91
        0
 40
0.7070905114900496
 10
0.0
 20
0.0
 30
0.0
 75
     0
  0
DIMASSOC
  5
1021
102
{ACAD_REACTORS
330
1020
102
}
330
1020
100
AcDbDimAssoc
330
101F
 90
        1
 70
     0
 71
     0
  1
AcDbOsnapPointRef
 72
    10
331
E74
 73
     2
 91
        0
 40
3.893936332306924
 10
0.0
 20
0.0
 30
0.0
 75
     0
  0
DIMASSOC
  5
102E
102
{ACAD_REACTORS
330
102D
102
}
330
102D
100
AcDbDimAssoc
330
102C
 90
        1
 70
     0
 71
     0
  1
AcDbOsnapPointRef
 72
    10
331
E75
 73
     2
 91
        0
 40
3.973088551178954
 10
0.0
 20
0.0
 30
0.0
 75
     0
  0
DIMASSOC
  5
103C
102
{ACAD_REACTORS
330
103B
102
}
330
103B
100
AcDbDimAssoc
330
103A
 90
        1
 70
     0
 71
     0
  1
AcDbOsnapPointRef
 72
     1
331
FEA
 73
     2
 91
        1
 40
1.0
 10
0.0
 20
0.0
 30
2.000000000000000E+50
 75
     0
  0
DIMASSOC
  5
10F7
102
{ACAD_REACTORS
330
10F6
102
}
330
10F6
100
AcDbDimAssoc
330
10F2
 90
        1
 70
     0
 71
     0
  1
AcDbOsnapPointRef
 72
    10
331
E71
 73
     2
 91
        0
 40
0.7598083062359634
 10
0.0
 20
0.0
 30
0.0
 75
     0
  0
DIMASSOC
  5
1113
102
{ACAD_REACTORS
330
1112
102
}
330
1112
100
AcDbDimAssoc
330
110E
 90
        1
 70
     0
 71
     0
  1
AcDbOsnapPointRef
 72
     5
331
E7D
 73
     2
 91
        0
 40
3.141592653589793
 10
0.0
 20
0.0
 30
0.0
 75
     0
  0
LAYOUT
  5
6A
102
{ACAD_XDICTIONARY
360
A7
102
}
102
{ACAD_REACTORS
330
5D
102
}
330
5D
100
AcDbPlotSettings
  1

  2
EPSON LP-S2000
  4
A4
  6

 40
5.873749732971191
 41
5.873748779296875
 42
5.873733520507812
 43
5.873748779296875
 44
209.9733276367187
 45
297.0106506347656
 46
1.278988826145763
 47
0.0
 48
150.0
 49
150.0
140
4305.0
141
3000.0
142
1.0
143
14.56549840101683
 70
 11956
 72
     1
 73
     1
 74
     4
  7

 75
     0
147
0.0686553918354204
 76
     0
 77
     2
 78
   300
148
-150.0
149
-150.0
100
AcDbLayout
  1
Model
 70
     1
 71
     0
 10
0.0
 20
0.0
 11
12.0
 21
9.0
 12
0.0
 22
0.0
 32
0.0
 14
0.0
 24
0.0
 34
0.0
 15
0.0
 25
0.0
 35
0.0
146
0.0
 13
0.0
 23
0.0
 33
0.0
 16
1.0
 26
0.0
 36
0.0
 17
0.0
 27
1.0
 37
0.0
 76
     0
330
67
331
52
1001
ACAD_PSEXT
1000
EPSON LP-S2000
1000
EPSON LP-S2000
1000
USB002
1000

1070
     0
  0
LAYOUT
  5
66
102
{ACAD_REACTORS
330
5D
102
}
330
5D
100
AcDbPlotSettings
  1

  2
Microsoft XPS Document Writer
  4

  6

 40
0.0
 41
0.0
 42
0.0
 43
0.0
 44
0.0
 45
0.0
 46
0.0
 47
0.0
 48
0.0
 49
0.0
140
0.0
141
0.0
142
1.0
143
1.0
 70
   688
 72
     0
 73
     0
 74
     5
  7

 75
    16
147
1.0
 76
     0
 77
     2
 78
   300
148
0.0
149
0.0
100
AcDbLayout
  1
レイアウト1
 70
     1
 71
     1
 10
0.0
 20
0.0
 11
420.0
 21
297.0
 12
0.0
 22
0.0
 32
0.0
 14
1.000000000000000E+20
 24
1.000000000000000E+20
 34
1.000000000000000E+20
 15
-1.000000000000000E+20
 25
-1.000000000000000E+20
 35
-1.000000000000000E+20
146
0.0
 13
0.0
 23
0.0
 33
0.0
 16
1.0
 26
0.0
 36
0.0
 17
0.0
 27
1.0
 37
0.0
 76
     0
330
63
  0
LAYOUT
  5
6E
102
{ACAD_REACTORS
330
5D
102
}
330
5D
100
AcDbPlotSettings
  1

  2
Microsoft XPS Document Writer
  4

  6

 40
0.0
 41
0.0
 42
0.0
 43
0.0
 44
0.0
 45
0.0
 46
0.0
 47
0.0
 48
0.0
 49
0.0
140
0.0
141
0.0
142
1.0
143
1.0
 70
   688
 72
     0
 73
     0
 74
     5
  7

 75
    16
147
1.0
 76
     0
 77
     2
 78
   300
148
0.0
149
0.0
100
AcDbLayout
  1
レイアウト2
 70
     1
 71
     2
 10
0.0
 20
0.0
 11
12.0
 21
9.0
 12
0.0
 22
0.0
 32
0.0
 14
0.0
 24
0.0
 34
0.0
 15
0.0
 25
0.0
 35
0.0
146
0.0
 13
0.0
 23
0.0
 33
0.0
 16
1.0
 26
0.0
 36
0.0
 17
0.0
 27
1.0
 37
0.0
 76
     0
330
6B
  0
MATERIAL
  5
19
102
{ACAD_XDICTIONARY
360
1A
102
}
102
{ACAD_REACTORS
330
10
102
}
330
10
100
AcDbMaterial
  1
ByBlock
 72
     0
 43
0.0208333333333333
 43
0.0
 43
0.0
 43
0.0
 43
0.0
 43
0.0208333333333333
 43
0.0
 43
0.0
 43
0.0
 43
0.0
 43
1.0
 43
0.0
 43
0.0
 43
0.0
 43
0.0
 43
1.0
 77
     0
 47
0.0208333333333333
 47
0.0
 47
0.0
 47
0.0
 47
0.0
 47
0.0208333333333333
 47
0.0
 47
0.0
 47
0.0
 47
0.0
 47
1.0
 47
0.0
 47
0.0
 47
0.0
 47
0.0
 47
1.0
171
     0
 49
0.0208333333333333
 49
0.0
 49
0.0
 49
0.0
 49
0.0
 49
0.0208333333333333
 49
0.0
 49
0.0
 49
0.0
 49
0.0
 49
1.0
 49
0.0
 49
0.0
 49
0.0
 49
0.0
 49
1.0
175
     0
142
0.0208333333333333
142
0.0
142
0.0
142
0.0
142
0.0
142
0.0208333333333333
142
0.0
142
0.0
142
0.0
142
0.0
142
1.0
142
0.0
142
0.0
142
0.0
142
0.0
142
1.0
179
     0
144
0.0208333333333333
144
0.0
144
0.0
144
0.0
144
0.0
144
0.0208333333333333
144
0.0
144
0.0
144
0.0
144
0.0
144
1.0
144
0.0
144
0.0
144
0.0
144
0.0
144
1.0
147
0.0208333333333333
147
0.0
147
0.0
147
0.0
147
0.0
147
0.0208333333333333
147
0.0
147
0.0
147
0.0
147
0.0
147
1.0
147
0.0
147
0.0
147
0.0
147
0.0
147
1.0
  0
MATERIAL
  5
11
102
{ACAD_XDICTIONARY
360
12
102
}
102
{ACAD_REACTORS
330
10
102
}
330
10
100
AcDbMaterial
  1
ByLayer
 72
     0
 43
0.0208333333333333
 43
0.0
 43
0.0
 43
0.0
 43
0.0
 43
0.0208333333333333
 43
0.0
 43
0.0
 43
0.0
 43
0.0
 43
1.0
 43
0.0
 43
0.0
 43
0.0
 43
0.0
 43
1.0
 77
     0
 47
0.0208333333333333
 47
0.0
 47
0.0
 47
0.0
 47
0.0
 47
0.0208333333333333
 47
0.0
 47
0.0
 47
0.0
 47
0.0
 47
1.0
 47
0.0
 47
0.0
 47
0.0
 47
0.0
 47
1.0
171
     0
 49
0.0208333333333333
 49
0.0
 49
0.0
 49
0.0
 49
0.0
 49
0.0208333333333333
 49
0.0
 49
0.0
 49
0.0
 49
0.0
 49
1.0
 49
0.0
 49
0.0
 49
0.0
 49
0.0
 49
1.0
175
     0
142
0.0208333333333333
142
0.0
142
0.0
142
0.0
142
0.0
142
0.0208333333333333
142
0.0
142
0.0
142
0.0
142
0.0
142
1.0
142
0.0
142
0.0
142
0.0
142
0.0
142
1.0
179
     0
144
0.0208333333333333
144
0.0
144
0.0
144
0.0
144
0.0
144
0.0208333333333333
144
0.0
144
0.0
144
0.0
144
0.0
144
1.0
144
0.0
144
0.0
144
0.0
144
0.0
144
1.0
147
0.0208333333333333
147
0.0
147
0.0
147
0.0
147
0.0
147
0.0208333333333333
147
0.0
147
0.0
147
0.0
147
0.0
147
1.0
147
0.0
147
0.0
147
0.0
147
0.0
147
1.0
  0
MATERIAL
  5
21
102
{ACAD_XDICTIONARY
360
22
102
}
102
{ACAD_REACTORS
330
10
102
}
330
10
100
AcDbMaterial
  1
Global
 72
     0
 43
0.0208333333333333
 43
0.0
 43
0.0
 43
0.0
 43
0.0
 43
0.0208333333333333
 43
0.0
 43
0.0
 43
0.0
 43
0.0
 43
1.0
 43
0.0
 43
0.0
 43
0.0
 43
0.0
 43
1.0
 77
     0
 47
0.0208333333333333
 47
0.0
 47
0.0
 47
0.0
 47
0.0
 47
0.0208333333333333
 47
0.0
 47
0.0
 47
0.0
 47
0.0
 47
1.0
 47
0.0
 47
0.0
 47
0.0
 47
0.0
 47
1.0
171
     0
 49
0.0208333333333333
 49
0.0
 49
0.0
 49
0.0
 49
0.0
 49
0.0208333333333333
 49
0.0
 49
0.0
 49
0.0
 49
0.0
 49
1.0
 49
0.0
 49
0.0
 49
0.0
 49
0.0
 49
1.0
175
     0
142
0.0208333333333333
142
0.0
142
0.0
142
0.0
142
0.0
142
0.0208333333333333
142
0.0
142
0.0
142
0.0
142
0.0
142
1.0
142
0.0
142
0.0
142
0.0
142
0.0
142
1.0
179
     0
144
0.0208333333333333
144
0.0
144
0.0
144
0.0
144
0.0
144
0.0208333333333333
144
0.0
144
0.0
144
0.0
144
0.0
144
1.0
144
0.0
144
0.0
144
0.0
144
0.0
144
1.0
147
0.0208333333333333
147
0.0
147
0.0
147
0.0
147
0.0
147
0.0208333333333333
147
0.0
147
0.0
147
0.0
147
0.0
147
1.0
147
0.0
147
0.0
147
0.0
147
0.0
147
1.0
  0
MLEADERSTYLE
  5
62
102
{ACAD_REACTORS
330
61
330
FC6
330
FC9
330
FD2
330
FD5
330
FD8
330
FDB
330
FDC
330
FDD
330
FF9
330
FFA
330
FFB
330
1013
330
101F
330
102C
330
1035
330
1036
330
103A
330
103D
330
103E
330
10F2
330
1108
330
110B
330
110E
330
1114
102
}
330
61
100
AcDbMLeaderStyle
170
     2
171
     1
172
     0
 90
        2
 40
0.0
 41
0.0
173
     1
 91
-1056964608
340
56
 92
       -2
290
     1
 42
3.089999999999999
291
     1
 43
0.36
  3
Standard
 44
2.0
300

342
50
174
     6
178
     6
175
     1
176
     0
 93
-1056964608
 45
2.0
292
     0
297
     0
 46
0.18
 94
-1056964608
 47
1.0
 49
1.0
140
1.0
293
     1
141
0.0
294
     1
177
     0
142
15.0
295
     0
296
     0
143
1.125
1001
ACAD_MLEADERVER
1070
     2
  0
MLINESTYLE
  5
5B
102
{ACAD_REACTORS
330
5A
102
}
330
5A
100
AcDbMlineStyle
  2
STANDARD
 70
     0
  3

 62
   256
 51
90.0
 52
90.0
 71
     2
 49
0.5
 62
   256
  6
BYLAYER
 49
-0.5
 62
   256
  6
BYLAYER
  0
ACDBPLACEHOLDER
  5
F
102
{ACAD_REACTORS
330
E
102
}
330
E
  0
SCALE
  5
3E
102
{ACAD_REACTORS
330
3D
102
}
330
3D
100
AcDbScale
 70
     0
300
1:1
140
1.0
141
1.0
290
     1
  0
SCALE
  5
3F
102
{ACAD_REACTORS
330
3D
102
}
330
3D
100
AcDbScale
 70
     0
300
1:2
140
1.0
141
2.0
290
     0
  0
SCALE
  5
40
102
{ACAD_REACTORS
330
3D
102
}
330
3D
100
AcDbScale
 70
     0
300
1:4
140
1.0
141
4.0
290
     0
  0
SCALE
  5
41
102
{ACAD_REACTORS
330
3D
102
}
330
3D
100
AcDbScale
 70
     0
300
1:5
140
1.0
141
5.0
290
     0
  0
SCALE
  5
42
102
{ACAD_REACTORS
330
3D
102
}
330
3D
100
AcDbScale
 70
     0
300
1:8
140
1.0
141
8.0
290
     0
  0
SCALE
  5
43
102
{ACAD_REACTORS
330
3D
102
}
330
3D
100
AcDbScale
 70
     0
300
1:10
140
1.0
141
10.0
290
     0
  0
SCALE
  5
44
102
{ACAD_REACTORS
330
3D
102
}
330
3D
100
AcDbScale
 70
     0
300
1:16
140
1.0
141
16.0
290
     0
  0
SCALE
  5
45
102
{ACAD_REACTORS
330
3D
102
}
330
3D
100
AcDbScale
 70
     0
300
1:20
140
1.0
141
20.0
290
     0
  0
SCALE
  5
46
102
{ACAD_REACTORS
330
3D
102
}
330
3D
100
AcDbScale
 70
     0
300
1:30
140
1.0
141
30.0
290
     0
  0
SCALE
  5
47
102
{ACAD_REACTORS
330
3D
102
}
330
3D
100
AcDbScale
 70
     0
300
1:40
140
1.0
141
40.0
290
     0
  0
SCALE
  5
48
102
{ACAD_REACTORS
330
3D
102
}
330
3D
100
AcDbScale
 70
     0
300
1:50
140
1.0
141
50.0
290
     0
  0
SCALE
  5
49
102
{ACAD_REACTORS
330
3D
102
}
330
3D
100
AcDbScale
 70
     0
300
1:100
140
1.0
141
100.0
290
     0
  0
SCALE
  5
4A
102
{ACAD_REACTORS
330
3D
102
}
330
3D
100
AcDbScale
 70
     0
300
2:1
140
2.0
141
1.0
290
     0
  0
SCALE
  5
4B
102
{ACAD_REACTORS
330
3D
102
}
330
3D
100
AcDbScale
 70
     0
300
4:1
140
4.0
141
1.0
290
     0
  0
SCALE
  5
4C
102
{ACAD_REACTORS
330
3D
102
}
330
3D
100
AcDbScale
 70
     0
300
8:1
140
8.0
141
1.0
290
     0
  0
SCALE
  5
4D
102
{ACAD_REACTORS
330
3D
102
}
330
3D
100
AcDbScale
 70
     0
300
10:1
140
10.0
141
1.0
290
     0
  0
SCALE
  5
4E
102
{ACAD_REACTORS
330
3D
102
}
330
3D
100
AcDbScale
 70
     0
300
100:1
140
100.0
141
1.0
290
     0
  0
TABLESTYLE
  5
60
102
{ACAD_XDICTIONARY
360
ED
102
}
102
{ACAD_REACTORS
330
5F
102
}
330
5F
100
AcDbTableStyle
  3
Standard
 70
     0
 71
     0
 40
1.5
 41
1.5
280
     0
281
     0
  7
Standard
140
4.5
170
     2
 62
     0
 63
     7
283
     0
 90
      512
 91
        0
  1

274
    -2
284
     1
 64
     0
275
    -2
285
     1
 65
     0
276
    -2
286
     1
 66
     0
277
    -2
287
     1
 67
     0
278
    -2
288
     1
 68
     0
279
    -2
289
     1
 69
     0
  7
Standard
140
6.0
170
     5
 62
     0
 63
     7
283
     0
 90
      512
 91
        0
  1

274
    -2
284
     1
 64
     0
275
    -2
285
     1
 65
     0
276
    -2
286
     1
 66
     0
277
    -2
287
     1
 67
     0
278
    -2
288
     1
 68
     0
279
    -2
289
     1
 69
     0
  7
Standard
140
4.5
170
     5
 62
     0
 63
     7
283
     0
 90
      512
 91
        0
  1

274
    -2
284
     1
 64
     0
275
    -2
285
     1
 65
     0
276
    -2
286
     1
 66
     0
277
    -2
287
     1
 67
     0
278
    -2
288
     1
 68
     0
279
    -2
289
     1
 69
     0
  0
VISUALSTYLE
  5
2F
102
{ACAD_XDICTIONARY
360
1176
102
}
102
{ACAD_REACTORS
330
29
102
}
330
29
100
AcDbVisualStyle
  2
2dWireframe
 70
     4
 71
     0
 72
     2
 73
     0
 90
        0
 40
-0.6
 41
-30.0
 62
     5
 63
     7
421
 16777215
 74
     1
 91
        4
 64
     7
 65
   257
 75
     1
175
     1
 42
1.0
 92
        0
 66
   257
 43
1.0
 76
     1
 77
     6
 78
     2
 67
     7
 79
     5
170
     0
171
     0
290
     0
174
     0
 93
        1
 44
0.0
173
     0
291
     0
 45
0.0
1001
ACAD
1000
AcDbSavedByObjectVersion
1070
     0
  0
VISUALSTYLE
  5
31
102
{ACAD_XDICTIONARY
360
117A
102
}
102
{ACAD_REACTORS
330
29
102
}
330
29
100
AcDbVisualStyle
  2
3D Hidden
 70
     6
 71
     1
 72
     2
 73
     2
 90
        0
 40
-0.6
 41
-30.0
 62
     5
 63
     7
421
 16777215
 74
     2
 91
        2
 64
     7
 65
   257
 75
     2
175
     1
 42
179.0
 92
        0
 66
   257
 43
1.0
 76
     1
 77
     6
 78
     2
 67
     7
 79
     3
170
     0
171
     0
290
     0
174
     0
 93
        1
 44
0.0
173
     0
291
     0
 45
0.0
1001
ACAD
1000
AcDbSavedByObjectVersion
1070
     0
  0
VISUALSTYLE
  5
30
102
{ACAD_XDICTIONARY
360
1178
102
}
102
{ACAD_REACTORS
330
29
102
}
330
29
100
AcDbVisualStyle
  2
3dWireframe
 70
     5
 71
     0
 72
     2
 73
     0
 90
        0
 40
-0.6
 41
-30.0
 62
     5
 63
     7
421
 16777215
 74
     1
 91
        4
 64
     7
 65
   257
 75
     1
175
     1
 42
1.0
 92
        0
 66
   257
 43
1.0
 76
     1
 77
     6
 78
     2
 67
     7
 79
     5
170
     0
171
     0
290
     0
174
     0
 93
        1
 44
0.0
173
     0
291
     0
 45
0.0
1001
ACAD
1000
AcDbSavedByObjectVersion
1070
     0
  0
VISUALSTYLE
  5
2E
102
{ACAD_XDICTIONARY
360
1174
102
}
102
{ACAD_REACTORS
330
29
102
}
330
29
100
AcDbVisualStyle
  2
Basic
 70
     7
 71
     1
 72
     0
 73
     1
 90
        0
 40
-0.6
 41
-30.0
 62
     5
 63
     7
421
 16777215
 74
     0
 91
        4
 64
     7
 65
   257
 75
     1
175
     1
 42
1.0
 92
        8
 66
     7
 43
1.0
 76
     1
 77
     6
 78
     2
 67
     7
 79
     5
170
     0
171
     0
290
     0
174
     0
 93
        1
 44
0.0
173
     0
291
     1
 45
0.0
1001
ACAD
1000
AcDbSavedByObjectVersion
1070
     0
  0
VISUALSTYLE
  5
35
102
{ACAD_XDICTIONARY
360
1182
102
}
102
{ACAD_REACTORS
330
29
102
}
330
29
100
AcDbVisualStyle
  2
Brighten
 70
    12
 71
     2
 72
     2
 73
     0
 90
        0
 40
-0.6
 41
-30.0
 62
     5
 63
     7
421
 16777215
 74
     1
 91
        4
 64
     7
 65
   257
 75
     1
175
     1
 42
1.0
 92
        8
 66
     7
 43
1.0
 76
     1
 77
     6
 78
     2
 67
     7
 79
     5
170
     0
171
     0
290
     0
174
     0
 93
        1
 44
50.0
173
     0
291
     1
 45
0.0
1001
ACAD
1000
AcDbSavedByObjectVersion
1070
     0
  0
VISUALSTYLE
  5
39
102
{ACAD_XDICTIONARY
360
118A
102
}
102
{ACAD_REACTORS
330
29
102
}
330
29
100
AcDbVisualStyle
  2
ColorChange
 70
    16
 71
     2
 72
     2
 73
     3
 90
        0
 40
-0.6
 41
-30.0
 62
     5
 63
     8
421
  8421504
 74
     1
 91
        4
 64
     7
 65
   257
 75
     1
175
     1
 42
1.0
 92
        8
 66
     8
424
  8421504
 43
1.0
 76
     1
 77
     6
 78
     2
 67
     7
 79
     5
170
     0
171
     0
290
     0
174
     0
 93
        1
 44
0.0
173
     0
291
     1
 45
0.0
1001
ACAD
1000
AcDbSavedByObjectVersion
1070
     0
  0
VISUALSTYLE
  5
32
102
{ACAD_XDICTIONARY
360
117C
102
}
102
{ACAD_REACTORS
330
29
102
}
330
29
100
AcDbVisualStyle
  2
Conceptual
 70
     9
 71
     3
 72
     2
 73
     0
 90
        0
 40
-0.6
 41
-30.0
 62
     5
 63
     7
421
 16777215
 74
     2
 91
        2
 64
     7
 65
   257
 75
     1
175
     1
 42
179.0
 92
        8
 66
     7
 43
1.0
 76
     1
 77
     6
 78
     2
 67
     7
 79
     3
170
     0
171
     0
290
     0
174
     0
 93
        1
 44
0.0
173
     0
291
     0
 45
0.0
1001
ACAD
1000
AcDbSavedByObjectVersion
1070
     0
  0
VISUALSTYLE
  5
34
102
{ACAD_XDICTIONARY
360
1180
102
}
102
{ACAD_REACTORS
330
29
102
}
330
29
100
AcDbVisualStyle
  2
Dim
 70
    11
 71
     2
 72
     2
 73
     0
 90
        0
 40
-0.6
 41
-30.0
 62
     5
 63
     7
421
 16777215
 74
     1
 91
        4
 64
     7
 65
   257
 75
     1
175
     1
 42
1.0
 92
        8
 66
     7
 43
1.0
 76
     1
 77
     6
 78
     2
 67
     7
 79
     5
170
     0
171
     0
290
     0
174
     0
 93
        1
 44
-50.0
173
     0
291
     1
 45
0.0
1001
ACAD
1000
AcDbSavedByObjectVersion
1070
     0
  0
VISUALSTYLE
  5
3C
102
{ACAD_XDICTIONARY
360
1190
102
}
102
{ACAD_REACTORS
330
29
102
}
330
29
100
AcDbVisualStyle
  2
EdgeColorOff
 70
    22
 71
     2
 72
     2
 73
     0
 90
        0
 40
-0.6
 41
-30.0
 62
     5
 63
     7
421
 16777215
 74
     1
 91
        4
 64
     7
 65
   257
 75
     1
175
     1
 42
1.0
 92
        8
 66
     7
 43
1.0
 76
     1
 77
     6
 78
     2
 67
     7
 79
     5
170
     0
171
     0
290
     0
174
     0
 93
        1
 44
0.0
173
     0
291
     1
 45
0.0
1001
ACAD
1000
AcDbSavedByObjectVersion
1070
     0
  0
VISUALSTYLE
  5
38
102
{ACAD_XDICTIONARY
360
1188
102
}
102
{ACAD_REACTORS
330
29
102
}
330
29
100
AcDbVisualStyle
  2
Facepattern
 70
    15
 71
     2
 72
     2
 73
     0
 90
        0
 40
-0.6
 41
-30.0
 62
     5
 63
     7
421
 16777215
 74
     1
 91
        4
 64
     7
 65
   257
 75
     1
175
     1
 42
1.0
 92
        8
 66
     7
 43
1.0
 76
     1
 77
     6
 78
     2
 67
     7
 79
     5
170
     0
171
     0
290
     0
174
     0
 93
        1
 44
0.0
173
     0
291
     1
 45
0.0
1001
ACAD
1000
AcDbSavedByObjectVersion
1070
     0
  0
VISUALSTYLE
  5
2A
102
{ACAD_XDICTIONARY
360
116C
102
}
102
{ACAD_REACTORS
330
29
102
}
330
29
100
AcDbVisualStyle
  2
Flat
 70
     0
 71
     2
 72
     1
 73
     1
 90
        2
 40
-0.6
 41
30.0
 62
     5
 63
     7
421
 16777215
 74
     0
 91
        4
 64
     7
 65
   257
 75
     1
175
     1
 42
1.0
 92
        8
 66
     7
 43
1.0
 76
     1
 77
     6
 78
     2
 67
     7
 79
     5
170
     0
171
     0
290
     0
174
     0
 93
       13
 44
0.0
173
     0
291
     1
 45
0.0
1001
ACAD
1000
AcDbSavedByObjectVersion
1070
     0
  0
VISUALSTYLE
  5
2B
102
{ACAD_XDICTIONARY
360
116E
102
}
102
{ACAD_REACTORS
330
29
102
}
330
29
100
AcDbVisualStyle
  2
FlatWithEdges
 70
     1
 71
     2
 72
     1
 73
     1
 90
        2
 40
-0.6
 41
30.0
 62
     5
 63
     7
421
 16777215
 74
     1
 91
        4
 64
     7
 65
   257
 75
     1
175
     1
 42
1.0
 92
        0
 66
   257
 43
1.0
 76
     1
 77
     6
 78
     2
 67
     7
 79
     5
170
     0
171
     0
290
     0
174
     0
 93
       13
 44
0.0
173
     0
291
     1
 45
0.0
1001
ACAD
1000
AcDbSavedByObjectVersion
1070
     0
  0
VISUALSTYLE
  5
2C
102
{ACAD_XDICTIONARY
360
1170
102
}
102
{ACAD_REACTORS
330
29
102
}
330
29
100
AcDbVisualStyle
  2
Gouraud
 70
     2
 71
     2
 72
     2
 73
     1
 90
        2
 40
-0.6
 41
30.0
 62
     5
 63
     7
421
 16777215
 74
     0
 91
        4
 64
     7
 65
   257
 75
     1
175
     1
 42
1.0
 92
        0
 66
     7
 43
1.0
 76
     1
 77
     6
 78
     2
 67
     7
 79
     5
170
     0
171
     0
290
     0
174
     0
 93
       13
 44
0.0
173
     0
291
     1
 45
0.0
1001
ACAD
1000
AcDbSavedByObjectVersion
1070
     0
  0
VISUALSTYLE
  5
2D
102
{ACAD_XDICTIONARY
360
1172
102
}
102
{ACAD_REACTORS
330
29
102
}
330
29
100
AcDbVisualStyle
  2
GouraudWithEdges
 70
     3
 71
     2
 72
     2
 73
     1
 90
        2
 40
-0.6
 41
30.0
 62
     5
 63
     7
421
 16777215
 74
     1
 91
        4
 64
     7
 65
   257
 75
     1
175
     1
 42
1.0
 92
        0
 66
   257
 43
1.0
 76
     1
 77
     6
 78
     2
 67
     7
 79
     5
170
     0
171
     0
290
     0
174
     0
 93
       13
 44
0.0
173
     0
291
     1
 45
0.0
1001
ACAD
1000
AcDbSavedByObjectVersion
1070
     0
  0
VISUALSTYLE
  5
142
102
{ACAD_XDICTIONARY
360
1194
102
}
102
{ACAD_REACTORS
330
29
102
}
330
29
100
AcDbVisualStyle
  2
Hidden
 70
     6
 71
     1
 72
     2
 73
     2
 90
        0
 40
-0.6
 41
-30.0
 62
     5
 63
     7
421
 16777215
 74
     2
 91
        2
 64
     7
 65
   257
 75
     2
175
     1
 42
40.0
 92
        0
 66
   257
 43
1.0
 76
     1
 77
     6
 78
     2
 67
     7
 79
     3
170
     0
171
     0
290
     0
174
     0
 93
        1
 44
0.0
173
     0
291
     0
 45
0.0
1001
ACAD
1000
AcDbSavedByObjectVersion
1070
     0
  0
VISUALSTYLE
  5
3A
102
{ACAD_XDICTIONARY
360
118C
102
}
102
{ACAD_REACTORS
330
29
102
}
330
29
100
AcDbVisualStyle
  2
JitterOff
 70
    20
 71
     2
 72
     2
 73
     0
 90
        0
 40
-0.6
 41
-30.0
 62
     5
 63
     7
421
 16777215
 74
     1
 91
        4
 64
     7
 65
   257
 75
     1
175
     1
 42
1.0
 92
       10
 66
     7
 43
1.0
 76
     1
 77
     6
 78
     2
 67
     7
 79
     5
170
     0
171
     0
290
     0
174
     0
 93
        1
 44
0.0
173
     0
291
     1
 45
0.0
1001
ACAD
1000
AcDbSavedByObjectVersion
1070
     0
  0
VISUALSTYLE
  5
37
102
{ACAD_XDICTIONARY
360
1186
102
}
102
{ACAD_REACTORS
330
29
102
}
330
29
100
AcDbVisualStyle
  2
Linepattern
 70
    14
 71
     2
 72
     2
 73
     0
 90
        0
 40
-0.6
 41
-30.0
 62
     5
 63
     7
421
 16777215
 74
     1
 91
        4
 64
     7
 65
   257
 75
     7
175
     7
 42
1.0
 92
        8
 66
     7
 43
1.0
 76
     1
 77
     6
 78
     2
 67
     7
 79
     5
170
     0
171
     0
290
     0
174
     0
 93
        1
 44
0.0
173
     0
291
     1
 45
0.0
1001
ACAD
1000
AcDbSavedByObjectVersion
1070
     0
  0
VISUALSTYLE
  5
3B
102
{ACAD_XDICTIONARY
360
118E
102
}
102
{ACAD_REACTORS
330
29
102
}
330
29
100
AcDbVisualStyle
  2
OverhangOff
 70
    21
 71
     2
 72
     2
 73
     0
 90
        0
 40
-0.6
 41
-30.0
 62
     5
 63
     7
421
 16777215
 74
     1
 91
        4
 64
     7
 65
   257
 75
     1
175
     1
 42
1.0
 92
        9
 66
     7
 43
1.0
 76
     1
 77
     6
 78
     2
 67
     7
 79
     5
170
     0
171
     0
290
     0
174
     0
 93
        1
 44
0.0
173
     0
291
     1
 45
0.0
1001
ACAD
1000
AcDbSavedByObjectVersion
1070
     0
  0
VISUALSTYLE
  5
33
102
{ACAD_XDICTIONARY
360
117E
102
}
102
{ACAD_REACTORS
330
29
102
}
330
29
100
AcDbVisualStyle
  2
Realistic
 70
     8
 71
     2
 72
     2
 73
     0
 90
        0
 40
-0.6
 41
-30.0
 62
     5
 63
     7
421
 16777215
 74
     1
 91
        0
 64
     7
 65
   257
 75
     1
175
     1
 42
1.0
 92
        8
 66
     8
424
  7895160
 43
1.0
 76
     1
 77
     6
 78
     2
 67
     7
 79
     5
170
     0
171
     0
290
     0
174
     0
 93
       13
 44
0.0
173
     0
291
     0
 45
0.0
1001
ACAD
1000
AcDbSavedByObjectVersion
1070
     0
  0
VISUALSTYLE
  5
147
102
{ACAD_XDICTIONARY
360
119E
102
}
102
{ACAD_REACTORS
330
29
102
}
330
29
100
AcDbVisualStyle
  2
Shaded
 70
    27
 71
     2
 72
     2
 73
     1
 90
        2
 40
-0.6
 41
30.0
 62
     5
 63
     7
421
 16777215
 74
     0
 91
        4
 64
     7
 65
   257
 75
     1
175
     1
 42
1.0
 92
        8
 66
   257
 43
1.0
 76
     1
 77
     6
 78
     2
 67
     8
425
  7895160
 79
     3
170
     0
171
     0
290
     0
174
     0
 93
        5
 44
0.0
173
     0
291
     0
 45
0.0
1001
ACAD
1000
AcDbSavedByObjectVersion
1070
     0
  0
VISUALSTYLE
  5
146
102
{ACAD_XDICTIONARY
360
119C
102
}
102
{ACAD_REACTORS
330
29
102
}
330
29
100
AcDbVisualStyle
  2
Shaded with edges
 70
    26
 71
     2
 72
     2
 73
     1
 90
        2
 40
-0.6
 41
30.0
 62
     5
 63
     7
421
 16777215
 74
     1
 91
       10
 64
     7
 65
   257
 75
     2
175
     1
 42
1.0
 92
        8
 66
   257
 43
1.0
 76
     1
 77
     6
 78
     2
 67
     7
 79
     3
170
     0
171
     0
290
     0
174
     0
 93
        5
 44
0.0
173
     0
291
     0
 45
0.0
1001
ACAD
1000
AcDbSavedByObjectVersion
1070
     0
  0
VISUALSTYLE
  5
143
102
{ACAD_XDICTIONARY
360
1196
102
}
102
{ACAD_REACTORS
330
29
102
}
330
29
100
AcDbVisualStyle
  2
Shades of Gray
 70
    23
 71
     2
 72
     2
 73
     3
 90
        0
 40
-0.6
 41
-30.0
 62
     5
 63
     7
421
 16777215
 74
     2
 91
        2
 64
     7
 65
     7
 75
     1
175
     1
 42
40.0
 92
        8
 66
     7
 43
1.0
 76
     1
 77
     6
 78
     2
 67
     7
 79
     3
170
     0
171
     0
290
     0
174
     0
 93
        1
 44
0.0
173
     0
291
     0
 45
0.0
1001
ACAD
1000
AcDbSavedByObjectVersion
1070
     0
  0
VISUALSTYLE
  5
144
102
{ACAD_XDICTIONARY
360
1198
102
}
102
{ACAD_REACTORS
330
29
102
}
330
29
100
AcDbVisualStyle
  2
Sketchy
 70
    24
 71
     1
 72
     2
 73
     2
 90
        0
 40
-0.6
 41
-30.0
 62
     5
 63
     7
421
 16777215
 74
     2
 91
        2
 64
     7
 65
     7
 75
     1
175
     1
 42
40.0
 92
       11
 66
     7
 43
1.0
 76
     1
 77
     6
 78
     2
 67
     7
 79
     6
170
     0
171
     0
290
     0
174
     0
 93
        1
 44
0.0
173
     0
291
     0
 45
0.0
1001
ACAD
1000
AcDbSavedByObjectVersion
1070
     0
  0
VISUALSTYLE
  5
36
102
{ACAD_XDICTIONARY
360
1184
102
}
102
{ACAD_REACTORS
330
29
102
}
330
29
100
AcDbVisualStyle
  2
Thicken
 70
    13
 71
     2
 72
     2
 73
     0
 90
        0
 40
-0.6
 41
-30.0
 62
     5
 63
     7
421
 16777215
 74
     1
 91
        4
 64
     7
 65
   257
 75
     1
175
     1
 42
1.0
 92
       12
 66
     7
 43
1.0
 76
     1
 77
     6
 78
     2
 67
     7
 79
     5
170
     0
171
     0
290
     0
174
     0
 93
        1
 44
0.0
173
     0
291
     1
 45
0.0
1001
ACAD
1000
AcDbSavedByObjectVersion
1070
     0
  0
VISUALSTYLE
  5
141
102
{ACAD_XDICTIONARY
360
1192
102
}
102
{ACAD_REACTORS
330
29
102
}
330
29
100
AcDbVisualStyle
  2
Wireframe
 70
     5
 71
     0
 72
     2
 73
     0
 90
        0
 40
-0.6
 41
-30.0
 62
     5
 63
     7
421
 16777215
 74
     1
 91
        4
 64
     7
 65
   257
 75
     1
175
     1
 42
1.0
 92
        0
 66
   257
 43
1.0
 76
     1
 77
     6
 78
     2
 67
     7
 79
     3
170
     0
171
     0
290
     0
174
     0
 93
        1
 44
0.0
173
     0
291
     0
 45
0.0
1001
ACAD
1000
AcDbSavedByObjectVersion
1070
     0
  0
VISUALSTYLE
  5
145
102
{ACAD_XDICTIONARY
360
119A
102
}
102
{ACAD_REACTORS
330
29
102
}
330
29
100
AcDbVisualStyle
  2
X-Ray
 70
    25
 71
     2
 72
     2
 73
     1
 90
        1
 40
0.5
 41
-30.0
 62
     5
 63
     7
421
 16777215
 74
     1
 91
        0
 64
     7
 65
   257
 75
     1
175
     1
 42
1.0
 92
        8
 66
     7
 43
1.0
 76
     1
 77
     6
 78
     2
 67
     7
 79
     3
170
     0
171
     0
290
     0
174
     0
 93
       13
 44
0.0
173
     0
291
     0
 45
0.0
1001
ACAD
1000
AcDbSavedByObjectVersion
1070
     0
  0
DICTIONARYVAR
  5
91
102
{ACAD_REACTORS
330
8E
102
}
330
8E
100
DictionaryVariables
280
     0
  1
1:1
  0
DICTIONARYVAR
  5
90
102
{ACAD_REACTORS
330
8E
102
}
330
8E
100
DictionaryVariables
280
     0
  1
STANDARD
  0
DICTIONARYVAR
  5
8F
102
{ACAD_REACTORS
330
8E
102
}
330
8E
100
DictionaryVariables
280
     0
  1
STANDARD
  0
DICTIONARYVAR
  5
831
102
{ACAD_REACTORS
330
8E
102
}
330
8E
100
DictionaryVariables
280
     0
  1
15.000000
  0
DICTIONARYVAR
  5
1169
102
{ACAD_REACTORS
330
8E
102
}
330
8E
100
DictionaryVariables
280
     0
  1
2
  0
DICTIONARY
  5
A7
330
6A
100
AcDbDictionary
280
     1
281
     1
  3
ADSK_XREC_LAYOUTTHUMBNAIL
360
A8
  0
DICTIONARY
  5
1A
330
19
100
AcDbDictionary
280
     1
281
     1
  3
BUMPTILE
360
1C
  3
DIFFUSETILE
360
1B
  3
OPACITYTILE
360
1F
  3
REFLECTIONTILE
360
1E
  3
REFRACTIONTILE
360
20
  3
SPECULARTILE
360
1D
  0
DICTIONARY
  5
12
330
11
100
AcDbDictionary
280
     1
281
     1
  3
BUMPTILE
360
14
  3
DIFFUSETILE
360
13
  3
OPACITYTILE
360
17
  3
REFLECTIONTILE
360
16
  3
REFRACTIONTILE
360
18
  3
SPECULARTILE
360
15
  0
DICTIONARY
  5
22
330
21
100
AcDbDictionary
280
     1
281
     1
  3
BUMPTILE
360
24
  3
DIFFUSETILE
360
23
  3
OPACITYTILE
360
27
  3
REFLECTIONTILE
360
26
  3
REFRACTIONTILE
360
28
  3
SPECULARTILE
360
25
  0
DICTIONARY
  5
ED
330
60
100
AcDbDictionary
280
     1
281
     1
  3
ACAD_ROUNDTRIP_2008_TABLESTYLE_CELLSTYLEMAP
360
116A
  0
DICTIONARY
  5
1176
330
2F
100
AcDbDictionary
280
     1
281
     1
  3
ACAD_XREC_ROUNDTRIP
360
1177
  0
DICTIONARY
  5
117A
330
31
100
AcDbDictionary
280
     1
281
     1
  3
ACAD_XREC_ROUNDTRIP
360
117B
  0
DICTIONARY
  5
1178
330
30
100
AcDbDictionary
280
     1
281
     1
  3
ACAD_XREC_ROUNDTRIP
360
1179
  0
DICTIONARY
  5
1174
330
2E
100
AcDbDictionary
280
     1
281
     1
  3
ACAD_XREC_ROUNDTRIP
360
1175
  0
DICTIONARY
  5
1182
330
35
100
AcDbDictionary
280
     1
281
     1
  3
ACAD_XREC_ROUNDTRIP
360
1183
  0
DICTIONARY
  5
118A
330
39
100
AcDbDictionary
280
     1
281
     1
  3
ACAD_XREC_ROUNDTRIP
360
118B
  0
DICTIONARY
  5
117C
330
32
100
AcDbDictionary
280
     1
281
     1
  3
ACAD_XREC_ROUNDTRIP
360
117D
  0
DICTIONARY
  5
1180
330
34
100
AcDbDictionary
280
     1
281
     1
  3
ACAD_XREC_ROUNDTRIP
360
1181
  0
DICTIONARY
  5
1190
330
3C
100
AcDbDictionary
280
     1
281
     1
  3
ACAD_XREC_ROUNDTRIP
360
1191
  0
DICTIONARY
  5
1188
330
38
100
AcDbDictionary
280
     1
281
     1
  3
ACAD_XREC_ROUNDTRIP
360
1189
  0
DICTIONARY
  5
116C
330
2A
100
AcDbDictionary
280
     1
281
     1
  3
ACAD_XREC_ROUNDTRIP
360
116D
  0
DICTIONARY
  5
116E
330
2B
100
AcDbDictionary
280
     1
281
     1
  3
ACAD_XREC_ROUNDTRIP
360
116F
  0
DICTIONARY
  5
1170
330
2C
100
AcDbDictionary
280
     1
281
     1
  3
ACAD_XREC_ROUNDTRIP
360
1171
  0
DICTIONARY
  5
1172
330
2D
100
AcDbDictionary
280
     1
281
     1
  3
ACAD_XREC_ROUNDTRIP
360
1173
  0
DICTIONARY
  5
1194
330
142
100
AcDbDictionary
280
     1
281
     1
  3
ACAD_XREC_ROUNDTRIP
360
1195
  0
DICTIONARY
  5
118C
330
3A
100
AcDbDictionary
280
     1
281
     1
  3
ACAD_XREC_ROUNDTRIP
360
118D
  0
DICTIONARY
  5
1186
330
37
100
AcDbDictionary
280
     1
281
     1
  3
ACAD_XREC_ROUNDTRIP
360
1187
  0
DICTIONARY
  5
118E
330
3B
100
AcDbDictionary
280
     1
281
     1
  3
ACAD_XREC_ROUNDTRIP
360
118F
  0
DICTIONARY
  5
117E
330
33
100
AcDbDictionary
280
     1
281
     1
  3
ACAD_XREC_ROUNDTRIP
360
117F
  0
DICTIONARY
  5
119E
330
147
100
AcDbDictionary
280
     1
281
     1
  3
ACAD_XREC_ROUNDTRIP
360
119F
  0
DICTIONARY
  5
119C
330
146
100
AcDbDictionary
280
     1
281
     1
  3
ACAD_XREC_ROUNDTRIP
360
119D
  0
DICTIONARY
  5
1196
330
143
100
AcDbDictionary
280
     1
281
     1
  3
ACAD_XREC_ROUNDTRIP
360
1197
  0
DICTIONARY
  5
1198
330
144
100
AcDbDictionary
280
     1
281
     1
  3
ACAD_XREC_ROUNDTRIP
360
1199
  0
DICTIONARY
  5
1184
330
36
100
AcDbDictionary
280
     1
281
     1
  3
ACAD_XREC_ROUNDTRIP
360
1185
  0
DICTIONARY
  5
1192
330
141
100
AcDbDictionary
280
     1
281
     1
  3
ACAD_XREC_ROUNDTRIP
360
1193
  0
DICTIONARY
  5
119A
330
145
100
AcDbDictionary
280
     1
281
     1
  3
ACAD_XREC_ROUNDTRIP
360
119B
  0
XRECORD
  5
A8
102
{ACAD_REACTORS
330
A7
102
}
330
A7
100
AcDbXrecord
280
     1
310
28000000000100006F0000000100080000000000006F0000000000000000000000010000000000003028210000000000C8C8C8000000000000000000000000000000000000000000000000000000000000000000330000006600000099000000CC000000FF00000000330000333300006633000099330000CC330000FF3300
310
0000660000336600006666000099660000CC660000FF66000000990000339900006699000099990000CC990000FF99000000CC000033CC000066CC000099CC0000CCCC0000FFCC000000FF000033FF000066FF000099FF0000CCFF0000FFFF000000003300330033006600330099003300CC003300FF003300003333003333
310
33006633330099333300CC333300FF33330000663300336633006666330099663300CC663300FF66330000993300339933006699330099993300CC993300FF99330000CC330033CC330066CC330099CC3300CCCC3300FFCC330000FF330033FF330066FF330099FF3300CCFF3300FFFF330000006600330066006600660099
310
006600CC006600FF00660000336600333366006633660099336600CC336600FF33660000666600336666006666660099666600CC666600FF66660000996600339966006699660099996600CC996600FF99660000CC660033CC660066CC660099CC6600CCCC6600FFCC660000FF660033FF660066FF660099FF6600CCFF6600
310
FFFF660000009900330099006600990099009900CC009900FF00990000339900333399006633990099339900CC339900FF33990000669900336699006666990099669900CC669900FF66990000999900339999006699990099999900CC999900FF99990000CC990033CC990066CC990099CC9900CCCC9900FFCC990000FF99
310
0033FF990066FF990099FF9900CCFF9900FFFF99000000CC003300CC006600CC009900CC00CC00CC00FF00CC000033CC003333CC006633CC009933CC00CC33CC00FF33CC000066CC003366CC006666CC009966CC00CC66CC00FF66CC000099CC003399CC006699CC009999CC00CC99CC00FF99CC0000CCCC0033CCCC0066CC
310
CC0099CCCC00CCCCCC00FFCCCC0000FFCC0033FFCC0066FFCC0099FFCC00CCFFCC00FFFFCC000000FF003300FF006600FF009900FF00CC00FF00FF00FF000033FF003333FF006633FF009933FF00CC33FF00FF33FF000066FF003366FF006666FF009966FF00CC66FF00FF66FF000099FF003399FF006699FF009999FF00CC
310
99FF00FF99FF0000CCFF0033CCFF0066CCFF0099CCFF00CCCCFF00FFCCFF0000FFFF0033FFFF0066FFFF0099FFFF00CCFFFF00FFFFFF00000000000D0D0D001A1A1A00282828003535350043434300505050005D5D5D006B6B6B00787878008686860093939300A1A1A100AEAEAE00BBBBBB00C9C9C900D6D6D600E4E4E400
310
F1F1F100FFFFFF000000000000000000000000000000000000000000000000000000000000000000000000000000000000000000000000000000000000000000000000000000000000000000000000000000000000000000000000000000000000002D2D2D2D2D2D2D2D2D2D2D2D2D2D2D2D2D2D2D2D2D2D2D2D2D2D2D2D2D
310
2D2D2D2D2D2D2D2D2D2D2D2D2D2D2D2D2D2D2D2D2D2D2D2D2D2D2D2D2D2D2D2D2D2D2D2D2D2D2D2D2D2D2D2D2D2D2D2D2D2D2D2D2D2D2D2D2D2D2D2D2D2D2D2D2D2D2D2D2D2D2D2D2D2D2D2D2D2D2D2D2D2D2D2D2D2D2D2D2D2D2D2D2D2D2D2D2D2D2D2D2D2D2D2D2D2D2D2D2D2D2D2D2D2D2D2D2D2D2D2D2D2D2D2D2D2D2D
310
000000000000000000000000000000000000000000000000000000000000000000000000000000000000000000000000000000000000000000000000000000000000000000000000000000000000000000000000000000000000000000000000000000002D0000000000000000000000000000000000000000000000000000
310
00000000000000000000000000000000000000000000000000000000000000000000000000000000000000000000000000000000000000000000000000000000000000000000000000000000000000000000000000000000000000000000000000000000000000000000000000000000000000000000000000000000000000
310
002D000000000000000000000000000000000000000000000000000000000000000000000000000000000000000000000000000000000000000000000000000000000000000000000000000000000000000000000000000000000000000000000000000000002D000000000000000000000000000000000000000000000000
310
00000000000000000000000000000000000000000000000000000000000000000000000000000000000000000000000000000000000000000000000000000000000000000000000000000000000000000000000000000000000000000000000000000000000000000000000000000000000000000000000000000000000000
310
0000002D000000000000000000000000000000000000000000000000000000000000000000000000000000000000000000000000000000000000000000000000000000000000000000000000000000000000000000000000000000000000000000000000000000002D00000000000000000000000000000000000000000000
310
00000000000000000000000000000000000000000000000000000000000000000000000000000000000000000000000000000000000000000000000000000000000000000000000000000000000000000000000000000000000000000000000000000000000000000000000000000000000000000000000000000000000000
310
00000000002D000000000000000000000000000000000000000000000000000000000000000000000000000000000000000000000000000000000000000000000000000000000000000000000000000000000000000000000000000000000000000000000000000000002D0000000000000000000000000000000000000000
310
00000000000000000000000000000000000000000000000000000000000000000000000000000000000000000000000000000000000000000000000000000000000000000000000000000000000000000000000000000000000000000000000000000000000000000000000000000000000000000000000000000000000000
310
000000000000002D000000000000000000000000000000000000000000000000000000000000000000000000000000000000000000000000000000000000000000000000000000000000000000000000000000000000000000000000000000000000000000000000000000002D000000000000000000000000000000000000
310
00000000000000000000000000000000000000000000000000000000000000000000000000000000000000000000000000000000000000000000000000000000000000000000000000000000000000000000000000000000000000000000000000000000000000000000000000000000000000000000000000000000000000
310
0000000000000000002D000000000000000000000000000000000000000000000000000000000000000000000000000000000000000000000000000000000000000000000000000000000000000000000000000000000000000000000000000000000000000000000000000000002D000000000F0F0F0F0F0F0F0F0F0F0F0F
310
0F0F0F0F0F0F0F0F0F0F0F0F0F0F0F0F0F0F0F0F0F0F0F0F0F0F0F0F0F0F0F0F0F0F0F0F0F0F0F0F0F0F0F0F0F0F0F0F0F0F0F0F0F0F0F0F0F0F0F0F0F0F0F0F0F0F0F0F0F0F0F0F0F0F0F0F0F0F0F0F0F0F0F0F0F0F0F0F0F0F0F0F0F0F0F0F0F0F0F0F0F0F0F0F0F0F0F0F0F0F0F0F0F0F0F0F0F0F0F0F0F0F0F0F0F0F0F
310
0F0F0F0F0F0F0F000000002D000000000000000000000000000000000000000000000000000000000000000000000000000000000000000000000000000000000000000000000000000000000000000000000000000000000000000000000000000000000000000000000000000000002D000000000F000000000000000000
310
000000000000000000000000000000000000000000000000000000000000000000000000000000000000000000000000000000000000000000000000000000000000000000000000000000000000000000000000000000000000000F000000000000000000000000000F0F0F0F0F0F0F0F0F0F0F0F0F0F0F0F000000000000
310
00000000000000000F000000002D000000000000000000000000000000000000000000000000000000000000000000000000000000000000000000000000000000000000000000000000000000000000000000000000000000000000000000000000000000000000000000000000000000002D000000000F00000000000000
310
0000000000000000000000000000000000000000000000000000000000000000000000000000000000000000000000000000000000000000000000000000000000000000000000000000000000000000000000000000000000000000000F0F0F0F0F0F0F0F0F0F0F0F0F0F0F0F0F0F0F0F0F0F0F0F0F0F0F0F0F0F0F0F0F0F
310
0F0F0F0F0F0F0F0F0F0F0F000000002D000000000000000000000000000000000000000000000000000000000000000000000000000000000000000000000000000000000000000000000000000000000000000000000000000000000000000000000000000000000000000000000000000000002D000000000F0000000000
310
000000000000000000000000000000000000000000000000F5F5000000000000000000F5F5000000000000000000000000000000000000000000000000000000000000000000000000000000000000000000000000000000000000000000000F0000000000000000000000000000000000000000000000000000000F000000
310
000000000F000F0F0F0F0F000F000000002D000000000000000000000000000000000000000000000000000000000000000000000000000000000000000000000000000000000000000000000000000000000000000000000000000000000000000000000000000000000000000000000000000000002D000000000F000000
310
0000000000000000000000000000000000000000000000000000F5F5F5F5F5F5F5F5F5F5F5F5F50000F5000000000000000000000000000000000000000000000000000000000000000000000000000000000000000000000000000000000000000F0000000000000000000000000000000000000000000000000000000F00
310
0000000000000F000000000000000F000000002D000000000000000000000000000000000000000000000000000000000000000000000000000000000000000000000000000000000000000000000000000000000000000000000000000000000000000000000000000000000000000000000000000000002D000000000F00
310
00000000000000000000000000000000000000000000000000000000F500000000F5F5F5F5000000F50000F5000000000000000000000000000000000000000000000000000000000000000000000000000000000000000000000000000000000000000F0F0F0F0F0F0F0F0F0F0F0F0F0F0F0F0F0F0F0F0F0F0F0F0F0F0F0F
310
0F0F0F0F0F0F0F0F0F0F0F0F0F0F0F0F0F000000002D000000000000000000000000000000000000000000000000000000000000000000000000000000000000000000000000000000000000000000000000000000000000000000000000000000000000000000000000000000000000000000000000000000002D00000000
310
0F0000000000000000000000000000000000000000000000000000000000F500000000F5F5F5F5000000F50000F5000000000000000000000000000000000000000000000000000000000000000000000000000000000000000000000000000000000000000F0000000000000F0F0F0F0F0F0F0F0F0F0F0F0F0F0000000000
310
00000F000F0F0F0F00000F000F0F0F0F00000F000000002D000000000000000000000000000000000000000000000000000000000000000000000000000000000000000000000000000000000000000000000000000000000000000000000000000000000000000000000000000000000000000000000000000000002D0000
310
00000F0000000000000000000000000000000000000000000000000000000000F5F5F5F5F5F5F5F5F5F5F5F5F5F5F5F5F5F5F5000000000000000000000000000000000000000000000000000000000000000000000000000000000000000000000000000000000F0F0F0F0F0F0F0F0F0F0F0F0F0F0F0F0F0F0F0F0F0F0F0F
310
0F0F0F0F0F0F0F0F0F0F0F0F0F0F0F0F0F0F0F0F0F000000002D000000000000000000000000000000000000000000000000000000000000000000000000000000000000000000000000000000000000000000000000000000000000000000000000000000000000000000000000000000000000000000000000000000002D
310
000000000F0000000000000000000000000000000000000000000000000000000000C3C3C3C3C3C3C3C3C3C3C3C3C3F500F5F5F5F5000000000000000000000000000000000000000000000000000000000000000000000000000000000000000000000000000000000F0000000000000F0000000000000000000000000000
310
000000000000000000000000000000000000000000000F000000002D000000000000000000000000000000000000000000000000000000000000000000000000000000000000000000000000000000000000000000000000000000000000000000000000000000000000000000000000000000000000000000000000000000
310
002D000000000F0000000000000000000000000000000000000000000000000000000000F5F5F5F5F5F5F5F5F5F5F5F5F5F5F5F5F5F5F5000000000000000000000000000000000000000000000000000000000000000000000000000000000000000000000000000000000F0F0F0F0F0F0F0F0000000000000F0F0F0F0F0F
310
0F0F0F0F0F0F0F0F0F0F0F0F0F0F0F0F0F0F0000000000000F000000002D00000000000000000000000000000000000000000000000000000000000000000000000000000000000000000000000000000000000000000000000000000000000000000000000000000000000000000000000000000000000000000000000000
310
0000002D000000000F0000000000000000000000000000000000000000000000000000000000000000000000000000000000000000F5000000000000000000000000000000000000000000000000000000000000000000000000000000000000000000000000000000000000000F0F0F0F0F0F0F0F0000000000000F0F0F0F
310
0F0F0F0F0F0F0F0F0F0F0F0F0F0F0F0F0F0F0F0F0000000000000F000000002D0000000000000000000000000000000000000000000000000000000000000000000000000000000000000000000000000000000000000000000000000000000000000000000000000000000000000000000000000000000000000000000000
310
00000000002D000000000F00000000000000000000000000000000000000000000000000000000000000000000000000F5F50000F5F5F5F5000000000000000000000000000000000000000000000000000000000000000000000000000000000000000000000000000000000000000F0000000000000F0000000000000000
310
000000000000000000000000000000000000000000000000000000000F000000002D000000000000000000000000000000000000000000000000000000000000000000000000000000000000000000000000000000000000000000000000000000000000000000000000000000000000000000000000000000000000000000
310
000000000000002D000000000F0000000000000000000000000000000000000000000000000000000000000000000000F5F5F5F5F5F5F5F5F500000000000000000000000000000000000000000000000000000000000000000000000000000000000000000000000000000000000000000F0000000000000F000000000000
310
0000000000000000000000000000000000000000000000000000000000000F000000002D00000000000000000000000000000000000000000000000000000000000000000000000000000000000000000000000000000000000000000000000000000000000000000000000000000000000000000000000000000000000000
310
0000000000000000002D000000000F0000000000000000000000000000000000000000000000000000000000000000000000F5000000F5F5F5000000000000000000000000000000000000000000000000000000000000000000000000000000000000000000000000000000000000000000000F0F0F0F0F0F0F0F0F0F0F0F
310
0F0F0F0F0F0F0F0F0F0F0F0F0F0F0F0F0F0F0F0F0F0F0F0F0F0F0F0F0F0F0F0F0F000000002D0000000000000000000000000000000000000000000000000000000000000000000000000000000000000000000000000000000000000000000000000000000000000000000000000000000000000000000000000000000000
310
00000000000000000000002D000000000F0000000000000000000000000000000000000000000000000000000000F5F5F5F5F5F5F5F5F5F5F5F5F5F5F5F5F5F5000000000000000000000000000000000000000000000000000000000000000000000000000000000000000000000000000000000000000000000000000000
310
000000000000000000000000000000000000000000000000000000000000000000000F000000002D000000000000000000000000000000000000000000000000000000000000000000000000000000000000000000000000000000000000000000000000000000000000000000000000000000000000000000000000000000
310
000000000000000000000000002D000000000F0000000000000000000000000000000000000000000000000000000000C3C3C3C3C3C3F5C3C3C3C3C3C3F50000F50000000000000000000000000000000000000000000000000000000000000000000000000000000000000000000000000000000000000000000000000000
310
0000000000000000000000000000000000000000000000000000000000000000000000000F000000002D00000000000000000000000000000000000000000000000000000000000000000000000000000000000000000000000000000000000000000000000000000000000000000000000000000000000000000000000000
310
0000000000000000000000000000002D000000000F00000000000000000000000000000000000000F5F5F50000F5F5000000F5C3000000C3F500C3000000C3F50000F5000000000000000000000000000000000000000000000000000000000000000000000000000000000000000000000000000000000000000000000000
310
00000000000000000000000000000000000000000000000000000000000000000000000000000F000000002D0000000000000000000000000000000000000000000000000000000000000000000000000000000000000000000000000000000000000000000000000000000000000000000000000000000000000000000000
310
00000000000000000000000000000000002D000000000F00000000000000000000000000000000000000F5F5F5F5F5F5F5F5F5F5F5F5F5F5F5F5F5F5F5F5F5F5F5F50000F500000000000000000000000000000000000000000000000000000000000000000000000000000000000000000000000000000000000000000000
310
000000000000000000000000000000000000000000000000000000000000000000000000000000000F000000002D000000000000000000000000000000000000000000000000000000000000000000000000000000000000000000000000000000000000000000000000000000000000000000000000000000000000000000
310
000000000000000000000000000000000000002D000000000F000000000000000000000000000000000000000000F5F5F50000000000C3C3C3C3C3F5F5F5C3C3C3C3C3F50000F50000000000000000000000000000000000000000000000000000000000000000000000000000000000000000000000000000000000000000
310
0000000000000000000000000000000000000000000000000000000000000000000000000000000000000F000000002D00000000000000000000000000000000000000000000000000000000000000000000000000000000000000000000000000000000000000000000000000000000000000000000000000000000000000
310
0000000000000000000000000000000000000000002D000000000F0000000000000000000000000000000000000000000000000000000000F5C3F5F5F5F5F5F5F5F5F5F5C3F5F5F5F5000000000000000000000000000000000000000000000000000000000000000000000000000000000000000000000000000000000000
310
00000000000000000000000000000000000000000000000000000000000000000000000000000000000000000F000000002D0000000000000000000000000000000000000000000000000000000000000000000000000000000000000000000000000000000000000000000000000000000000000000000000000000000000
310
00000000000000000000000000000000000000000000002D000000000F0000000000000000000000000000000000000000000000000000000000F5C3F5F5F5C3F500F5F5F5F5C3F5F5F5F500000000000000000000000000000000000000000000000000000000000000000000000000000000000000000000000000000000
310
000000000000000000000000000000000000000000000000000000000000000000000000000000000000000000000F000000002D000000000000000000000000000000000000000000000000000000000000000000000000000000000000000000000000000000000000000000000000000000000000000000000000000000
310
000000000000000000000000000000000000000000000000002D000000000F0000000000000000000000000000000000000000000000000000000000F5C3F5F5F5C3F500C3F5F5F5C3F5F5F5F50000000000000000000000000000000000000000000000000000000000000000000000000000000000000000000000000000
310
0000000000000000000000000000000000000000000000000000000000000000000000000000000000000000000000000F000000002D00000000000000000000000000000000000000000000000000000000000000000000000000000000000000000000000000000000000000000000000000000000000000000000000000
310
0000000000000000000000000000000000000000000000000000002D000000000F0000000000000000000000000000000000000000000000000000000000F5C3F5F5F5C3F500F5F5F5F5C3F5F5F5F5000000000000000000000000000000000000000000000000000000000000000000000000000000000000000000000000
310
00000000000000000000000000000000000000000000000000000000000000000000000000000000000000000000000000000F000000002D0000000000000000000000000000000000000000000000000000000000000000000000000000000000000000000000000000000000000000000000000000000000000000000000
310
00000000000000000000000000000000000000000000000000000000002D000000000F0000000000000000000000000000000000000000000000000000000000F5C3F5F5F5F5F5F5F5F5F5F5C3F50000F500000000000000000000000000000000000000000000000000000000000000000000000000000000000000000000
310
000000000000000000000000000000000000000000000000000000000000000000000000000000000000000000000000000000000F000000002D000000000000000000000000000000000000000000000000000000000000000000000000000000000000000000000000000000000000000000000000000000000000000000
310
000000000000000000000000000000000000000000000000000000000000002D000000000F0000000000000000000000000000000000000000000000000000000000C3C3C3C3C3C3F5C3C3C3C3C3C3F50000F50000000000000000000000000000000000000000000000000000000000000000000000000000000000000000
310
00000000000000000000000000000000000000000000000000000000F5F50000F5F5F5000000000000000000000000000000000000000F000000002D00000000000000000000000000000000000000000000000000000000000000000000000000000000000000000000000000000000000000000000000000000000000000
310
0000000000000000000000000000000000000000000000000000000000000000002D000000000F0000000000000000000000000000000000000000000000000000000000F5C3000000C3F500C3000000C3F50000F5000000000000000000000000000000000000000000000000000000000000000000000000000000000000
310
000000000000000000000000000000000000000000000000000000F5F5F5F5F5F5F5F5F5F5000000000000000000000000000000000000000F000000002D0000000000000000000000000000000000000000000000000000000000000000000000000000000000000000000000000000000000000000000000000000000000
310
00000000000000000000000000000000000000000000000000000000000000000000002D000000000F0000000000000000000000000000000000000000000000000000000000C3C3C3C3C3C3F5C3C3C3C3C3C3F50000F500000000000000000000000000000000000000000000000000000000000000000000000000000000
310
000000000000F5F50000F5F5F500000000000000000000000000F5F5F500F5000000F500F50000000000000000000000000000000000000000000F000000002D000000000000000000000000000000000000000000000000000000000000000000000000000000000000000000000000000000000000000000000000000000
310
000000000000000000000000000000000000000000000000000000000000000000000000002D000000000F0000000000000000000000000000000000000000000000000000000000F5C3F5F5F5C3F5F5C3F5F5F5C3F5F5F5F5F500000000000000000000000000000000000000000000000000000000000000000000000000
310
0000000000000000F5F5F5F5F5F5F5F5F5F5C3F5F5F5F5F5F5F5F5F5F5F5C3F5F5F5F5F50000000000000000000000000000000000000000000000000F000000002D00000000000000000000000000000000000000000000000000000000000000000000000000000000000000000000000000000000000000000000000000
310
0000000000000000000000000000000000000000000000000000000000000000000000000000002D000000000F0000000000000000000000000000000000000000000000000000000000F5000000000000000000000000F5000000000000000000000000000000000000000000000000000000000000000000000000000000
310
000000000000000000000000F5F5F5000000F5F5F5F500F5F5F50000000000F5F5F5F5F5F5F50000000000000000000000000000000000000000000000000F000000002D0000000000000000000000000000000000000000000000000000000000000000000000000000000000000000000000000000000000000000000000
310
00000000000000000000000000000000000000000000000000000000000000000000000000000000002D000000000F0000000000000000000000000000000000000000000000000000000000F5000000000000000000000000F500000000000000000000000000000000000000000000000000000000000000000000000000
310
000000000000000000000000000000000000000000F5F5F5F50000000000000000F5F5F5F5F5F5000000000000000000000000000000000000000000000000000F000000002D000000000000000000000000000000000000000000000000000000000000000000000000000000000000000000000000000000000000000000
310
000000000000000000000000000000000000000000000000000000000000000000000000000000000000002D000000000F0000000000000000000000000000000000000000000000000000000000F5F5F5F5F5F5F5F5F5F5F5F5F5F50000000000000000000000000000000000000000000000000000000000000000000000
310
0000000000000000000000000000000000000000000000F5C3F5000000000000000000F5F5F5F5F5F5000000000000000000000000000000000000000000000000000F000000002D00000000000000000000000000000000000000000000000000000000000000000000000000000000000000000000000000000000000000
310
0000000000000000000000000000000000000000000000000000000000000000000000000000000000000000002D000000000F0000000000000000000000000000000000000000000000000000000000F5F5000000F5F5F5F50000F5F5F5000000000000000000000000000000000000000000000000000000000000000000
310
00000000000000000000000000000000000000000000000000F5F5F5000000000000000000F5C3F5F5F5F5F50000000000000000000000000000000000000000000000000F000000002D0000000000000000000000000000000000000000000000000000000000000000000000000000000000000000000000000000000000
310
00000000000000000000000000000000000000000000000000000000000000000000000000000000000000000000002D000000000F00000000000000000000000000000000000000000000000000000000000000000000F5F5F5F5000000000000000000000000000000000000000000000000000000000000000000000000
310
000000000000000000000000000000000000000000000000000000F5C3F5F5F5F5F5F5F5F5F5F5F5C3F5F5F5F5F50000000000000000000000000000000000000000000000000F000000002D000000000000000000000000000000000000000000000000000000000000000000000000000000000000000000000000000000
310
000000000000000000000000000000000000000000000000000000000000000000000000000000000000000000000000002D000000000F000000000000000000000000000000000000000000000000000000000000000000000000000000000000000000000000000000000000000000000000000000000000000000000000
310
0000000000000000000000000000000000000000000000000000000000000000000000000000000000000000000000000000000000000000000000000000000000000000000000000F000000002D00000000000000000000000000000000000000000000000000000000000000000000000000000000000000000000000000
310
0000000000000000000000000000000000000000000000000000000000000000000000000000000000000000000000000000002D000000000F00000000000000000000000000000000000000000000000000000000000000000000000000000000000000000000000000000000000000000000000000000000000000000000
310
00000000000000000000000000000000000000000000000000000000000000000000000000000000000000000000000000000000000000000000000000000000000000000000000000000F000000002D0000000000000000000000000000000000000000000000000000000000000000000000000000000000000000000000
310
00000000000000000000000000000000000000000000000000000000000000000000000000000000000000000000000000000000002D000000000F0000000000000000000000000000000000000000000000000000000000000000000000000000000000000000000000000000000000000000000000000000000000000000
310
00000000000000000000000000000000000000000000000000000000000000000000F5F5F5F5F5F5F5F5F5F5F5000000000000000000000000000000000000000000000000000000000000000F000000002D000000000000000000000000000000000000000000000000000000000000000000000000000000000000000000
310
000000000000000000000000000000000000000000000000000000000000000000000000000000000000000000000000000000000000002D000000000F000000000000000000000000000000000000000000000000000000000000000000000000000000000000000000000000000000000000000000000000000000000000
310
0000000000000000000000000000000000000000000000000000000000000000000000000000000000000000000000000000000000000000000000000000000000000000000000000000000000000F000000002D00000000000000000000000000000000000000000000000000000000000000000000000000000000000000
310
0000000000000000000000000000000000000000000000000000000000000000000000000000000000000000000000000000000000000000002D000000000F000000000000000000000000000000000000000000000000000000000000F5F5F5F5F5F5F5F5F5F5F50000000000000000000000000000000000000000000000
310
00000000000000000000000000000000000000000000000000000000000000000000000000000000000000000000000000000000000000000000000000000000000000000000000000000000000000000F000000002D0000000000000000000000000000000000000000000000000000000000000000000000000000000000
310
00000000000000000000000000000000000000000000000000000000000000000000000000000000000000000000000000000000000000000000002D000000000F0000000000000000000000000000000000000000000000000000000000000000000000000000000000000000000000000000000000000000000000000000
310
000000000000000000000000000000000000000000000000000000000000000000000000000000000000000000000000000000000000000000000000000000000000000000000000000000000000000000000F000000002D000000000000000000000000000000000000000000000000000000000000000000000000000000
310
000000000000000000000000000000000000000000000000000000000000000000000000000000000000000000000000000000000000000000000000002D000000000F000000000000000000000000000000000000000000000000000000000000000000000000000000000000000000000000000000000000000000000000
310
0000000000000000000000000000000000000000000000000000000000000000000000000000000000000000000000000000000000000000000000000000000000000000000000000000000000000000000000000F000000002D00000000000000000000000000000000000000000000000000000000000000000000000000
310
0000000000000000000000000000000000000000000000000000000000000000000000000000000000000000000000000000000000000000000000000000002D000000000F000000000000000000000000000000000000000000000000000000000000000000F5F5F5F5F50000000000000000000000000000000000000000
310
0000000000000000000000000000000000000000000000000000000000000000000000000000000000000000000000000000000000000000000000F5F5F50000F5F5F5000000000000000000000000000000000000000F000000002D0000000000000000000000000000000000000000000000000000000000000000000000
310
00000000000000000000000000000000000000000000000000000000000000000000000000000000000000000000000000000000000000000000000000000000002D000000000F000000000000000000000000000000000000000000000000000000000000000000F5F5F5F5F5000000000000000000000000000000000000
310
0000000000000000000000000000000000000000000000000000000000000000000000000000000000000000000000000000000000000000000000F5F5F5F5F5F5F5F5F5F5000000000000000000000000000000000000000F000000002D000000000000000000000000000000000000000000000000000000000000000000
310
000000000000000000000000000000000000000000000000000000000000000000000000000000000000000000000000000000000000000000000000000000000000002D000000000F000000000000000000000000000000000000000000000000000000000000000000000000000000000000000000000000000000000000
310
00000000000000000000000000000000000000000000000000000000000000000000000000F5F5F5F5F5F5F5F5F5000000000000000000000000F5F5F5F500000000F5F5F50000000000000000000000000000000000000000000F000000002D00000000000000000000000000000000000000000000000000000000000000
310
0000000000000000000000000000000000000000000000000000000000000000000000000000000000000000000000000000000000000000000000000000000000000000002D000000000F00000000000000000000000000000000000000000000000000000000000000000000000000000000000000000000000000000000
310
000000000000000000000000000000000000000000000000000000000000000000000000000000F5F5F5F5F5F5F500F5F5F5F5F5F5F5F5F5F5F5F5F5F5F5C3F5F5F5F5F50000000000000000000000000000000000000000000000000F000000002D0000000000000000000000000000000000000000000000000000000000
310
00000000000000000000000000000000000000000000000000000000000000000000000000000000000000000000000000000000000000000000000000000000000000000000002D000000000F0000000000000000000000000000000000000000000000000000000000000000000000000000000000000000000000000000
310
00000000000000000000000000000000000000000000000000000000000000000000000000000000000000F500F5000000F5F5F5C3F500F5F5F50000000000F5F5F50000F5F50000000000000000000000000000000000000000000000000F000000002D000000000000000000000000000000000000000000000000000000
310
000000000000000000000000000000000000000000000000000000000000000000000000000000000000000000000000000000000000000000000000000000000000000000000000002D000000000F000000000000000000000000000000000000000000000000000000000000000000000000000000000000000000000000
310
00000000000000000000000000000000000000000000000000000000000000000000000000000000000000000000000000000000F5F5C3F5F50000000000000000F5F5F50000F5000000000000000000000000000000000000000000000000000F000000002D00000000000000000000000000000000000000000000000000
310
0000000000000000000000000000000000000000000000000000000000000000000000000000000000000000000000000000000000000000000000000000000000000000000000000000002D000000000F00000000000000000000000000000000000000000000000000000000000000000000000000000000000000000000
310
000000000000000000000000000000000000000000000000000000000000000000000000000000F50000000000000000000000000000F5F5F5F5000000000000000000F5C3F5F5F5F5000000000000000000000000000000000000000000000000000F000000002D0000000000000000000000000000000000000000000000
310
00000000000000000000000000000000000000000000000000000000000000000000000000000000000000000000000000000000000000000000000000000000000000000000000000000000002D000000000F0000000000000000000000000000000000000000000000000000000000000000000000000000000000000000
310
000000000000000000000000000000000000000000000000000000000000000000000000000000F5F5F5F5F5000000000000000000000000F5F5C3F5000000000000000000F5C3F5F5F5F5000000000000000000000000000000000000000000000000000F000000002D000000000000000000000000000000000000000000
310
000000000000000000000000000000000000000000000000000000000000000000000000000000000000000000000000000000000000000000000000000000000000000000000000000000000000002D000000000F000000000000000000000000000000000000000000000000000000000000000000000000000000000000
310
0000000000000000000000000000000000000000000000000000000000000000000000000000000000F5F500F5F5000000000000000000000000F5F5F5F5000000000000000000F5C3F5F5F5F5000000000000000000000000000000000000000000000000000F000000002D00000000000000000000000000000000000000
310
0000000000000000000000000000000000000000000000000000000000000000000000000000000000000000000000000000000000000000000000000000000000000000000000000000000000000000002D000000000F00000000000000000000000000000000000000000000000000000000000000000000000000000000
310
0000000000000000000000000000000000000000000000F5F5F5F5F5F5F5F5F5F5F5F5F5F5F5F5F5F5F5F5F5F5F5F5F5F5000000000000000000000000F5C3F5000000000000000000F5C3F5F5F5F5000000000000000000000000000000000000000000000000000F000000002D0000000000000000000000000000000000
310
00000000000000000000000000000000000000000000000000000000000000000000000000000000000000000000000000000000000000000000000000000000000000000000000000000000000000000000002D000000000F0000000000000000000000000000000000000000000000000000000000000000000000000000
310
00000000000000000000000000000000000000000000000000C3C3C3C300000000000000000000C3C3C3C30000F5000000F5F5F50000000000000000000000F5C3F5000000000000000000F5C3F50000F5000000000000000000000000000000000000000000000000000F000000002D000000000000000000000000000000
310
000000000000000000000000000000000000000000000000000000000000000000000000000000000000000000000000000000000000000000000000000000000000000000000000000000000000000000000000002D000000000F000000000000000000000000000000000000000000000000000000000000000000000000
310
000000000000000000000000000000000000000000000000000000C3C3C3C3F5F5F5F5F5F5F5F5F5F5C3C3C3C3F5F5F5F50000F5F5F50000000000000000000000F5F5F5000000000000000000F5C3F50000F5000000000000000000000000000000000000000000000000000F000000002D00000000000000000000000000
310
0000000000000000000000000000000000000000000000000000000000000000000000000000000000000000000000000000000000000000000000000000000000000000000000000000000000000000000000000000002D000000000F0000000000000000000000000000000000000000000000000000000000F500000000
310
00000000000000F5000000000000000000000000000000000000000000C3C3F5000000000000000000000000F5C3C30000F5000000F5F5F50000000000000000000000F5F5F5000000000000000000F5C3F50000F5F50000000000000000000000000000000000000000000000000F000000002D0000000000000000000000
310
00000000000000000000000000000000000000000000000000000000000000000000000000000000000000000000000000000000000000000000000000000000000000000000000000000000000000000000000000000000002D000000000F0000000000000000000000000000000000000000000000000000000000F5F5F5
310
F5F5F5F5F5F5F5F5F5F5000000000000000000000000000000000000000000F5F5F5F5F5F5F5F5F5F5F5F5F5F5F5F5F5F5F5F5F5F5F5F5F5F5000000000000000000000000F5F5F5F5F5F5F5F5F5F5F5F5F5F5F5F5F5F5F50000000000000000000000000000000000000000000000000F000000002D000000000000000000
310
000000000000000000000000000000000000000000000000000000000000000000000000000000000000000000000000000000000000000000000000000000000000000000000000000000000000000000000000000000000000002D000000000F0000000000000000000000000000000000000000000000000000000000F5
310
00000000F5F5F5F5000000F50000F5000000000000000000000000000000000000F500F5F500000000000000000000F5F500F50000F5F5F5F5F500000000000000000000000000000000000000000000000000000000000000000000000000000000000000000000000000000000000000000F000000002D00000000000000
310
0000000000000000000000000000000000000000000000000000000000000000000000000000000000000000000000000000000000000000000000000000000000000000000000000000000000000000000000000000000000000000002D000000000F00000000000000000000000000000000000000000000000000000000
310
00F500000000F5F5F5F5000000F50000F5000000000000000000000000000000F5F5F5F5F5F5F5F5F5F500000000F5F5F5F5F5F5F5F5F5F5F5F5F5F50000000000000000000000000000F5F5F5F5F5F5F5F5F5F5F5000000000000000000000000000000000000000000000000000000000000000F000000002D0000000000
310
00000000000000000000000000000000000000000000000000000000000000000000000000000000000000000000000000000000000000000000000000000000000000000000000000000000000000000000000000000000000000000000002D000000000F0000000000000000000000000000000000000000000000000000
310
000000F5F5F5F5F5F5F5F5F5F5F5F5F5F5F5F5F5F500000000000000000000000000000000F5F5F50000F5F5F50000F5F5F50000F5F5F500000000F5F5000000000000000000000000000000F5F5F5F5F5F5F5F5F5F5F5000000000000000000000000000000000000000000000000000000000000000F000000002D000000
310
000000000000000000000000000000000000000000000000000000000000000000000000000000000000000000000000000000000000000000000000000000000000000000000000000000000000000000000000000000000000000000000000002D000000000F000000000000000000000000000000000000000000000000
310
0000000000C3C3C3C3C3C3C3C3C3C3C3C3C3F500F5F5F5F5000000000000000000000000000000F5F5F50000F5F5F5000000F5F50000F5F5F50000000000000000000000000000000000000000000000000000000000000000000000000000000000000000000000000000000000000000000000000000000F000000002D00
310
0000000000000000000000000000000000000000000000000000000000000000000000000000000000000000000000000000000000000000000000000000000000000000000000000000000000000000000000000000000000000000000000000000002D000000000F00000000000000000000000000000000000000000000
310
00000000000000F5F5F5F5F5F5F5F5F5F5F5F5F5F5F5F5F5F5F500000000000000000000000000000000000000000000000000000000000000F5F50000000000000000000000000000000000000000000000000000000000000000000000000000000000000000000000000000000000000000000000000000000F00000000
310
2D000000000000000000000000000000000000000000000000000000000000000000000000000000000000000000000000000000000000000000000000000000000000000000000000000000000000000000000000000000000000000000000000000000002D000000000F0000000000000000000000000000000000000000
310
000000000000000000000000000000000000000000000000F50000000000000000000000000000000000000000000000000000000000000000F5F5F5F5F5F5F5F5F5000000000000000000000000000000000000000000000000000000000000000000000000000000000000000000000000000000000000000000000F0000
310
00002D000000000000000000000000000000000000000000000000000000000000000000000000000000000000000000000000000000000000000000000000000000000000000000000000000000000000000000000000000000000000000000000000000000002D000000000F000000000000000000000000000000000000
310
0000000000000000000000000000000000000000000000000000F5000000000000000000000000000000000000000000000000000000000000F5F5F500F5F5F5F5F5F50000000000000000000000000000000000000000000000000000000000000000F5F5000000000000000000000000000000000000000000000000000F
310
000000002D000000000000000000000000000000000000000000000000000000000000000000000000000000000000000000000000000000000000000000000000000000000000000000000000000000000000000000000000000000000000000000000000000000002D000000000F00000000000000000000000000000000
310
00000000000000000000000000000000000000F5F5F5F5F5F5F5F5F5F500000000000000000000000000000000000000000000000000000000F5F500F500000000000000000000000000000000000000000000000000000000000000000000000000000000F5F5000000000000000000000000000000000000000000000000
310
000F000000002D000000000000000000000000000000000000000000000000000000000000000000000000000000000000000000000000000000000000000000000000000000000000000000000000000000000000000000000000000000000000000000000000000000002D000000000F0000000000000000000000000000
310
000000000000000000000000000000000000000000F500F5F5F5F5F5F5F500000000000000000000000000000000000000F5F5F5F5F5F5C3F5F5F5F5C3F5F5F5F5F5F5F5F5F5F50000000000000000000000000000000000000000000000000000000000000000F5F5F5000000000000000000000000000000000000000000
310
0000000F000000002D000000000000000000000000000000000000000000000000000000000000000000000000000000000000000000000000000000000000000000000000000000000000000000000000000000000000000000000000000000000000000000000000000000002D000000000F000000000000000000000000
310
0000000000000000000000000000000000000000000000F5000000F500F5000000000000000000000000000000000000000000F5C3C3C3C3C3F5F5C3C3C3F5F5C3C3C3C3F50000F5F50000000000000000000000000000000000F5F5F5F5F5F5F5F5F5F5F5F5F5F5F5F5F5F5F5F5F500000000000000000000000000000000
310
00000000000F000000002D000000000000000000000000000000000000000000000000000000000000000000000000000000000000000000000000000000000000000000000000000000000000000000000000000000000000000000000000000000000000000000000000000000002D000000000F00000000000000000000
310
00000000000000000000000000000000000000F5C3F5F5F5C3F5F5C3F5F5F5C3F5F5F5F5F5000000000000F5F5F50000F5F5000000F5C3F5F5F5F5C3F5F5F5F5C3F5F5F5F5C3F50000F50000000000000000000000000000000000F5C3C3C3C3C3C3C3C3C3C3C3C3C3F50000F5000000F50000000000000000000000000000
310
000000000000000F000000002D000000000000000000000000000000000000000000000000000000000000000000000000000000000000000000000000000000000000000000000000000000000000000000000000000000000000000000000000000000000000000000000000000000002D000000000F0000000000000000
310
0000000000000000000000F5F5F50000F5F5000000C3C3C3C3C3C3C3C3C3C3C3C3C3F50000F500000000000000F5F5F5F5F5F5F5F5F500F5C3F5F5F5F5F5F5F5F5F5F5F5F5F5F5C3F50000F50000000000000000000000000000000000F5C3F5F5F5F5F5F5F5F5F5F5F5C3F5F5F5F5F50000F5000000000000000000000000
310
0000000000000000000F000000002D000000000000000000000000000000000000000000000000000000000000000000000000000000000000000000000000000000000000000000000000000000000000000000000000000000000000000000000000000000000000000000000000000000002D000000000F000000000000
310
00000000000000000000000000F5F5F5F5F5F5F5F5F5F5F5C3F5F5F5C3F5F5C3F5F5F5C3F50000F5000000000000000000F5F5F5F5000000F5F5C3F5F50000000000000000F5F5F5F5C3F50000F50000000000000000000000000000000000F5C3F5000000000000000000F5C3F50000F5F50000F500000000000000000000
310
00000000000000000000000F000000002D000000000000000000000000000000000000000000000000000000000000000000000000000000000000000000000000000000000000000000000000000000000000000000000000000000000000000000000000000000000000000000000000000000002D000000000F00000000
310
000000000000000000000000000000F5F5F5F5F5F5F5000000C3C3C3C3C3C3C3C3C3C3C3C3C3F50000F500000000000000000000000000000000F5F5C3F5F5F5F5F5F5F5F5F5F5F5F5F5F5C3F50000F50000000000000000000000000000000000F5C3F5000000000000000000F5C3F50000F5000000F50000000000000000
310
000000000000000000000000000F000000002D000000000000000000000000000000000000000000000000000000000000000000000000000000000000000000000000000000000000000000000000000000000000000000000000000000000000000000000000000000000000000000000000000000002D000000000F0000
310
000000000000000000000000000000000000000000000000000000F5C3F5F5F5F5F5F5F5F5F500C3F50000F50000000000000000000000000000000000F5F5C3C3000000F5F5F5F500F500C3C3C3C30000F50000000000000000000000000000000000F5C3F5000000000000000000F5C3F50000F5000000F5000000000000
310
0000000000000000000000000000000F000000002D000000000000000000000000000000000000000000000000000000000000000000000000000000000000000000000000000000000000000000000000000000000000000000000000000000000000000000000000000000000000000000000000000000002D000000000F
310
0000000000000000000000000000000000000000000000000000000000F5C3F5F5F5C3F500F5F5F500C3F5F5F5F50000000000000000000000000000000000F5F5F5F5000000F5F5F5F500F500F5F5C3F5F5F5F50000000000000000000000000000000000F5C3F5000000000000000000F5C3F5F5F5F500F5F5F500000000
310
00000000000000000000000000000000000F000000002D000000000000000000000000000000000000000000000000000000000000000000000000000000000000000000000000000000000000000000000000000000000000000000000000000000000000000000000000000000000000000000000000000000002D000000
310
000F0000000000000000000000000000000000000000000000000000000000F5C3F5F5F5C3F500C3F5F500C3F5F5F5F50000000000000000000000000000000000F5F5F5F5000000000000F5F5F500F5F5C3F5F5F5F50000000000000000000000000000000000F5C3F5000000000000000000F5C3F5F5F5F500F5F5F50000
310
000000000000000000000000000000000000000F000000002D000000000000000000000000000000000000000000000000000000000000000000000000000000000000000000000000000000000000000000000000000000000000000000000000000000000000000000000000000000000000000000000000000000002D00
310
0000000F0000000000000000000000000000000000000000000000000000000000F5C3F5F5F5C3F500F5F5F500C3F5F5F5F50000000000000000000000000000000000F5C3F5F5000000000000F5F5F500F5F5C3F5F5F5F50000000000000000000000000000000000F5C3F5000000000000000000F5C3F5F5F5F500F5F5F5
310
0000000000000000000000000000000000000000000F000000002D00000000000000000000000000000000000000000000000000000000000000000000000000000000000000000000000000000000000000000000000000000000000000000000000000000000000000000000000000000000000000000000000000000000
310
2D000000000F0000000000000000000000000000000000000000000000000000000000F5C3F5F5F5F5F5F5F5F5F500C3F5F5F5F50000000000000000000000000000000000F5C3F5F5000000000000F5F5F500F5F5C3F5F5F5F50000000000000000000000000000000000F5C3F5000000000000000000F5C3F5F5F5F500F5
310
F5F50000000000000000000000000000000000000000000F000000002D0000000000000000000000000000000000000000000000000000000000000000000000000000000000000000000000000000000000000000000000000000000000000000000000000000000000000000000000000000000000000000000000000000
310
00002D000000000F0000000000000000000000000000000000000000000000000000000000C3C3C3C3C3F5F5F5C3C3C3C3C3F50000F50000000000000000000000000000000000C3C3C3C3000000000000F5F5F500C3C3C3C30000F50000000000000000000000000000000000F5C3F5000000000000000000F5C3F50000F5
310
000000F50000000000000000000000000000000000000000000F000000002D000000000000000000000000000000000000000000000000000000000000000000000000000000000000000000000000000000000000000000000000000000000000000000000000000000000000000000000000000000000000000000000000
310
000000002D000000000F0000000000000000000000000000000000000000000000000000000000F5C3000000C3F500C3000000C3F50000F50000000000000000000000000000000000F5C3F5F50000000000000000F5F5F5F5C3F50000F50000000000000000000000000000000000F5C3F5000000000000000000F5C3F500
310
00F5F50000F50000000000000000000000000000000000000000000F000000002D00000000000000000000000000000000000000000000000000000000000000000000000000000000000000000000000000000000000000000000000000000000000000000000000000000000000000000000000000000000000000000000
310
0000000000002D000000000F0000000000000000000000000000000000000000000000000000000000F5C3000000C3F500C3000000C3F50000F50000000000000000000000000000000000F5C3F5F5F5F5F5F5F5F5F5F5F5F5F5F5C3F50000F50000000000000000000000000000000000F5C3F5F5F5F5F5F5F5F5F5F5F5C3
310
F5F5F5F5F50000F50000000000000000000000000000000000000000000F000000002D0000000000000000000000000000000000000000000000000000000000000000000000000000000000000000000000000000000000000000000000000000000000000000000000000000000000000000000000000000000000000000
310
00000000000000002D000000000F0000000000000000000000000000000000000000000000000000000000C3C3C3C3C3C3C3C3C3C3C3C3C3F50000F50000000000000000000000000000000000F5C3F5F5F5F5C3F5F5F5F5C3F5F5F5F5C3F50000F50000000000000000000000000000000000F5C3C3C3C3C3C3C3C3C3C3C3
310
C3C3F50000F5000000F50000000000000000000000000000000000000000000F000000002D000000000000000000000000000000000000000000000000000000000000000000000000000000000000000000000000000000000000000000000000000000000000000000000000000000000000000000000000000000000000
310
000000000000000000002D000000000F0000000000000000000000000000000000000000000000000000000000F5F5F5F5F5F5F5F5F5F5F5F5F5F5F5F5F5F500000000000000000000000000000000F5C3F5F5F5F5C3F5F5F5F5C3F5F5F5F5C3F50000F50000000000000000000000000000000000F5F5F5F5F5F5F5F5F5F5
310
F5F5F5F5F5F5F5F5F5F5F5F50000000000000000000000000000000000000000000F000000002D00000000000000000000000000000000000000000000000000000000000000000000000000000000000000000000000000000000000000000000000000000000000000000000000000000000000000000000000000000000
310
0000000000000000000000002D000000000F0000000000000000000000000000000000000000000000000000000000F5000000000000000000000000F50000000000000000000000000000000000000000F5C3C3C3C3C3C3C3C3C3C3C3C3C3C3C3C3F50000F5F500000000000000000000000000000000F500F50000000000
310
00000000F500F50000F5F50000000000000000000000000000000000000000000000000F000000002D0000000000000000000000000000000000000000000000000000000000000000000000000000000000000000000000000000000000000000000000000000000000000000000000000000000000000000000000000000
310
00000000000000000000000000002D000000000F0000000000000000000000000000000000000000000000000000000000F5F5000000000000000000F500F50000000000000000000000000000000000000000F5F5F5F5F5F5F5F5F5F5F5F5F5F5F5F5F5F5F5F5F5F500000000000000000000000000000000F500F5000000
310
000000000000F500F500F5F5000000000000000000000000000000000000000000000000000F000000002D000000000000000000000000000000000000000000000000000000000000000000000000000000000000000000000000000000000000000000000000000000000000000000000000000000000000000000000000
310
000000000000000000000000000000002D000000000F0000000000000000000000000000000000000000000000000000000000F5F5F5F5F5F5F5F5F5F5F5F5F5F50000000000000000000000000000000000000000F5F5F5F5F5F5F5F5F5F5F5F5F5F5F5F5F5F50000000000000000000000000000000000000000F500F500
310
0000000000000000F500F500F5F5000000000000000000000000000000000000000000000000000F000000002D00000000000000000000000000000000000000000000000000000000000000000000000000000000000000000000000000000000000000000000000000000000000000000000000000000000000000000000
310
0000000000000000000000000000000000002D000000000F00000000000000000000000000000000000000000000000000000000000000000000F5F5F5F500000000000000000000000000000000000000000000000000F5F50000000000F5F5F5F50000000000F5F50000000000000000000000000000000000000000F500
310
F5000000000000000000F500F500F5F5000000000000000000000000000000000000000000000000000F000000002D0000000000000000000000000000000000000000000000000000000000000000000000000000000000000000000000000000000000000000000000000000000000000000000000000000000000000000
310
00000000000000000000000000000000000000002D000000000F00000000000000000000000000000000000000000000000000000000000000000000F5F5F5F50000000000000000000000000000000000000000000000000000000000000000F5F5F5F5000000000000000000000000000000000000000000000000F5F5F5
310
F5F5F5F5F5F5F5F5F5F5F5F5F5F5F5F5F5F5000000000000000000000000000000000000000000000000000F000000002D000000000000000000000000000000000000000000000000000000000000000000000000000000000000000000000000000000000000000000000000000000000000000000000000000000000000
310
000000000000000000000000000000000000000000002D000000000F00000000000000000000000000000000000000000000000000000000000000000000000000000000000000000000000000000000000000000000000000000000000000000000F5F5F5F5000000000000000000000000000000000000000000000000F5
310
F5F5F500000000F5F5F5F50000000000F5F5F5F5000000000000000000000000000000000000000000000000000F000000002D00000000000000000000000000000000000000000000000000000000000000000000000000000000000000000000000000000000000000000000000000000000000000000000000000000000
310
0000000000000000000000000000000000000000000000002D000000000F00000000000000000000000000000000000000000000000000000000000000000000000000000000000000000000000000000000000000000000000000000000000000000000000000000000000000000000000000000000000000000000000000
310
00F5F500F5F5000000F5F5F5F500000000F5F5000000000000000000000000000000000000000000000000000000000F000000002D0000000000000000000000000000000000000000000000000000000000000000000000000000000000000000000000000000000000000000000000000000000000000000000000000000
310
00000000000000000000000000000000000000000000000000002D000000000F0000000000000000000000000000000000000000000000000000000000000000000000000000000000000000000000000000000000000000000000000000000000000000000000000000000000000000000000000000000000000000000000
310
000000000000F5F5F5F5F5F5F5F5F5F5F5F5F5F5F5000000000000000000000000000000000000000000000000000000000F000000002D000000000000000000000000000000000000000000000000000000000000000000000000000000000000000000000000000000000000000000000000000000000000000000000000
310
000000000000000000000000000000000000000000000000000000002D000000000F000000000000000000000000000000000000000000000000000000000000000000000000000000000000000000000000000000000000000000000000000000000000000000000000000000000000000000000000000000000000000000
310
00000000000000000000000000F5F5F5F5000000000000000000000000000000000000000000000000000000000000000000000F000000002D00000000000000000000000000000000000000000000000000000000000000000000000000000000000000000000000000000000000000000000000000000000000000000000
310
0000000000000000000000000000000000000000000000000000000000002D000000000F00000000000000000000000000000000000000000000000000000000000000000000000000000000000000000000000000000000000000000000000000000000000000000000000000000000000000000000000000000000000000
310
00000000000000000000000000000000F5F5F5000000000000000000000000000000000000000000000000000000000000000000000F000000002D0000000000000000000000000000000000000000000000000000000000000000000000000000000000000000000000000000000000000000000000000000000000000000
310
00000000000000000000000000000000000000000000000000000000000000002D000000000F0000000000000000000000000000000000000000000000000000000000000000000000000000000000000000000000000000000000000000000000000000000000000000000000000000000000000000000000000000000000
310
000000000000000000000000000000000000000000000000000000000000000000000000000000000000000000000000000000000000000F000000002D000000000000000000000000000000000000000000000000000000000000000000000000000000000000000000000000000000000000000000000000000000000000
310
000000000000000000000000000000000000000000000000000000000000000000002D000000000F000000000000000000000000000000000000000000000000000000000000F5F5F5F5F5F5F5F5F5F5F500000000000000000000000000000000000000000000000000F5F5F5F5F5F5F5F5F5F5F500000000000000000000
310
0000000000000000000000000000000000000000000000000000000000000000000000000000000000000000000000000000000000000000000F000000002D00000000000000000000000000000000000000000000000000000000000000000000000000000000000000000000000000000000000000000000000000000000
310
0000000000000000000000000000000000000000000000000000000000000000000000002D000000000F000000000000000000000000000000000000000000000000000000000000F5F5F5F5F5F5F5F5F5F5F500000000000000000000000000000000000000000000000000F5F5F5F5F5F5F5F5F5F5F50000000000000000
310
00000000000000000000000000000000000000000000000000000000000000000000000000000000000000000000000000000000000000000000000F000000002D0000000000000000000000000000000000000000000000000000000000000000000000000000000000000000000000000000000000000000000000000000
310
00000000000000000000000000000000000000000000000000000000000000000000000000002D000000000F0000000000000000000000000000000000000000000000000000000000000000000000000000000000000000000000000000000000000000000000000000000000000000000000000000000000000000000000
310
000000000000000000000000000000000000000000000000000000000000000000000000000000000000000000000000000000000000000000000000000F000000002D000000000000000000000000000000000000000000000000000000000000000000000000000000000000000000000000000000000000000000000000
310
000000000000000000000000000000000000000000000000000000000000000000000000000000002D000000000F000000000000000000000000000000000000000000000000000000000000000000000000000000000000000000000000000000000000000000000000000000000000000000000000000000000000000000
310
0000000000000000000000000000000000000000000000000000000000000000000000000000000000000000000000000000000000000000000000000000000F000000002D00000000000000000000000000000000000000000000000000000000000000000000000000000000000000000000000000000000000000000000
310
0000000000000000000000000000000000000000000000000000000000000000000000000000000000002D000000000F000000000000000000000000000000000000000000000000000000000000000000F5F5F5F5F500000000000000000000000000000000000000000000000000000000000000F5F5F5F5F50000000000
310
0000000000000000000000000000000000000000000000000000F5F5F5F5F5000000000000000000000000000000000000000000000000000000000000000000000F000000002D0000000000000000000000000000000000000000000000000000000000000000000000000000000000000000000000000000000000000000
310
00000000000000000000000000000000000000000000000000000000000000000000000000000000000000002D000000000F0000000000000000000000000000000000000000000000000000000000000000000000000000000000000000000000000000000000000000000000000000000000000000000000000000000000
310
000000000000000000000000000000000000000000000000000000000000000000000000000000000000000000000000000000000000000000000000000000000000000F000000002D000000000000000000000000000000000000000000000000000000000000000000000000000000000000000000000000000000000000
310
000000000000000000000000000000000000000000000000000000000000000000000000000000000000000000002D000000000F000000000000000000000000000000000000000000000000000000000000000000000000000000000000000000000000000000000000000000000000000000000000000000000000000000
310
0000000000000000000000000000000000000000000000000000000000000000000000000000000000000000000000000000000000000000000000000000000000000000000F000000002D00000000000000000000000000000000000000000000000000000000000000000000000000000000000000000000000000000000
310
0000000000000000000000000000000000000000000000000000000000000000000000000000000000000000000000002D000000000F00000000000000000000000000000000000000000000000000000000000000000000000000000000000000000000000000000000000000000000000000000000000000000000000000
310
00000000000000000000000000000000000000000000000000000000000000000000000000000000000000000000000000000000000000000000000000000000000000000000000F000000002D0000000000000000000000000000000000000000000000000000000000000000000000000000000000000000000000000000
310
00000000000000000000000000000000000000000000000000000000000000000000000000000000000000000000000000002D000000000F0000000000000000000000000000000000000000000000000000000000000000000000000000000000000000000000000000000000000000000000000000000000000000000000
310
000000000000000000000000000000000000000000000000000000000000000000000000000000000000000000000000000000000000000000000000000000000000000000000000000F000000002D000000000000000000000000000000000000000000000000000000000000000000000000000000000000000000000000
310
000000000000000000000000000000000000000000000000000000000000000000000000000000000000000000000000000000002D000000000F0F0F0F0F0F0F0F0F0F0F0F0F0F0F0F0F0F0F0F0F0F0F0F0F0F0F0F0F0F0F0F0F0F0F0F0F0F0F0F0F0F0F0F0F0F0F0F0F0F0F0F0F0F0F0F0F0F0F0F0F0F0F0F0F0F0F0F0F0F
310
0F0F0F0F0F0F0F0F0F0F0F0F0F0F0F0F0F0F0F0F0F0F0F0F0F0F0F0F0F0F0F0F0F0F0F0F0F0F0F0F0F0F0F0F0F0F0F0F0F0F0F0F0F0F0F0F0F0F0F0F0F0F0F0F0F0F0F0F0F0F0F0F0F0F0F0F000000002D00000000000000000000000000000000000000000000000000000000000000000000000000000000000000000000
310
0000000000000000000000000000000000000000000000000000000000000000000000000000000000000000000000000000000000002D000000000000000000000000000000000000000000000000000000000000000000000000000000000000000000000000000000000000000000000000000000000000000000000000
310
000000000000000000000000000000000000000000000000000000000000000000000000000000000000000000000000000000000000000000000000000000000000000000000000000000000000000000002D0000000000000000000000000000000000000000000000000000000000000000000000000000000000000000
310
00000000000000000000000000000000000000000000000000000000000000000000000000000000000000000000000000000000000000002D00000000000000000000000000000000000000000000000000000000000000000000000000000000000000000000000000000000000000000000000000000000000000000000
310
0000000000000000000000000000000000000000000000000000000000000000000000000000000000000000000000000000000000000000000000000000000000000000000000000000000000000000000000002D000000000000000000000000000000000000000000000000000000000000000000000000000000000000
310
000000000000000000000000000000000000000000000000000000000000000000000000000000000000000000000000000000000000000000002D0000000000000000000000000000000000000000000000000000000000000000000000000000000000000000000000000000000000000000000000000000000000000000
310
00000000000000000000000000000000000000000000000000000000000000000000000000000000000000000000000000000000000000000000000000000000000000000000000000000000000000000000000000002D00000000000000000000000000000000000000000000000000000000000000000000000000000000
310
0000000000000000000000000000000000000000000000000000000000000000000000000000000000000000000000000000000000000000000000002D000000000000000000000000000000000000000000000000000000000000000000000000000000000000000000000000000000000000000000000000000000000000
310
000000000000000000000000000000000000000000000000000000000000000000000000000000000000000000000000000000000000000000000000000000000000000000000000000000000000000000000000000000002D0000000000000000000000000000000000000000000000000000000000000000000000000000
310
00000000000000000000000000000000000000000000000000000000000000000000000000000000000000000000000000000000000000000000000000002D00000000000000000000000000000000000000000000000000000000000000000000000000000000000000000000000000000000000000000000000000000000
310
0000000000000000000000000000000000000000000000000000000000000000000000000000000000000000000000000000000000000000000000000000000000000000000000000000000000000000000000000000000000002D000000000000000000000000000000000000000000000000000000000000000000000000
310
000000000000000000000000000000000000000000000000000000000000000000000000000000000000000000000000000000000000000000000000000000002D2D2D2D2D2D2D2D2D2D2D2D2D2D2D2D2D2D2D2D2D2D2D2D2D2D2D2D2D2D2D2D2D2D2D2D2D2D2D2D2D2D2D2D2D2D2D2D2D2D2D2D2D2D2D2D2D2D2D2D2D2D2D
310
2D2D2D2D2D2D2D2D2D2D2D2D2D2D2D2D2D2D2D2D2D2D2D2D2D2D2D2D2D2D2D2D2D2D2D2D2D2D2D2D2D2D2D2D2D2D2D2D2D2D2D2D2D2D2D2D2D2D2D2D2D2D2D2D2D2D2D2D2D2D2D2D2D2D2D2D2D2D2D2D2D2D2D2D2D2D2D2D2D2D2D2D2D00000000000000000000000000000000000000000000000000000000000000000000
310
00000000000000000000000000000000
  0
XRECORD
  5
1C
102
{ACAD_REACTORS
330
1A
102
}
330
1A
100
AcDbXrecord
280
     1
270
     1
271
     1
  0
XRECORD
  5
1B
102
{ACAD_REACTORS
330
1A
102
}
330
1A
100
AcDbXrecord
280
     1
270
     1
271
     1
  0
XRECORD
  5
1F
102
{ACAD_REACTORS
330
1A
102
}
330
1A
100
AcDbXrecord
280
     1
270
     1
271
     1
  0
XRECORD
  5
1E
102
{ACAD_REACTORS
330
1A
102
}
330
1A
100
AcDbXrecord
280
     1
270
     1
271
     1
  0
XRECORD
  5
20
102
{ACAD_REACTORS
330
1A
102
}
330
1A
100
AcDbXrecord
280
     1
270
     1
271
     1
  0
XRECORD
  5
1D
102
{ACAD_REACTORS
330
1A
102
}
330
1A
100
AcDbXrecord
280
     1
270
     1
271
     1
  0
XRECORD
  5
14
102
{ACAD_REACTORS
330
12
102
}
330
12
100
AcDbXrecord
280
     1
270
     1
271
     1
  0
XRECORD
  5
13
102
{ACAD_REACTORS
330
12
102
}
330
12
100
AcDbXrecord
280
     1
270
     1
271
     1
  0
XRECORD
  5
17
102
{ACAD_REACTORS
330
12
102
}
330
12
100
AcDbXrecord
280
     1
270
     1
271
     1
  0
XRECORD
  5
16
102
{ACAD_REACTORS
330
12
102
}
330
12
100
AcDbXrecord
280
     1
270
     1
271
     1
  0
XRECORD
  5
18
102
{ACAD_REACTORS
330
12
102
}
330
12
100
AcDbXrecord
280
     1
270
     1
271
     1
  0
XRECORD
  5
15
102
{ACAD_REACTORS
330
12
102
}
330
12
100
AcDbXrecord
280
     1
270
     1
271
     1
  0
XRECORD
  5
24
102
{ACAD_REACTORS
330
22
102
}
330
22
100
AcDbXrecord
280
     1
270
     1
271
     1
  0
XRECORD
  5
23
102
{ACAD_REACTORS
330
22
102
}
330
22
100
AcDbXrecord
280
     1
270
     1
271
     1
  0
XRECORD
  5
27
102
{ACAD_REACTORS
330
22
102
}
330
22
100
AcDbXrecord
280
     1
270
     1
271
     1
  0
XRECORD
  5
26
102
{ACAD_REACTORS
330
22
102
}
330
22
100
AcDbXrecord
280
     1
270
     1
271
     1
  0
XRECORD
  5
28
102
{ACAD_REACTORS
330
22
102
}
330
22
100
AcDbXrecord
280
     1
270
     1
271
     1
  0
XRECORD
  5
25
102
{ACAD_REACTORS
330
22
102
}
330
22
100
AcDbXrecord
280
     1
270
     1
271
     1
  0
CELLSTYLEMAP
  5
116A
102
{ACAD_REACTORS
330
ED
102
}
330
ED
100
AcDbCellStyleMap
 90
        3
300
CELLSTYLE
  1
TABLEFORMAT_BEGIN
 90
        5
170
     1
 91
        0
 92
    32768
 62
   257
 93
        1
300
CONTENTFORMAT
  1
CONTENTFORMAT_BEGIN
 90
        0
 91
        0
 92
      512
 93
        0
300

 40
0.0
140
1.0
 94
        5
 62
     0
340
50
144
6.0
309
CONTENTFORMAT_END
171
     1
301
MARGIN
  1
CELLMARGIN_BEGIN
 40
1.5
 40
1.5
 40
1.5
 40
1.5
 40
4.5
 40
4.5
309
CELLMARGIN_END
 94
        6
 95
        1
302
GRIDFORMAT
  1
GRIDFORMAT_BEGIN
 90
        0
 91
        1
 62
     0
 92
       -2
340
0
 93
        0
 40
1.125
309
GRIDFORMAT_END
 95
        2
302
GRIDFORMAT
  1
GRIDFORMAT_BEGIN
 90
        0
 91
        1
 62
     0
 92
       -2
340
0
 93
        0
 40
1.125
309
GRIDFORMAT_END
 95
        4
302
GRIDFORMAT
  1
GRIDFORMAT_BEGIN
 90
        0
 91
        1
 62
     0
 92
       -2
340
0
 93
        0
 40
1.125
309
GRIDFORMAT_END
 95
        8
302
GRIDFORMAT
  1
GRIDFORMAT_BEGIN
 90
        0
 91
        1
 62
     0
 92
       -2
340
0
 93
        0
 40
1.125
309
GRIDFORMAT_END
 95
       16
302
GRIDFORMAT
  1
GRIDFORMAT_BEGIN
 90
        0
 91
        1
 62
     0
 92
       -2
340
0
 93
        0
 40
1.125
309
GRIDFORMAT_END
 95
       32
302
GRIDFORMAT
  1
GRIDFORMAT_BEGIN
 90
        0
 91
        1
 62
     0
 92
       -2
340
0
 93
        0
 40
1.125
309
GRIDFORMAT_END
309
TABLEFORMAT_END
  1
CELLSTYLE_BEGIN
 90
        1
 91
        1
300
_TITLE
309
CELLSTYLE_END
300
CELLSTYLE
  1
TABLEFORMAT_BEGIN
 90
        5
170
     1
 91
        0
 92
        0
 62
   257
 93
        1
300
CONTENTFORMAT
  1
CONTENTFORMAT_BEGIN
 90
        0
 91
        0
 92
      512
 93
        0
300

 40
0.0
140
1.0
 94
        5
 62
     0
340
50
144
4.5
309
CONTENTFORMAT_END
171
     1
301
MARGIN
  1
CELLMARGIN_BEGIN
 40
1.5
 40
1.5
 40
1.5
 40
1.5
 40
4.5
 40
4.5
309
CELLMARGIN_END
 94
        6
 95
        1
302
GRIDFORMAT
  1
GRIDFORMAT_BEGIN
 90
        0
 91
        1
 62
     0
 92
       -2
340
0
 93
        0
 40
1.125
309
GRIDFORMAT_END
 95
        2
302
GRIDFORMAT
  1
GRIDFORMAT_BEGIN
 90
        0
 91
        1
 62
     0
 92
       -2
340
0
 93
        0
 40
1.125
309
GRIDFORMAT_END
 95
        4
302
GRIDFORMAT
  1
GRIDFORMAT_BEGIN
 90
        0
 91
        1
 62
     0
 92
       -2
340
0
 93
        0
 40
1.125
309
GRIDFORMAT_END
 95
        8
302
GRIDFORMAT
  1
GRIDFORMAT_BEGIN
 90
        0
 91
        1
 62
     0
 92
       -2
340
0
 93
        0
 40
1.125
309
GRIDFORMAT_END
 95
       16
302
GRIDFORMAT
  1
GRIDFORMAT_BEGIN
 90
        0
 91
        1
 62
     0
 92
       -2
340
0
 93
        0
 40
1.125
309
GRIDFORMAT_END
 95
       32
302
GRIDFORMAT
  1
GRIDFORMAT_BEGIN
 90
        0
 91
        1
 62
     0
 92
       -2
340
0
 93
        0
 40
1.125
309
GRIDFORMAT_END
309
TABLEFORMAT_END
  1
CELLSTYLE_BEGIN
 90
        2
 91
        1
300
_HEADER
309
CELLSTYLE_END
300
CELLSTYLE
  1
TABLEFORMAT_BEGIN
 90
        5
170
     1
 91
        0
 92
        0
 62
   257
 93
        1
300
CONTENTFORMAT
  1
CONTENTFORMAT_BEGIN
 90
        0
 91
        0
 92
      512
 93
        0
300

 40
0.0
140
1.0
 94
        2
 62
     0
340
50
144
4.5
309
CONTENTFORMAT_END
171
     1
301
MARGIN
  1
CELLMARGIN_BEGIN
 40
1.5
 40
1.5
 40
1.5
 40
1.5
 40
4.5
 40
4.5
309
CELLMARGIN_END
 94
        6
 95
        1
302
GRIDFORMAT
  1
GRIDFORMAT_BEGIN
 90
        0
 91
        1
 62
     0
 92
       -2
340
0
 93
        0
 40
1.125
309
GRIDFORMAT_END
 95
        2
302
GRIDFORMAT
  1
GRIDFORMAT_BEGIN
 90
        0
 91
        1
 62
     0
 92
       -2
340
0
 93
        0
 40
1.125
309
GRIDFORMAT_END
 95
        4
302
GRIDFORMAT
  1
GRIDFORMAT_BEGIN
 90
        0
 91
        1
 62
     0
 92
       -2
340
0
 93
        0
 40
1.125
309
GRIDFORMAT_END
 95
        8
302
GRIDFORMAT
  1
GRIDFORMAT_BEGIN
 90
        0
 91
        1
 62
     0
 92
       -2
340
0
 93
        0
 40
1.125
309
GRIDFORMAT_END
 95
       16
302
GRIDFORMAT
  1
GRIDFORMAT_BEGIN
 90
        0
 91
        1
 62
     0
 92
       -2
340
0
 93
        0
 40
1.125
309
GRIDFORMAT_END
 95
       32
302
GRIDFORMAT
  1
GRIDFORMAT_BEGIN
 90
        0
 91
        1
 62
     0
 92
       -2
340
0
 93
        0
 40
1.125
309
GRIDFORMAT_END
309
TABLEFORMAT_END
  1
CELLSTYLE_BEGIN
 90
        3
 91
        2
300
_DATA
309
CELLSTYLE_END
  0
XRECORD
  5
1177
102
{ACAD_REACTORS
330
1176
102
}
330
1176
100
AcDbXrecord
280
     1
102
RTVSPropertyOp0
 70
     1
102
RTVSPropertyOp1
 70
     1
102
RTVSPropertyOp2
 70
     1
102
RTVSPropertyOp3
 70
     1
102
RTVSPropertyOp4
 70
     1
102
RTVSPropertyOp5
 70
     1
102
RTVSPropertyOp6
 70
     1
102
RTVSPropertyOp7
 70
     1
102
RTVSPropertyOp8
 70
     1
102
RTVSPropertyOp9
 70
     1
102
RTVSPropertyOp10
 70
     1
102
RTVSPropertyOp11
 70
     1
102
RTVSPropertyOp12
 70
     1
102
RTVSPropertyOp13
 70
     1
102
RTVSPropertyOp14
 70
     1
102
RTVSPropertyOp15
 70
     1
102
RTVSPropertyOp16
 70
     1
102
RTVSPropertyOp17
 70
     1
102
RTVSPropertyOp18
 70
     1
102
RTVSPropertyOp19
 70
     1
102
RTVSPropertyOp20
 70
     1
102
RTVSPropertyOp21
 70
     1
102
RTVSPropertyOp22
 70
     1
102
RTVSPropertyOp23
 70
     1
102
RTVSPropertyOp24
 70
     1
102
RTVSPropertyOp25
 70
     1
102
RTVSPropertyOp26
 70
     1
102
RTVSPropertyOp27
 70
     1
102
RTVSPropertyOp28
 70
     1
102
RTVSPropertyOp29
 70
     1
102
RTVSPropertyOp30
 70
     1
102
RTVSPropertyOp31
 70
     1
102
RTVSPropertyOp32
 70
     1
  0
XRECORD
  5
117B
102
{ACAD_REACTORS
330
117A
102
}
330
117A
100
AcDbXrecord
280
     1
102
RTVSPropertyOp0
 70
     1
102
RTVSPropertyOp1
 70
     1
102
RTVSPropertyOp2
 70
     1
102
RTVSPropertyOp3
 70
     1
102
RTVSPropertyOp4
 70
     1
102
RTVSPropertyOp5
 70
     1
102
RTVSPropertyOp6
 70
     1
102
RTVSPropertyOp7
 70
     1
102
RTVSPropertyOp8
 70
     1
102
RTVSPropertyOp9
 70
     1
102
RTVSPropertyOp10
 70
     1
102
RTVSPropertyOp11
 70
     1
102
RTVSPropertyOp12
 70
     1
102
RTVSPropertyOp13
 70
     1
102
RTVSPropertyOp14
 70
     1
102
RTVSPropertyOp15
 70
     1
102
RTVSPropertyOp16
 70
     1
102
RTVSPropertyOp17
 70
     1
102
RTVSPropertyOp18
 70
     1
102
RTVSPropertyOp19
 70
     1
102
RTVSPropertyOp20
 70
     1
102
RTVSPropertyOp21
 70
     1
102
RTVSPropertyOp22
 70
     1
102
RTVSPropertyOp23
 70
     1
102
RTVSPropertyOp24
 70
     1
102
RTVSPropertyOp25
 70
     1
102
RTVSPropertyOp26
 70
     1
102
RTVSPropertyOp27
 70
     1
102
RTVSPropertyOp28
 70
     1
102
RTVSPropertyOp29
 70
     1
102
RTVSPropertyOp30
 70
     1
102
RTVSPropertyOp31
 70
     1
102
RTVSPropertyOp32
 70
     1
  0
XRECORD
  5
1179
102
{ACAD_REACTORS
330
1178
102
}
330
1178
100
AcDbXrecord
280
     1
102
RTVSPropertyOp0
 70
     1
102
RTVSPropertyOp1
 70
     1
102
RTVSPropertyOp2
 70
     1
102
RTVSPropertyOp3
 70
     1
102
RTVSPropertyOp4
 70
     1
102
RTVSPropertyOp5
 70
     1
102
RTVSPropertyOp6
 70
     1
102
RTVSPropertyOp7
 70
     1
102
RTVSPropertyOp8
 70
     1
102
RTVSPropertyOp9
 70
     1
102
RTVSPropertyOp10
 70
     1
102
RTVSPropertyOp11
 70
     1
102
RTVSPropertyOp12
 70
     1
102
RTVSPropertyOp13
 70
     1
102
RTVSPropertyOp14
 70
     1
102
RTVSPropertyOp15
 70
     1
102
RTVSPropertyOp16
 70
     1
102
RTVSPropertyOp17
 70
     1
102
RTVSPropertyOp18
 70
     1
102
RTVSPropertyOp19
 70
     1
102
RTVSPropertyOp20
 70
     1
102
RTVSPropertyOp21
 70
     1
102
RTVSPropertyOp22
 70
     1
102
RTVSPropertyOp23
 70
     1
102
RTVSPropertyOp24
 70
     1
102
RTVSPropertyOp25
 70
     1
102
RTVSPropertyOp26
 70
     1
102
RTVSPropertyOp27
 70
     1
102
RTVSPropertyOp28
 70
     1
102
RTVSPropertyOp29
 70
     1
102
RTVSPropertyOp30
 70
     1
102
RTVSPropertyOp31
 70
     1
102
RTVSPropertyOp32
 70
     1
  0
XRECORD
  5
1175
102
{ACAD_REACTORS
330
1174
102
}
330
1174
100
AcDbXrecord
280
     1
102
RTVSPropertyOp0
 70
     1
102
RTVSPropertyOp1
 70
     1
102
RTVSPropertyOp2
 70
     1
102
RTVSPropertyOp3
 70
     1
102
RTVSPropertyOp4
 70
     1
102
RTVSPropertyOp5
 70
     1
102
RTVSPropertyOp6
 70
     1
102
RTVSPropertyOp7
 70
     1
102
RTVSPropertyOp8
 70
     1
102
RTVSPropertyOp9
 70
     1
102
RTVSPropertyOp10
 70
     1
102
RTVSPropertyOp11
 70
     1
102
RTVSPropertyOp12
 70
     1
102
RTVSPropertyOp13
 70
     1
102
RTVSPropertyOp14
 70
     1
102
RTVSPropertyOp15
 70
     1
102
RTVSPropertyOp16
 70
     1
102
RTVSPropertyOp17
 70
     1
102
RTVSPropertyOp18
 70
     1
102
RTVSPropertyOp19
 70
     1
102
RTVSPropertyOp20
 70
     1
102
RTVSPropertyOp21
 70
     1
102
RTVSPropertyOp22
 70
     1
102
RTVSPropertyOp23
 70
     1
102
RTVSPropertyOp24
 70
     1
102
RTVSPropertyOp25
 70
     1
102
RTVSPropertyOp26
 70
     1
102
RTVSPropertyOp27
 70
     1
102
RTVSPropertyOp28
 70
     1
102
RTVSPropertyOp29
 70
     1
102
RTVSPropertyOp30
 70
     1
102
RTVSPropertyOp31
 70
     1
102
RTVSPropertyOp32
 70
     1
  0
XRECORD
  5
1183
102
{ACAD_REACTORS
330
1182
102
}
330
1182
100
AcDbXrecord
280
     1
102
RTVSPropertyOp0
 70
     1
102
RTVSPropertyOp1
 70
     1
102
RTVSPropertyOp2
 70
     1
102
RTVSPropertyOp3
 70
     1
102
RTVSPropertyOp4
 70
     1
102
RTVSPropertyOp5
 70
     1
102
RTVSPropertyOp6
 70
     1
102
RTVSPropertyOp7
 70
     1
102
RTVSPropertyOp8
 70
     1
102
RTVSPropertyOp9
 70
     1
102
RTVSPropertyOp10
 70
     1
102
RTVSPropertyOp11
 70
     1
102
RTVSPropertyOp12
 70
     1
102
RTVSPropertyOp13
 70
     1
102
RTVSPropertyOp14
 70
     1
102
RTVSPropertyOp15
 70
     1
102
RTVSPropertyOp16
 70
     1
102
RTVSPropertyOp17
 70
     1
102
RTVSPropertyOp18
 70
     1
102
RTVSPropertyOp19
 70
     1
102
RTVSPropertyOp20
 70
     1
102
RTVSPropertyOp21
 70
     1
102
RTVSPropertyOp22
 70
     1
102
RTVSPropertyOp23
 70
     1
102
RTVSPropertyOp24
 70
     1
102
RTVSPropertyOp25
 70
     1
102
RTVSPropertyOp26
 70
     1
102
RTVSPropertyOp27
 70
     1
102
RTVSPropertyOp28
 70
     1
102
RTVSPropertyOp29
 70
     1
102
RTVSPropertyOp30
 70
     1
102
RTVSPropertyOp31
 70
     1
102
RTVSPropertyOp32
 70
     1
  0
XRECORD
  5
118B
102
{ACAD_REACTORS
330
118A
102
}
330
118A
100
AcDbXrecord
280
     1
102
RTVSPropertyOp0
 70
     1
102
RTVSPropertyOp1
 70
     1
102
RTVSPropertyOp2
 70
     1
102
RTVSPropertyOp3
 70
     1
102
RTVSPropertyOp4
 70
     1
102
RTVSPropertyOp5
 70
     1
102
RTVSPropertyOp6
 70
     1
102
RTVSPropertyOp7
 70
     1
102
RTVSPropertyOp8
 70
     1
102
RTVSPropertyOp9
 70
     1
102
RTVSPropertyOp10
 70
     1
102
RTVSPropertyOp11
 70
     1
102
RTVSPropertyOp12
 70
     1
102
RTVSPropertyOp13
 70
     1
102
RTVSPropertyOp14
 70
     1
102
RTVSPropertyOp15
 70
     1
102
RTVSPropertyOp16
 70
     1
102
RTVSPropertyOp17
 70
     1
102
RTVSPropertyOp18
 70
     1
102
RTVSPropertyOp19
 70
     1
102
RTVSPropertyOp20
 70
     1
102
RTVSPropertyOp21
 70
     1
102
RTVSPropertyOp22
 70
     1
102
RTVSPropertyOp23
 70
     1
102
RTVSPropertyOp24
 70
     1
102
RTVSPropertyOp25
 70
     1
102
RTVSPropertyOp26
 70
     1
102
RTVSPropertyOp27
 70
     1
102
RTVSPropertyOp28
 70
     1
102
RTVSPropertyOp29
 70
     1
102
RTVSPropertyOp30
 70
     1
102
RTVSPropertyOp31
 70
     1
102
RTVSPropertyOp32
 70
     1
  0
XRECORD
  5
117D
102
{ACAD_REACTORS
330
117C
102
}
330
117C
100
AcDbXrecord
280
     1
102
RTVSPropertyOp0
 70
     1
102
RTVSPropertyOp1
 70
     1
102
RTVSPropertyOp2
 70
     1
102
RTVSPropertyOp3
 70
     1
102
RTVSPropertyOp4
 70
     1
102
RTVSPropertyOp5
 70
     1
102
RTVSPropertyOp6
 70
     1
102
RTVSPropertyOp7
 70
     1
102
RTVSPropertyOp8
 70
     1
102
RTVSPropertyOp9
 70
     1
102
RTVSPropertyOp10
 70
     1
102
RTVSPropertyOp11
 70
     1
102
RTVSPropertyOp12
 70
     1
102
RTVSPropertyOp13
 70
     1
102
RTVSPropertyOp14
 70
     1
102
RTVSPropertyOp15
 70
     1
102
RTVSPropertyOp16
 70
     1
102
RTVSPropertyOp17
 70
     1
102
RTVSPropertyOp18
 70
     1
102
RTVSPropertyOp19
 70
     1
102
RTVSPropertyOp20
 70
     1
102
RTVSPropertyOp21
 70
     1
102
RTVSPropertyOp22
 70
     1
102
RTVSPropertyOp23
 70
     1
102
RTVSPropertyOp24
 70
     1
102
RTVSPropertyOp25
 70
     1
102
RTVSPropertyOp26
 70
     1
102
RTVSPropertyOp27
 70
     1
102
RTVSPropertyOp28
 70
     1
102
RTVSPropertyOp29
 70
     1
102
RTVSPropertyOp30
 70
     1
102
RTVSPropertyOp31
 70
     1
102
RTVSPropertyOp32
 70
     1
  0
XRECORD
  5
1181
102
{ACAD_REACTORS
330
1180
102
}
330
1180
100
AcDbXrecord
280
     1
102
RTVSPropertyOp0
 70
     1
102
RTVSPropertyOp1
 70
     1
102
RTVSPropertyOp2
 70
     1
102
RTVSPropertyOp3
 70
     1
102
RTVSPropertyOp4
 70
     1
102
RTVSPropertyOp5
 70
     1
102
RTVSPropertyOp6
 70
     1
102
RTVSPropertyOp7
 70
     1
102
RTVSPropertyOp8
 70
     1
102
RTVSPropertyOp9
 70
     1
102
RTVSPropertyOp10
 70
     1
102
RTVSPropertyOp11
 70
     1
102
RTVSPropertyOp12
 70
     1
102
RTVSPropertyOp13
 70
     1
102
RTVSPropertyOp14
 70
     1
102
RTVSPropertyOp15
 70
     1
102
RTVSPropertyOp16
 70
     1
102
RTVSPropertyOp17
 70
     1
102
RTVSPropertyOp18
 70
     1
102
RTVSPropertyOp19
 70
     1
102
RTVSPropertyOp20
 70
     1
102
RTVSPropertyOp21
 70
     1
102
RTVSPropertyOp22
 70
     1
102
RTVSPropertyOp23
 70
     1
102
RTVSPropertyOp24
 70
     1
102
RTVSPropertyOp25
 70
     1
102
RTVSPropertyOp26
 70
     1
102
RTVSPropertyOp27
 70
     1
102
RTVSPropertyOp28
 70
     1
102
RTVSPropertyOp29
 70
     1
102
RTVSPropertyOp30
 70
     1
102
RTVSPropertyOp31
 70
     1
102
RTVSPropertyOp32
 70
     1
  0
XRECORD
  5
1191
102
{ACAD_REACTORS
330
1190
102
}
330
1190
100
AcDbXrecord
280
     1
102
RTVSPropertyOp0
 70
     0
102
RTVSPropertyOp1
 70
     0
102
RTVSPropertyOp2
 70
     0
102
RTVSPropertyOp3
 70
     0
102
RTVSPropertyOp4
 70
     0
102
RTVSPropertyOp5
 70
     0
102
RTVSPropertyOp6
 70
     0
102
RTVSPropertyOp7
 70
     0
102
RTVSPropertyOp8
 70
     0
102
RTVSPropertyOp9
 70
     0
102
RTVSPropertyOp10
 70
     0
102
RTVSPropertyOp11
 70
     0
102
RTVSPropertyOp12
 70
     0
102
RTVSPropertyOp13
 70
     0
102
RTVSPropertyOp14
 70
     2
102
RTVSPropertyOp15
 70
     0
102
RTVSPropertyOp16
 70
     0
102
RTVSPropertyOp17
 70
     0
102
RTVSPropertyOp18
 70
     0
102
RTVSPropertyOp19
 70
     0
102
RTVSPropertyOp20
 70
     0
102
RTVSPropertyOp21
 70
     0
102
RTVSPropertyOp22
 70
     0
102
RTVSPropertyOp23
 70
     0
102
RTVSPropertyOp24
 70
     0
102
RTVSPropertyOp25
 70
     0
102
RTVSPropertyOp26
 70
     0
102
RTVSPropertyOp27
 70
     0
102
RTVSPropertyOp28
 70
     1
102
RTVSPropertyOp29
 70
     1
102
RTVSPropertyOp30
 70
     1
102
RTVSPropertyOp31
 70
     1
102
RTVSPropertyOp32
 70
     1
  0
XRECORD
  5
1189
102
{ACAD_REACTORS
330
1188
102
}
330
1188
100
AcDbXrecord
280
     1
102
RTVSPropertyOp0
 70
     1
102
RTVSPropertyOp1
 70
     1
102
RTVSPropertyOp2
 70
     1
102
RTVSPropertyOp3
 70
     1
102
RTVSPropertyOp4
 70
     1
102
RTVSPropertyOp5
 70
     1
102
RTVSPropertyOp6
 70
     1
102
RTVSPropertyOp7
 70
     1
102
RTVSPropertyOp8
 70
     1
102
RTVSPropertyOp9
 70
     1
102
RTVSPropertyOp10
 70
     1
102
RTVSPropertyOp11
 70
     1
102
RTVSPropertyOp12
 70
     1
102
RTVSPropertyOp13
 70
     1
102
RTVSPropertyOp14
 70
     1
102
RTVSPropertyOp15
 70
     1
102
RTVSPropertyOp16
 70
     1
102
RTVSPropertyOp17
 70
     1
102
RTVSPropertyOp18
 70
     1
102
RTVSPropertyOp19
 70
     1
102
RTVSPropertyOp20
 70
     1
102
RTVSPropertyOp21
 70
     1
102
RTVSPropertyOp22
 70
     1
102
RTVSPropertyOp23
 70
     1
102
RTVSPropertyOp24
 70
     1
102
RTVSPropertyOp25
 70
     1
102
RTVSPropertyOp26
 70
     1
102
RTVSPropertyOp27
 70
     1
102
RTVSPropertyOp28
 70
     1
102
RTVSPropertyOp29
 70
     1
102
RTVSPropertyOp30
 70
     1
102
RTVSPropertyOp31
 70
     1
102
RTVSPropertyOp32
 70
     1
  0
XRECORD
  5
116D
102
{ACAD_REACTORS
330
116C
102
}
330
116C
100
AcDbXrecord
280
     1
102
RTVSPropertyOp0
 70
     1
102
RTVSPropertyOp1
 70
     1
102
RTVSPropertyOp2
 70
     1
102
RTVSPropertyOp3
 70
     1
102
RTVSPropertyOp4
 70
     1
102
RTVSPropertyOp5
 70
     1
102
RTVSPropertyOp6
 70
     1
102
RTVSPropertyOp7
 70
     1
102
RTVSPropertyOp8
 70
     1
102
RTVSPropertyOp9
 70
     1
102
RTVSPropertyOp10
 70
     1
102
RTVSPropertyOp11
 70
     1
102
RTVSPropertyOp12
 70
     1
102
RTVSPropertyOp13
 70
     1
102
RTVSPropertyOp14
 70
     1
102
RTVSPropertyOp15
 70
     1
102
RTVSPropertyOp16
 70
     1
102
RTVSPropertyOp17
 70
     1
102
RTVSPropertyOp18
 70
     1
102
RTVSPropertyOp19
 70
     1
102
RTVSPropertyOp20
 70
     1
102
RTVSPropertyOp21
 70
     1
102
RTVSPropertyOp22
 70
     1
102
RTVSPropertyOp23
 70
     1
102
RTVSPropertyOp24
 70
     1
102
RTVSPropertyOp25
 70
     1
102
RTVSPropertyOp26
 70
     1
102
RTVSPropertyOp27
 70
     1
102
RTVSPropertyOp28
 70
     1
102
RTVSPropertyOp29
 70
     1
102
RTVSPropertyOp30
 70
     1
102
RTVSPropertyOp31
 70
     1
102
RTVSPropertyOp32
 70
     1
  0
XRECORD
  5
116F
102
{ACAD_REACTORS
330
116E
102
}
330
116E
100
AcDbXrecord
280
     1
102
RTVSPropertyOp0
 70
     1
102
RTVSPropertyOp1
 70
     1
102
RTVSPropertyOp2
 70
     1
102
RTVSPropertyOp3
 70
     1
102
RTVSPropertyOp4
 70
     1
102
RTVSPropertyOp5
 70
     1
102
RTVSPropertyOp6
 70
     1
102
RTVSPropertyOp7
 70
     1
102
RTVSPropertyOp8
 70
     1
102
RTVSPropertyOp9
 70
     1
102
RTVSPropertyOp10
 70
     1
102
RTVSPropertyOp11
 70
     1
102
RTVSPropertyOp12
 70
     1
102
RTVSPropertyOp13
 70
     1
102
RTVSPropertyOp14
 70
     1
102
RTVSPropertyOp15
 70
     1
102
RTVSPropertyOp16
 70
     1
102
RTVSPropertyOp17
 70
     1
102
RTVSPropertyOp18
 70
     1
102
RTVSPropertyOp19
 70
     1
102
RTVSPropertyOp20
 70
     1
102
RTVSPropertyOp21
 70
     1
102
RTVSPropertyOp22
 70
     1
102
RTVSPropertyOp23
 70
     1
102
RTVSPropertyOp24
 70
     1
102
RTVSPropertyOp25
 70
     1
102
RTVSPropertyOp26
 70
     1
102
RTVSPropertyOp27
 70
     1
102
RTVSPropertyOp28
 70
     1
102
RTVSPropertyOp29
 70
     1
102
RTVSPropertyOp30
 70
     1
102
RTVSPropertyOp31
 70
     1
102
RTVSPropertyOp32
 70
     1
  0
XRECORD
  5
1171
102
{ACAD_REACTORS
330
1170
102
}
330
1170
100
AcDbXrecord
280
     1
102
RTVSPropertyOp0
 70
     1
102
RTVSPropertyOp1
 70
     1
102
RTVSPropertyOp2
 70
     1
102
RTVSPropertyOp3
 70
     1
102
RTVSPropertyOp4
 70
     1
102
RTVSPropertyOp5
 70
     1
102
RTVSPropertyOp6
 70
     1
102
RTVSPropertyOp7
 70
     1
102
RTVSPropertyOp8
 70
     1
102
RTVSPropertyOp9
 70
     1
102
RTVSPropertyOp10
 70
     1
102
RTVSPropertyOp11
 70
     1
102
RTVSPropertyOp12
 70
     1
102
RTVSPropertyOp13
 70
     1
102
RTVSPropertyOp14
 70
     1
102
RTVSPropertyOp15
 70
     1
102
RTVSPropertyOp16
 70
     1
102
RTVSPropertyOp17
 70
     1
102
RTVSPropertyOp18
 70
     1
102
RTVSPropertyOp19
 70
     1
102
RTVSPropertyOp20
 70
     1
102
RTVSPropertyOp21
 70
     1
102
RTVSPropertyOp22
 70
     1
102
RTVSPropertyOp23
 70
     1
102
RTVSPropertyOp24
 70
     1
102
RTVSPropertyOp25
 70
     1
102
RTVSPropertyOp26
 70
     1
102
RTVSPropertyOp27
 70
     1
102
RTVSPropertyOp28
 70
     1
102
RTVSPropertyOp29
 70
     1
102
RTVSPropertyOp30
 70
     1
102
RTVSPropertyOp31
 70
     1
102
RTVSPropertyOp32
 70
     1
  0
XRECORD
  5
1173
102
{ACAD_REACTORS
330
1172
102
}
330
1172
100
AcDbXrecord
280
     1
102
RTVSPropertyOp0
 70
     1
102
RTVSPropertyOp1
 70
     1
102
RTVSPropertyOp2
 70
     1
102
RTVSPropertyOp3
 70
     1
102
RTVSPropertyOp4
 70
     1
102
RTVSPropertyOp5
 70
     1
102
RTVSPropertyOp6
 70
     1
102
RTVSPropertyOp7
 70
     1
102
RTVSPropertyOp8
 70
     1
102
RTVSPropertyOp9
 70
     1
102
RTVSPropertyOp10
 70
     1
102
RTVSPropertyOp11
 70
     1
102
RTVSPropertyOp12
 70
     1
102
RTVSPropertyOp13
 70
     1
102
RTVSPropertyOp14
 70
     1
102
RTVSPropertyOp15
 70
     1
102
RTVSPropertyOp16
 70
     1
102
RTVSPropertyOp17
 70
     1
102
RTVSPropertyOp18
 70
     1
102
RTVSPropertyOp19
 70
     1
102
RTVSPropertyOp20
 70
     1
102
RTVSPropertyOp21
 70
     1
102
RTVSPropertyOp22
 70
     1
102
RTVSPropertyOp23
 70
     1
102
RTVSPropertyOp24
 70
     1
102
RTVSPropertyOp25
 70
     1
102
RTVSPropertyOp26
 70
     1
102
RTVSPropertyOp27
 70
     1
102
RTVSPropertyOp28
 70
     1
102
RTVSPropertyOp29
 70
     1
102
RTVSPropertyOp30
 70
     1
102
RTVSPropertyOp31
 70
     1
102
RTVSPropertyOp32
 70
     1
  0
XRECORD
  5
1195
102
{ACAD_REACTORS
330
1194
102
}
330
1194
100
AcDbXrecord
280
     1
102
RTVSPropertyOp0
 70
     1
102
RTVSPropertyOp1
 70
     1
102
RTVSPropertyOp2
 70
     1
102
RTVSPropertyOp3
 70
     1
102
RTVSPropertyOp4
 70
     1
102
RTVSPropertyOp5
 70
     1
102
RTVSPropertyOp6
 70
     1
102
RTVSPropertyOp7
 70
     1
102
RTVSPropertyOp8
 70
     1
102
RTVSPropertyOp9
 70
     1
102
RTVSPropertyOp10
 70
     1
102
RTVSPropertyOp11
 70
     1
102
RTVSPropertyOp12
 70
     1
102
RTVSPropertyOp13
 70
     1
102
RTVSPropertyOp14
 70
     1
102
RTVSPropertyOp15
 70
     1
102
RTVSPropertyOp16
 70
     1
102
RTVSPropertyOp17
 70
     1
102
RTVSPropertyOp18
 70
     1
102
RTVSPropertyOp19
 70
     1
102
RTVSPropertyOp20
 70
     1
102
RTVSPropertyOp21
 70
     1
102
RTVSPropertyOp22
 70
     1
102
RTVSPropertyOp23
 70
     1
102
RTVSPropertyOp24
 70
     1
102
RTVSPropertyOp25
 70
     1
102
RTVSPropertyOp26
 70
     1
102
RTVSPropertyOp27
 70
     1
102
RTVSPropertyOp28
 70
     1
102
RTVSPropertyOp29
 70
     1
102
RTVSPropertyOp30
 70
     1
102
RTVSPropertyOp31
 70
     1
102
RTVSPropertyOp32
 70
     1
  0
XRECORD
  5
118D
102
{ACAD_REACTORS
330
118C
102
}
330
118C
100
AcDbXrecord
280
     1
102
RTVSPropertyOp0
 70
     0
102
RTVSPropertyOp1
 70
     0
102
RTVSPropertyOp2
 70
     0
102
RTVSPropertyOp3
 70
     0
102
RTVSPropertyOp4
 70
     0
102
RTVSPropertyOp5
 70
     0
102
RTVSPropertyOp6
 70
     0
102
RTVSPropertyOp7
 70
     0
102
RTVSPropertyOp8
 70
     0
102
RTVSPropertyOp9
 70
     0
102
RTVSPropertyOp10
 70
     0
102
RTVSPropertyOp11
 70
     0
102
RTVSPropertyOp12
 70
     0
102
RTVSPropertyOp13
 70
     0
102
RTVSPropertyOp14
 70
     2
102
RTVSPropertyOp15
 70
     0
102
RTVSPropertyOp16
 70
     0
102
RTVSPropertyOp17
 70
     0
102
RTVSPropertyOp18
 70
     0
102
RTVSPropertyOp19
 70
     0
102
RTVSPropertyOp20
 70
     0
102
RTVSPropertyOp21
 70
     0
102
RTVSPropertyOp22
 70
     0
102
RTVSPropertyOp23
 70
     0
102
RTVSPropertyOp24
 70
     0
102
RTVSPropertyOp25
 70
     0
102
RTVSPropertyOp26
 70
     0
102
RTVSPropertyOp27
 70
     0
102
RTVSPropertyOp28
 70
     1
102
RTVSPropertyOp29
 70
     1
102
RTVSPropertyOp30
 70
     1
102
RTVSPropertyOp31
 70
     1
102
RTVSPropertyOp32
 70
     1
  0
XRECORD
  5
1187
102
{ACAD_REACTORS
330
1186
102
}
330
1186
100
AcDbXrecord
280
     1
102
RTVSPropertyOp0
 70
     1
102
RTVSPropertyOp1
 70
     1
102
RTVSPropertyOp2
 70
     1
102
RTVSPropertyOp3
 70
     1
102
RTVSPropertyOp4
 70
     1
102
RTVSPropertyOp5
 70
     1
102
RTVSPropertyOp6
 70
     1
102
RTVSPropertyOp7
 70
     1
102
RTVSPropertyOp8
 70
     1
102
RTVSPropertyOp9
 70
     1
102
RTVSPropertyOp10
 70
     1
102
RTVSPropertyOp11
 70
     1
102
RTVSPropertyOp12
 70
     1
102
RTVSPropertyOp13
 70
     1
102
RTVSPropertyOp14
 70
     1
102
RTVSPropertyOp15
 70
     1
102
RTVSPropertyOp16
 70
     1
102
RTVSPropertyOp17
 70
     1
102
RTVSPropertyOp18
 70
     1
102
RTVSPropertyOp19
 70
     1
102
RTVSPropertyOp20
 70
     1
102
RTVSPropertyOp21
 70
     1
102
RTVSPropertyOp22
 70
     1
102
RTVSPropertyOp23
 70
     1
102
RTVSPropertyOp24
 70
     1
102
RTVSPropertyOp25
 70
     1
102
RTVSPropertyOp26
 70
     1
102
RTVSPropertyOp27
 70
     1
102
RTVSPropertyOp28
 70
     1
102
RTVSPropertyOp29
 70
     1
102
RTVSPropertyOp30
 70
     1
102
RTVSPropertyOp31
 70
     1
102
RTVSPropertyOp32
 70
     1
  0
XRECORD
  5
118F
102
{ACAD_REACTORS
330
118E
102
}
330
118E
100
AcDbXrecord
280
     1
102
RTVSPropertyOp0
 70
     0
102
RTVSPropertyOp1
 70
     0
102
RTVSPropertyOp2
 70
     0
102
RTVSPropertyOp3
 70
     0
102
RTVSPropertyOp4
 70
     0
102
RTVSPropertyOp5
 70
     0
102
RTVSPropertyOp6
 70
     0
102
RTVSPropertyOp7
 70
     0
102
RTVSPropertyOp8
 70
     0
102
RTVSPropertyOp9
 70
     0
102
RTVSPropertyOp10
 70
     0
102
RTVSPropertyOp11
 70
     0
102
RTVSPropertyOp12
 70
     0
102
RTVSPropertyOp13
 70
     0
102
RTVSPropertyOp14
 70
     2
102
RTVSPropertyOp15
 70
     0
102
RTVSPropertyOp16
 70
     0
102
RTVSPropertyOp17
 70
     0
102
RTVSPropertyOp18
 70
     0
102
RTVSPropertyOp19
 70
     0
102
RTVSPropertyOp20
 70
     0
102
RTVSPropertyOp21
 70
     0
102
RTVSPropertyOp22
 70
     0
102
RTVSPropertyOp23
 70
     0
102
RTVSPropertyOp24
 70
     0
102
RTVSPropertyOp25
 70
     0
102
RTVSPropertyOp26
 70
     0
102
RTVSPropertyOp27
 70
     0
102
RTVSPropertyOp28
 70
     1
102
RTVSPropertyOp29
 70
     1
102
RTVSPropertyOp30
 70
     1
102
RTVSPropertyOp31
 70
     1
102
RTVSPropertyOp32
 70
     1
  0
XRECORD
  5
117F
102
{ACAD_REACTORS
330
117E
102
}
330
117E
100
AcDbXrecord
280
     1
102
RTVSPropertyOp0
 70
     1
102
RTVSPropertyOp1
 70
     1
102
RTVSPropertyOp2
 70
     1
102
RTVSPropertyOp3
 70
     1
102
RTVSPropertyOp4
 70
     1
102
RTVSPropertyOp5
 70
     1
102
RTVSPropertyOp6
 70
     1
102
RTVSPropertyOp7
 70
     1
102
RTVSPropertyOp8
 70
     1
102
RTVSPropertyOp9
 70
     1
102
RTVSPropertyOp10
 70
     1
102
RTVSPropertyOp11
 70
     1
102
RTVSPropertyOp12
 70
     1
102
RTVSPropertyOp13
 70
     1
102
RTVSPropertyOp14
 70
     1
102
RTVSPropertyOp15
 70
     1
102
RTVSPropertyOp16
 70
     1
102
RTVSPropertyOp17
 70
     1
102
RTVSPropertyOp18
 70
     1
102
RTVSPropertyOp19
 70
     1
102
RTVSPropertyOp20
 70
     1
102
RTVSPropertyOp21
 70
     1
102
RTVSPropertyOp22
 70
     1
102
RTVSPropertyOp23
 70
     1
102
RTVSPropertyOp24
 70
     1
102
RTVSPropertyOp25
 70
     1
102
RTVSPropertyOp26
 70
     1
102
RTVSPropertyOp27
 70
     1
102
RTVSPropertyOp28
 70
     1
102
RTVSPropertyOp29
 70
     1
102
RTVSPropertyOp30
 70
     1
102
RTVSPropertyOp31
 70
     1
102
RTVSPropertyOp32
 70
     1
  0
XRECORD
  5
119F
102
{ACAD_REACTORS
330
119E
102
}
330
119E
100
AcDbXrecord
280
     1
102
RTVSPropertyOp0
 70
     1
102
RTVSPropertyOp1
 70
     1
102
RTVSPropertyOp2
 70
     1
102
RTVSPropertyOp3
 70
     1
102
RTVSPropertyOp4
 70
     1
102
RTVSPropertyOp5
 70
     1
102
RTVSPropertyOp6
 70
     1
102
RTVSPropertyOp7
 70
     1
102
RTVSPropertyOp8
 70
     1
102
RTVSPropertyOp9
 70
     1
102
RTVSPropertyOp10
 70
     1
102
RTVSPropertyOp11
 70
     1
102
RTVSPropertyOp12
 70
     1
102
RTVSPropertyOp13
 70
     1
102
RTVSPropertyOp14
 70
     1
102
RTVSPropertyOp15
 70
     1
102
RTVSPropertyOp16
 70
     1
102
RTVSPropertyOp17
 70
     1
102
RTVSPropertyOp18
 70
     1
102
RTVSPropertyOp19
 70
     1
102
RTVSPropertyOp20
 70
     1
102
RTVSPropertyOp21
 70
     1
102
RTVSPropertyOp22
 70
     1
102
RTVSPropertyOp23
 70
     1
102
RTVSPropertyOp24
 70
     1
102
RTVSPropertyOp25
 70
     1
102
RTVSPropertyOp26
 70
     1
102
RTVSPropertyOp27
 70
     1
102
RTVSPropertyOp28
 70
     1
102
RTVSPropertyOp29
 70
     1
102
RTVSPropertyOp30
 70
     1
102
RTVSPropertyOp31
 70
     1
102
RTVSPropertyOp32
 70
     1
  0
XRECORD
  5
119D
102
{ACAD_REACTORS
330
119C
102
}
330
119C
100
AcDbXrecord
280
     1
102
RTVSPropertyOp0
 70
     1
102
RTVSPropertyOp1
 70
     1
102
RTVSPropertyOp2
 70
     1
102
RTVSPropertyOp3
 70
     1
102
RTVSPropertyOp4
 70
     1
102
RTVSPropertyOp5
 70
     1
102
RTVSPropertyOp6
 70
     1
102
RTVSPropertyOp7
 70
     1
102
RTVSPropertyOp8
 70
     1
102
RTVSPropertyOp9
 70
     1
102
RTVSPropertyOp10
 70
     1
102
RTVSPropertyOp11
 70
     1
102
RTVSPropertyOp12
 70
     1
102
RTVSPropertyOp13
 70
     1
102
RTVSPropertyOp14
 70
     1
102
RTVSPropertyOp15
 70
     1
102
RTVSPropertyOp16
 70
     1
102
RTVSPropertyOp17
 70
     1
102
RTVSPropertyOp18
 70
     1
102
RTVSPropertyOp19
 70
     1
102
RTVSPropertyOp20
 70
     1
102
RTVSPropertyOp21
 70
     1
102
RTVSPropertyOp22
 70
     1
102
RTVSPropertyOp23
 70
     1
102
RTVSPropertyOp24
 70
     1
102
RTVSPropertyOp25
 70
     1
102
RTVSPropertyOp26
 70
     1
102
RTVSPropertyOp27
 70
     1
102
RTVSPropertyOp28
 70
     1
102
RTVSPropertyOp29
 70
     1
102
RTVSPropertyOp30
 70
     1
102
RTVSPropertyOp31
 70
     1
102
RTVSPropertyOp32
 70
     1
  0
XRECORD
  5
1197
102
{ACAD_REACTORS
330
1196
102
}
330
1196
100
AcDbXrecord
280
     1
102
RTVSPropertyOp0
 70
     1
102
RTVSPropertyOp1
 70
     1
102
RTVSPropertyOp2
 70
     1
102
RTVSPropertyOp3
 70
     1
102
RTVSPropertyOp4
 70
     1
102
RTVSPropertyOp5
 70
     1
102
RTVSPropertyOp6
 70
     1
102
RTVSPropertyOp7
 70
     1
102
RTVSPropertyOp8
 70
     1
102
RTVSPropertyOp9
 70
     1
102
RTVSPropertyOp10
 70
     1
102
RTVSPropertyOp11
 70
     1
102
RTVSPropertyOp12
 70
     1
102
RTVSPropertyOp13
 70
     1
102
RTVSPropertyOp14
 70
     1
102
RTVSPropertyOp15
 70
     1
102
RTVSPropertyOp16
 70
     1
102
RTVSPropertyOp17
 70
     1
102
RTVSPropertyOp18
 70
     1
102
RTVSPropertyOp19
 70
     1
102
RTVSPropertyOp20
 70
     1
102
RTVSPropertyOp21
 70
     1
102
RTVSPropertyOp22
 70
     1
102
RTVSPropertyOp23
 70
     1
102
RTVSPropertyOp24
 70
     1
102
RTVSPropertyOp25
 70
     1
102
RTVSPropertyOp26
 70
     1
102
RTVSPropertyOp27
 70
     1
102
RTVSPropertyOp28
 70
     1
102
RTVSPropertyOp29
 70
     1
102
RTVSPropertyOp30
 70
     1
102
RTVSPropertyOp31
 70
     1
102
RTVSPropertyOp32
 70
     1
  0
XRECORD
  5
1199
102
{ACAD_REACTORS
330
1198
102
}
330
1198
100
AcDbXrecord
280
     1
102
RTVSPropertyOp0
 70
     1
102
RTVSPropertyOp1
 70
     1
102
RTVSPropertyOp2
 70
     1
102
RTVSPropertyOp3
 70
     1
102
RTVSPropertyOp4
 70
     1
102
RTVSPropertyOp5
 70
     1
102
RTVSPropertyOp6
 70
     1
102
RTVSPropertyOp7
 70
     1
102
RTVSPropertyOp8
 70
     1
102
RTVSPropertyOp9
 70
     1
102
RTVSPropertyOp10
 70
     1
102
RTVSPropertyOp11
 70
     1
102
RTVSPropertyOp12
 70
     1
102
RTVSPropertyOp13
 70
     1
102
RTVSPropertyOp14
 70
     1
102
RTVSPropertyOp15
 70
     1
102
RTVSPropertyOp16
 70
     1
102
RTVSPropertyOp17
 70
     1
102
RTVSPropertyOp18
 70
     1
102
RTVSPropertyOp19
 70
     1
102
RTVSPropertyOp20
 70
     1
102
RTVSPropertyOp21
 70
     1
102
RTVSPropertyOp22
 70
     1
102
RTVSPropertyOp23
 70
     1
102
RTVSPropertyOp24
 70
     1
102
RTVSPropertyOp25
 70
     1
102
RTVSPropertyOp26
 70
     1
102
RTVSPropertyOp27
 70
     1
102
RTVSPropertyOp28
 70
     1
102
RTVSPropertyOp29
 70
     1
102
RTVSPropertyOp30
 70
     1
102
RTVSPropertyOp31
 70
     1
102
RTVSPropertyOp32
 70
     1
  0
XRECORD
  5
1185
102
{ACAD_REACTORS
330
1184
102
}
330
1184
100
AcDbXrecord
280
     1
102
RTVSPropertyOp0
 70
     1
102
RTVSPropertyOp1
 70
     1
102
RTVSPropertyOp2
 70
     1
102
RTVSPropertyOp3
 70
     1
102
RTVSPropertyOp4
 70
     1
102
RTVSPropertyOp5
 70
     1
102
RTVSPropertyOp6
 70
     1
102
RTVSPropertyOp7
 70
     1
102
RTVSPropertyOp8
 70
     1
102
RTVSPropertyOp9
 70
     1
102
RTVSPropertyOp10
 70
     1
102
RTVSPropertyOp11
 70
     1
102
RTVSPropertyOp12
 70
     1
102
RTVSPropertyOp13
 70
     1
102
RTVSPropertyOp14
 70
     1
102
RTVSPropertyOp15
 70
     1
102
RTVSPropertyOp16
 70
     1
102
RTVSPropertyOp17
 70
     1
102
RTVSPropertyOp18
 70
     1
102
RTVSPropertyOp19
 70
     1
102
RTVSPropertyOp20
 70
     1
102
RTVSPropertyOp21
 70
     1
102
RTVSPropertyOp22
 70
     1
102
RTVSPropertyOp23
 70
     1
102
RTVSPropertyOp24
 70
     1
102
RTVSPropertyOp25
 70
     1
102
RTVSPropertyOp26
 70
     1
102
RTVSPropertyOp27
 70
     1
102
RTVSPropertyOp28
 70
     1
102
RTVSPropertyOp29
 70
     1
102
RTVSPropertyOp30
 70
     1
102
RTVSPropertyOp31
 70
     1
102
RTVSPropertyOp32
 70
     1
  0
XRECORD
  5
1193
102
{ACAD_REACTORS
330
1192
102
}
330
1192
100
AcDbXrecord
280
     1
102
RTVSPropertyOp0
 70
     1
102
RTVSPropertyOp1
 70
     1
102
RTVSPropertyOp2
 70
     1
102
RTVSPropertyOp3
 70
     1
102
RTVSPropertyOp4
 70
     1
102
RTVSPropertyOp5
 70
     1
102
RTVSPropertyOp6
 70
     1
102
RTVSPropertyOp7
 70
     1
102
RTVSPropertyOp8
 70
     1
102
RTVSPropertyOp9
 70
     1
102
RTVSPropertyOp10
 70
     1
102
RTVSPropertyOp11
 70
     1
102
RTVSPropertyOp12
 70
     1
102
RTVSPropertyOp13
 70
     1
102
RTVSPropertyOp14
 70
     1
102
RTVSPropertyOp15
 70
     1
102
RTVSPropertyOp16
 70
     1
102
RTVSPropertyOp17
 70
     1
102
RTVSPropertyOp18
 70
     1
102
RTVSPropertyOp19
 70
     1
102
RTVSPropertyOp20
 70
     1
102
RTVSPropertyOp21
 70
     1
102
RTVSPropertyOp22
 70
     1
102
RTVSPropertyOp23
 70
     1
102
RTVSPropertyOp24
 70
     1
102
RTVSPropertyOp25
 70
     1
102
RTVSPropertyOp26
 70
     1
102
RTVSPropertyOp27
 70
     1
102
RTVSPropertyOp28
 70
     1
102
RTVSPropertyOp29
 70
     1
102
RTVSPropertyOp30
 70
     1
102
RTVSPropertyOp31
 70
     1
102
RTVSPropertyOp32
 70
     1
  0
XRECORD
  5
119B
102
{ACAD_REACTORS
330
119A
102
}
330
119A
100
AcDbXrecord
280
     1
102
RTVSPropertyOp0
 70
     1
102
RTVSPropertyOp1
 70
     1
102
RTVSPropertyOp2
 70
     1
102
RTVSPropertyOp3
 70
     1
102
RTVSPropertyOp4
 70
     1
102
RTVSPropertyOp5
 70
     1
102
RTVSPropertyOp6
 70
     1
102
RTVSPropertyOp7
 70
     1
102
RTVSPropertyOp8
 70
     1
102
RTVSPropertyOp9
 70
     1
102
RTVSPropertyOp10
 70
     1
102
RTVSPropertyOp11
 70
     1
102
RTVSPropertyOp12
 70
     1
102
RTVSPropertyOp13
 70
     1
102
RTVSPropertyOp14
 70
     1
102
RTVSPropertyOp15
 70
     1
102
RTVSPropertyOp16
 70
     1
102
RTVSPropertyOp17
 70
     1
102
RTVSPropertyOp18
 70
     1
102
RTVSPropertyOp19
 70
     1
102
RTVSPropertyOp20
 70
     1
102
RTVSPropertyOp21
 70
     1
102
RTVSPropertyOp22
 70
     1
102
RTVSPropertyOp23
 70
     1
102
RTVSPropertyOp24
 70
     1
102
RTVSPropertyOp25
 70
     1
102
RTVSPropertyOp26
 70
     1
102
RTVSPropertyOp27
 70
     1
102
RTVSPropertyOp28
 70
     1
102
RTVSPropertyOp29
 70
     1
102
RTVSPropertyOp30
 70
     1
102
RTVSPropertyOp31
 70
     1
102
RTVSPropertyOp32
 70
     1
  0
ENDSEC
  0
EOF
