  0
SECTION
  2
HEADER
  9
$ACADVER
  1
AC1021
  9
$ACADMAINTVER
 70
    50
  9
$DWGCODEPAGE
  3
ANSI_932
  9
$LASTSAVEDBY
  1
佐藤
  9
$INSBASE
 10
0.0
 20
0.0
 30
0.0
  9
$EXTMIN
 10
-0.1358780111004307
 20
-0.0960753613844645
 30
-0.0000000000000053
  9
$EXTMAX
 10
4455.135997303499
 20
3150.096159709546
 30
0.0000000000000099
  9
$LIMMIN
 10
0.0
 20
0.0
  9
$LIMMAX
 10
420.0
 20
297.0
  9
$ORTHOMODE
 70
     0
  9
$REGENMODE
 70
     1
  9
$FILLMODE
 70
     1
  9
$QTEXTMODE
 70
     0
  9
$MIRRTEXT
 70
     0
  9
$LTSCALE
 40
1.0
  9
$ATTMODE
 70
     1
  9
$TEXTSIZE
 40
2.5
  9
$TRACEWID
 40
1.0
  9
$TEXTSTYLE
  7
寸法
  9
$CLAYER
  8
寸法
  9
$CELTYPE
  6
ByLayer
  9
$CECOLOR
 62
   256
  9
$CELTSCALE
 40
1.0
  9
$DISPSILH
 70
     0
  9
$DIMSCALE
 40
15.0
  9
$DIMASZ
 40
2.5
  9
$DIMEXO
 40
1.625
  9
$DIMDLI
 40
3.75
  9
$DIMRND
 40
0.0
  9
$DIMDLE
 40
0.0
  9
$DIMEXE
 40
1.25
  9
$DIMTP
 40
0.0
  9
$DIMTM
 40
0.0
  9
$DIMTXT
 40
2.5
  9
$DIMCEN
 40
2.5
  9
$DIMTSZ
 40
0.0
  9
$DIMTOL
 70
     0
  9
$DIMLIM
 70
     0
  9
$DIMTIH
 70
     0
  9
$DIMTOH
 70
     0
  9
$DIMSE1
 70
     0
  9
$DIMSE2
 70
     0
  9
$DIMTAD
 70
     1
  9
$DIMZIN
 70
     8
  9
$DIMBLK
  1

  9
$DIMASO
 70
     1
  9
$DIMSHO
 70
     1
  9
$DIMPOST
  1

  9
$DIMAPOST
  1

  9
$DIMALT
 70
     0
  9
$DIMALTD
 70
     3
  9
$DIMALTF
 40
0.03937007874016
  9
$DIMLFAC
 40
1.0
  9
$DIMTOFL
 70
     1
  9
$DIMTVP
 40
0.0
  9
$DIMTIX
 70
     0
  9
$DIMSOXD
 70
     0
  9
$DIMSAH
 70
     0
  9
$DIMBLK1
  1

  9
$DIMBLK2
  1

  9
$DIMSTYLE
  2
ISO-25
  9
$DIMCLRD
 70
     0
  9
$DIMCLRE
 70
     0
  9
$DIMCLRT
 70
     0
  9
$DIMTFAC
 40
1.0
  9
$DIMGAP
 40
1.625
  9
$DIMJUST
 70
     0
  9
$DIMSD1
 70
     0
  9
$DIMSD2
 70
     0
  9
$DIMTOLJ
 70
     0
  9
$DIMTZIN
 70
     8
  9
$DIMALTZ
 70
     0
  9
$DIMALTTZ
 70
     0
  9
$DIMUPT
 70
     0
  9
$DIMDEC
 70
     2
  9
$DIMTDEC
 70
     2
  9
$DIMALTU
 70
     2
  9
$DIMALTTD
 70
     3
  9
$DIMTXSTY
  7
Standard
  9
$DIMAUNIT
 70
     0
  9
$DIMADEC
 70
     0
  9
$DIMALTRND
 40
0.0
  9
$DIMAZIN
 70
     0
  9
$DIMDSEP
 70
    46
  9
$DIMATFIT
 70
     3
  9
$DIMFRAC
 70
     0
  9
$DIMLDRBLK
  1

  9
$DIMLUNIT
 70
     2
  9
$DIMLWD
 70
    -2
  9
$DIMLWE
 70
    -2
  9
$DIMTMOVE
 70
     0
  9
$DIMFXL
 40
1.0
  9
$DIMFXLON
 70
     0
  9
$DIMJOGANG
 40
1.570796326794896
  9
$DIMTFILL
 70
     0
  9
$DIMTFILLCLR
 70
     0
  9
$DIMARCSYM
 70
     0
  9
$DIMLTYPE
  6

  9
$DIMLTEX1
  6

  9
$DIMLTEX2
  6

  9
$LUNITS
 70
     2
  9
$LUPREC
 70
     4
  9
$SKETCHINC
 40
1.0
  9
$FILLETRAD
 40
28.0
  9
$AUNITS
 70
     0
  9
$AUPREC
 70
     0
  9
$MENU
  1
.
  9
$ELEVATION
 40
0.0
  9
$PELEVATION
 40
0.0
  9
$THICKNESS
 40
0.0
  9
$LIMCHECK
 70
     0
  9
$CHAMFERA
 40
19.0
  9
$CHAMFERB
 40
19.0
  9
$CHAMFERC
 40
0.0
  9
$CHAMFERD
 40
0.0
  9
$SKPOLY
 70
     0
  9
$TDCREATE
 40
2455711.508953565
  9
$TDUCREATE
 40
2455711.133953565
  9
$TDUPDATE
 40
2457368.663757187
  9
$TDUUPDATE
 40
2457368.288757187
  9
$TDINDWG
 40
0.5204248148
  9
$TDUSRTIMER
 40
0.5204246296
  9
$USRTIMER
 70
     1
  9
$ANGBASE
 50
0.0
  9
$ANGDIR
 70
     0
  9
$PDMODE
 70
     0
  9
$PDSIZE
 40
0.0
  9
$PLINEWID
 40
0.0
  9
$SPLFRAME
 70
     0
  9
$SPLINETYPE
 70
     6
  9
$SPLINESEGS
 70
     8
  9
$HANDSEED
  5
1449
  9
$SURFTAB1
 70
     6
  9
$SURFTAB2
 70
     6
  9
$SURFTYPE
 70
     6
  9
$SURFU
 70
     6
  9
$SURFV
 70
     6
  9
$UCSBASE
  2

  9
$UCSNAME
  2

  9
$UCSORG
 10
0.0
 20
0.0
 30
0.0
  9
$UCSXDIR
 10
1.0
 20
0.0
 30
0.0
  9
$UCSYDIR
 10
0.0
 20
1.0
 30
0.0
  9
$UCSORTHOREF
  2

  9
$UCSORTHOVIEW
 70
     0
  9
$UCSORGTOP
 10
0.0
 20
0.0
 30
0.0
  9
$UCSORGBOTTOM
 10
0.0
 20
0.0
 30
0.0
  9
$UCSORGLEFT
 10
0.0
 20
0.0
 30
0.0
  9
$UCSORGRIGHT
 10
0.0
 20
0.0
 30
0.0
  9
$UCSORGFRONT
 10
0.0
 20
0.0
 30
0.0
  9
$UCSORGBACK
 10
0.0
 20
0.0
 30
0.0
  9
$PUCSBASE
  2

  9
$PUCSNAME
  2

  9
$PUCSORG
 10
0.0
 20
0.0
 30
0.0
  9
$PUCSXDIR
 10
1.0
 20
0.0
 30
0.0
  9
$PUCSYDIR
 10
0.0
 20
1.0
 30
0.0
  9
$PUCSORTHOREF
  2

  9
$PUCSORTHOVIEW
 70
     0
  9
$PUCSORGTOP
 10
0.0
 20
0.0
 30
0.0
  9
$PUCSORGBOTTOM
 10
0.0
 20
0.0
 30
0.0
  9
$PUCSORGLEFT
 10
0.0
 20
0.0
 30
0.0
  9
$PUCSORGRIGHT
 10
0.0
 20
0.0
 30
0.0
  9
$PUCSORGFRONT
 10
0.0
 20
0.0
 30
0.0
  9
$PUCSORGBACK
 10
0.0
 20
0.0
 30
0.0
  9
$USERI1
 70
     0
  9
$USERI2
 70
     0
  9
$USERI3
 70
     0
  9
$USERI4
 70
     0
  9
$USERI5
 70
     0
  9
$USERR1
 40
0.0
  9
$USERR2
 40
0.0
  9
$USERR3
 40
0.0
  9
$USERR4
 40
0.0
  9
$USERR5
 40
0.0
  9
$WORLDVIEW
 70
     1
  9
$SHADEDGE
 70
     3
  9
$SHADEDIF
 70
    70
  9
$TILEMODE
 70
     1
  9
$MAXACTVP
 70
    64
  9
$PINSBASE
 10
0.0
 20
0.0
 30
0.0
  9
$PLIMCHECK
 70
     0
  9
$PEXTMIN
 10
1.000000000000000E+20
 20
1.000000000000000E+20
 30
1.000000000000000E+20
  9
$PEXTMAX
 10
-1.000000000000000E+20
 20
-1.000000000000000E+20
 30
-1.000000000000000E+20
  9
$PLIMMIN
 10
0.0
 20
0.0
  9
$PLIMMAX
 10
420.0
 20
297.0
  9
$UNITMODE
 70
     0
  9
$VISRETAIN
 70
     1
  9
$PLINEGEN
 70
     0
  9
$PSLTSCALE
 70
     1
  9
$TREEDEPTH
 70
  3020
  9
$CMLSTYLE
  2
Standard
  9
$CMLJUST
 70
     0
  9
$CMLSCALE
 40
20.0
  9
$PROXYGRAPHICS
 70
     1
  9
$MEASUREMENT
 70
     1
  9
$CELWEIGHT
370
    -1
  9
$ENDCAPS
280
     0
  9
$JOINSTYLE
280
     0
  9
$LWDISPLAY
290
     0
  9
$INSUNITS
 70
     4
  9
$HYPERLINKBASE
  1

  9
$STYLESHEET
  1

  9
$XEDIT
290
     1
  9
$CEPSNTYPE
380
     0
  9
$PSTYLEMODE
290
     1
  9
$FINGERPRINTGUID
  2
{B7F2F6F7-088E-48A0-8545-691322D26F8A}
  9
$VERSIONGUID
  2
{5750C935-EC12-4E70-AA79-CA641306A1E8}
  9
$EXTNAMES
290
     1
  9
$PSVPSCALE
 40
0.0
  9
$OLESTARTUP
290
     0
  9
$SORTENTS
280
   127
  9
$INDEXCTL
280
     0
  9
$HIDETEXT
280
     1
  9
$XCLIPFRAME
290
     0
  9
$HALOGAP
280
     0
  9
$OBSCOLOR
 70
   257
  9
$OBSLTYPE
280
     0
  9
$INTERSECTIONDISPLAY
280
     0
  9
$INTERSECTIONCOLOR
 70
   257
  9
$DIMASSOC
280
     2
  9
$PROJECTNAME
  1

  9
$CAMERADISPLAY
290
     0
  9
$LENSLENGTH
 40
50.0
  9
$CAMERAHEIGHT
 40
0.0
  9
$STEPSPERSEC
 40
2.0
  9
$STEPSIZE
 40
6.0
  9
$3DDWFPREC
 40
2.0
  9
$PSOLWIDTH
 40
0.25
  9
$PSOLHEIGHT
 40
4.0
  9
$LOFTANG1
 40
1.570796326794896
  9
$LOFTANG2
 40
1.570796326794896
  9
$LOFTMAG1
 40
0.0
  9
$LOFTMAG2
 40
0.0
  9
$LOFTPARAM
 70
     7
  9
$LOFTNORMALS
280
     1
  9
$LATITUDE
 40
37.795
  9
$LONGITUDE
 40
-122.394
  9
$NORTHDIRECTION
 40
0.0
  9
$TIMEZONE
 70
 -8000
  9
$LIGHTGLYPHDISPLAY
280
     1
  9
$TILEMODELIGHTSYNCH
280
     1
  9
$CMATERIAL
347
11
  9
$SOLIDHIST
280
     1
  9
$SHOWHIST
280
     1
  9
$DWFFRAME
280
     2
  9
$DGNFRAME
280
     0
  9
$REALWORLDSCALE
290
     1
  9
$INTERFERECOLOR
 62
     1
  9
$INTERFEREOBJVS
345
33
  9
$INTERFEREVPVS
346
141
  9
$CSHADOW
280
     0
  9
$SHADOWPLANELOCATION
 40
0.0
  0
ENDSEC
  0
SECTION
  2
CLASSES
  0
CLASS
  1
ACDBDICTIONARYWDFLT
  2
AcDbDictionaryWithDefault
  3
ObjectDBX Classes
 90
        0
 91
        1
280
     0
281
     0
  0
CLASS
  1
MATERIAL
  2
AcDbMaterial
  3
ObjectDBX Classes
 90
     1153
 91
        3
280
     0
281
     0
  0
CLASS
  1
VISUALSTYLE
  2
AcDbVisualStyle
  3
ObjectDBX Classes
 90
     4095
 91
       26
280
     0
281
     0
  0
CLASS
  1
SCALE
  2
AcDbScale
  3
ObjectDBX Classes
 90
     1153
 91
       17
280
     0
281
     0
  0
CLASS
  1
TABLESTYLE
  2
AcDbTableStyle
  3
ObjectDBX Classes
 90
     4095
 91
        1
280
     0
281
     0
  0
CLASS
  1
MLEADERSTYLE
  2
AcDbMLeaderStyle
  3
ACDB_MLEADERSTYLE_CLASS
 90
     4095
 91
        1
280
     0
281
     0
  0
CLASS
  1
DICTIONARYVAR
  2
AcDbDictionaryVar
  3
ObjectDBX Classes
 90
        0
 91
        5
280
     0
281
     0
  0
CLASS
  1
SORTENTSTABLE
  2
AcDbSortentsTable
  3
ObjectDBX Classes
 90
        0
 91
        1
280
     0
281
     0
  0
CLASS
  1
CELLSTYLEMAP
  2
AcDbCellStyleMap
  3
ObjectDBX Classes
 90
     1152
 91
        1
280
     0
281
     0
  0
CLASS
  1
DIMASSOC
  2
AcDbDimAssoc
  3
"AcDbDimAssoc|Product Desc:     AcDim ARX App For Dimension|Company:          Autodesk, Inc.|WEB Address:      www.autodesk.com"
 90
        0
 91
       16
280
     0
281
     0
  0
CLASS
  1
MULTILEADER
  2
AcDbMLeader
  3
ACDB_MLEADER_CLASS
 90
     1025
 91
       24
280
     0
281
     1
  0
ENDSEC
  0
SECTION
  2
TABLES
  0
TABLE
  2
VPORT
  5
8
330
0
100
AcDbSymbolTable
 70
     1
  0
VPORT
  5
52
330
8
100
AcDbSymbolTableRecord
100
AcDbViewportTableRecord
  2
*Active
 70
     0
 10
0.0
 20
0.0
 11
1.0
 21
1.0
 12
2227.5000596462
 22
1575.000042174081
 13
0.0
 23
0.0
 14
10.0
 24
10.0
 15
10.0
 25
10.0
 16
0.0
 26
0.0
 36
1.0
 17
0.0
 27
0.0
 37
0.0
 40
3174.148069558162
 41
2.295685279187817
 42
50.0
 43
0.0
 44
0.0
 50
0.0
 51
0.0
 71
     0
 72
  1000
 73
     1
 74
     3
 75
     0
 76
     0
 77
     0
 78
     0
281
     0
 65
     1
110
0.0
120
0.0
130
0.0
111
1.0
121
0.0
131
0.0
112
0.0
122
1.0
132
0.0
 79
     0
146
0.0
348
2F
 60
     2
 61
     5
292
     1
282
     1
141
0.0
142
0.0
 63
   250
421
  3355443
1001
ACAD_NAV_VCDISPLAY
1070
     3
  0
ENDTAB
  0
TABLE
  2
LTYPE
  5
5
330
0
100
AcDbSymbolTable
 70
    15
  0
LTYPE
  5
56
330
5
100
AcDbSymbolTableRecord
100
AcDbLinetypeTableRecord
  2
ByBlock
 70
     0
  3

 72
    65
 73
     0
 40
0.0
  0
LTYPE
  5
57
330
5
100
AcDbSymbolTableRecord
100
AcDbLinetypeTableRecord
  2
ByLayer
 70
     0
  3

 72
    65
 73
     0
 40
0.0
  0
LTYPE
  5
58
330
5
100
AcDbSymbolTableRecord
100
AcDbLinetypeTableRecord
  2
Continuous
 70
     0
  3
Solid line
 72
    65
 73
     0
 40
0.0
  0
LTYPE
  5
7A
330
5
100
AcDbSymbolTableRecord
100
AcDbLinetypeTableRecord
  2
ACAD_ISO02W100
 70
     0
  3
ISO dash __ __ __ __ __ __ __ __ __ __ __ __ __
 72
    65
 73
     2
 40
15.0
 49
12.0
 74
     0
 49
-3.0
 74
     0
  0
LTYPE
  5
7B
330
5
100
AcDbSymbolTableRecord
100
AcDbLinetypeTableRecord
  2
ACAD_ISO03W100
 70
     0
  3
ISO dash space __    __    __    __    __    __
 72
    65
 73
     2
 40
30.0
 49
12.0
 74
     0
 49
-18.0
 74
     0
  0
LTYPE
  5
7C
330
5
100
AcDbSymbolTableRecord
100
AcDbLinetypeTableRecord
  2
ACAD_ISO04W100
 70
     0
  3
ISO long-dash dot ____ . ____ . ____ . ____ . _
 72
    65
 73
     4
 40
30.0
 49
24.0
 74
     0
 49
-3.0
 74
     0
 49
0.0
 74
     0
 49
-3.0
 74
     0
  0
LTYPE
  5
7D
330
5
100
AcDbSymbolTableRecord
100
AcDbLinetypeTableRecord
  2
ACAD_ISO05W100
 70
     0
  3
ISO long-dash double-dot ____ .. ____ .. ____ .
 72
    65
 73
     6
 40
33.0
 49
24.0
 74
     0
 49
-3.0
 74
     0
 49
0.0
 74
     0
 49
-3.0
 74
     0
 49
0.0
 74
     0
 49
-3.0
 74
     0
  0
LTYPE
  5
7E
330
5
100
AcDbSymbolTableRecord
100
AcDbLinetypeTableRecord
  2
ACAD_ISO06W100
 70
     0
  3
ISO long-dash triple-dot ____ ... ____ ... ____
 72
    65
 73
     8
 40
36.0
 49
24.0
 74
     0
 49
-3.0
 74
     0
 49
0.0
 74
     0
 49
-3.0
 74
     0
 49
0.0
 74
     0
 49
-3.0
 74
     0
 49
0.0
 74
     0
 49
-3.0
 74
     0
  0
LTYPE
  5
7F
330
5
100
AcDbSymbolTableRecord
100
AcDbLinetypeTableRecord
  2
ACAD_ISO07W100
 70
     0
  3
ISO dot . . . . . . . . . . . . . . . . . . . .
 72
    65
 73
     2
 40
3.0
 49
0.0
 74
     0
 49
-3.0
 74
     0
  0
LTYPE
  5
80
330
5
100
AcDbSymbolTableRecord
100
AcDbLinetypeTableRecord
  2
ACAD_ISO08W100
 70
     0
  3
ISO long-dash short-dash ____ __ ____ __ ____ _
 72
    65
 73
     4
 40
36.0
 49
24.0
 74
     0
 49
-3.0
 74
     0
 49
6.0
 74
     0
 49
-3.0
 74
     0
  0
LTYPE
  5
81
330
5
100
AcDbSymbolTableRecord
100
AcDbLinetypeTableRecord
  2
ACAD_ISO09W100
 70
     0
  3
ISO long-dash double-short-dash ____ __ __ ____
 72
    65
 73
     6
 40
45.0
 49
24.0
 74
     0
 49
-3.0
 74
     0
 49
6.0
 74
     0
 49
-3.0
 74
     0
 49
6.0
 74
     0
 49
-3.0
 74
     0
  0
LTYPE
  5
82
330
5
100
AcDbSymbolTableRecord
100
AcDbLinetypeTableRecord
  2
ACAD_ISO10W100
 70
     0
  3
ISO dash dot __ . __ . __ . __ . __ . __ . __ .
 72
    65
 73
     4
 40
18.0
 49
12.0
 74
     0
 49
-3.0
 74
     0
 49
0.0
 74
     0
 49
-3.0
 74
     0
  0
LTYPE
  5
83
330
5
100
AcDbSymbolTableRecord
100
AcDbLinetypeTableRecord
  2
ACAD_ISO11W100
 70
     0
  3
ISO double-dash dot __ __ . __ __ . __ __ . __ _
 72
    65
 73
     6
 40
33.0
 49
12.0
 74
     0
 49
-3.0
 74
     0
 49
12.0
 74
     0
 49
-3.0
 74
     0
 49
0.0
 74
     0
 49
-3.0
 74
     0
  0
LTYPE
  5
84
330
5
100
AcDbSymbolTableRecord
100
AcDbLinetypeTableRecord
  2
ACAD_ISO12W100
 70
     0
  3
ISO dash double-dot __ . . __ . . __ . . __ . .
 72
    65
 73
     6
 40
21.0
 49
12.0
 74
     0
 49
-3.0
 74
     0
 49
0.0
 74
     0
 49
-3.0
 74
     0
 49
0.0
 74
     0
 49
-3.0
 74
     0
  0
LTYPE
  5
85
330
5
100
AcDbSymbolTableRecord
100
AcDbLinetypeTableRecord
  2
ACAD_ISO13W100
 70
     0
  3
ISO double-dash double-dot __ __ . . __ __ . . _
 72
    65
 73
     8
 40
36.0
 49
12.0
 74
     0
 49
-3.0
 74
     0
 49
12.0
 74
     0
 49
-3.0
 74
     0
 49
0.0
 74
     0
 49
-3.0
 74
     0
 49
0.0
 74
     0
 49
-3.0
 74
     0
  0
LTYPE
  5
86
330
5
100
AcDbSymbolTableRecord
100
AcDbLinetypeTableRecord
  2
ACAD_ISO14W100
 70
     0
  3
ISO dash triple-dot __ . . . __ . . . __ . . . _
 72
    65
 73
     8
 40
24.0
 49
12.0
 74
     0
 49
-3.0
 74
     0
 49
0.0
 74
     0
 49
-3.0
 74
     0
 49
0.0
 74
     0
 49
-3.0
 74
     0
 49
0.0
 74
     0
 49
-3.0
 74
     0
  0
LTYPE
  5
87
330
5
100
AcDbSymbolTableRecord
100
AcDbLinetypeTableRecord
  2
ACAD_ISO15W100
 70
     0
  3
ISO double-dash triple-dot __ __ . . . __ __ . .
 72
    65
 73
    10
 40
39.0
 49
12.0
 74
     0
 49
-3.0
 74
     0
 49
12.0
 74
     0
 49
-3.0
 74
     0
 49
0.0
 74
     0
 49
-3.0
 74
     0
 49
0.0
 74
     0
 49
-3.0
 74
     0
 49
0.0
 74
     0
 49
-3.0
 74
     0
  0
ENDTAB
  0
TABLE
  2
LAYER
  5
2
102
{ACAD_XDICTIONARY
360
A1
102
}
330
0
100
AcDbSymbolTable
 70
    14
  0
LAYER
  5
4F
330
2
100
AcDbSymbolTableRecord
100
AcDbLayerTableRecord
  2
0
 70
     0
 62
     7
  6
Continuous
370
    -3
390
F
347
21
  0
LAYER
  5
71
330
2
100
AcDbSymbolTableRecord
100
AcDbLayerTableRecord
  2
表題
 70
     0
 62
     5
  6
Continuous
370
    50
390
F
347
21
1001
AcAecLayerStandard
1000

1000

  0
LAYER
  5
73
330
2
100
AcDbSymbolTableRecord
100
AcDbLayerTableRecord
  2
用紙
 70
     0
 62
     4
  6
Continuous
370
    -3
390
F
347
21
1001
AcAecLayerStandard
1000

1000

  0
LAYER
  5
74
330
2
100
AcDbSymbolTableRecord
100
AcDbLayerTableRecord
  2
輪郭
 70
     0
 62
     5
  6
Continuous
370
    70
390
F
347
21
1001
AcAecLayerStandard
1000

1000

  0
LAYER
  5
75
330
2
100
AcDbSymbolTableRecord
100
AcDbLayerTableRecord
  2
製品
 70
     0
 62
     7
  6
Continuous
370
    25
390
F
347
21
1001
AcAecLayerStandard
1000

1000

  0
LAYER
  5
76
330
2
100
AcDbSymbolTableRecord
100
AcDbLayerTableRecord
  2
寸法
 70
     0
 62
     7
  6
Continuous
370
    13
390
F
347
21
1001
AcAecLayerStandard
1000

1000

  0
LAYER
  5
77
330
2
100
AcDbSymbolTableRecord
100
AcDbLayerTableRecord
  2
中心
 70
     0
 62
     1
  6
ACAD_ISO08W100
370
    13
390
F
347
21
1001
AcAecLayerStandard
1000

1000

  0
LAYER
  5
88
330
2
100
AcDbSymbolTableRecord
100
AcDbLayerTableRecord
  2
鉄筋
 70
     0
 62
     6
  6
ACAD_ISO03W100
370
    25
390
F
347
21
1001
AcAecLayerStandard
1000

1000

  0
LAYER
  5
89
330
2
100
AcDbSymbolTableRecord
100
AcDbLayerTableRecord
  2
構築
 70
     0
 62
     3
  6
Continuous
370
    13
390
F
347
21
1001
AcAecLayerStandard
1000

1000

  0
LAYER
  5
1AB
330
2
100
AcDbSymbolTableRecord
100
AcDbLayerTableRecord
  2
製品2
 70
     0
 62
     7
  6
ACAD_ISO03W100
370
    15
390
F
347
21
1001
AcAecLayerStandard
1000

1000

1001
AcCmTransparency
1071
        0
  0
LAYER
  5
1BE
330
2
100
AcDbSymbolTableRecord
100
AcDbLayerTableRecord
  2
製品1
 70
     0
 62
     7
  6
Continuous
370
    15
390
F
347
21
1001
AcAecLayerStandard
1000

1000

1001
AcCmTransparency
1071
        0
  0
LAYER
  5
237
330
2
100
AcDbSymbolTableRecord
100
AcDbLayerTableRecord
  2
文字
 70
     0
 62
     7
  6
Continuous
370
    25
390
F
347
21
1001
AcAecLayerStandard
1000

1000

1001
AcCmTransparency
1071
        0
  0
LAYER
  5
2AD
330
2
100
AcDbSymbolTableRecord
100
AcDbLayerTableRecord
  2
Defpoints
 70
     0
 62
     7
  6
Continuous
290
     0
370
    -3
390
F
347
21
  0
LAYER
  5
1205
330
2
100
AcDbSymbolTableRecord
100
AcDbLayerTableRecord
  2
鉄筋2
 70
     0
 62
     6
  6
Continuous
370
    25
390
F
347
21
1001
AcAecLayerStandard
1000

1000

1001
AcCmTransparency
1071
        0
  0
ENDTAB
  0
TABLE
  2
STYLE
  5
3
330
0
100
AcDbSymbolTable
 70
     5
  0
STYLE
  5
50
330
3
100
AcDbSymbolTableRecord
100
AcDbTextStyleTableRecord
  2
Standard
 70
     0
 40
0.0
 41
1.0
 50
0.0
 71
     0
 42
2.5
  3
txt
  4

  0
STYLE
  5
55
330
3
100
AcDbSymbolTableRecord
100
AcDbTextStyleTableRecord
  2
Annotative
 70
     0
 40
0.0
 41
1.0
 50
0.0
 71
     0
 42
0.2
  3
txt
  4

1001
AcadAnnotative
1000
AnnotativeData
1002
{
1070
     1
1070
     1
1002
}
  0
STYLE
  5
79
330
3
100
AcDbSymbolTableRecord
100
AcDbTextStyleTableRecord
  2

 70
     1
 40
0.0
 41
1.0
 50
0.0
 71
     0
 42
2.5
  3
ltypeshp.shx
  4

  0
STYLE
  5
AB
330
3
100
AcDbSymbolTableRecord
100
AcDbTextStyleTableRecord
  2
文字
 70
     0
 40
0.0
 41
1.0
 50
0.0
 71
     0
 42
5.0
  3

  4

1001
ACAD
1000
MS Gothic
1071
    32817
  0
STYLE
  5
DC
330
3
100
AcDbSymbolTableRecord
100
AcDbTextStyleTableRecord
  2
寸法
 70
     0
 40
0.0
 41
1.0
 50
0.0
 71
     0
 42
2.5
  3
isocpeur.ttf
  4

1001
ACAD
1000
ISOCPEUR
1071
       34
  0
ENDTAB
  0
TABLE
  2
VIEW
  5
6
330
0
100
AcDbSymbolTable
 70
     0
  0
ENDTAB
  0
TABLE
  2
UCS
  5
7
330
0
100
AcDbSymbolTable
 70
     0
  0
ENDTAB
  0
TABLE
  2
APPID
  5
9
330
0
100
AcDbSymbolTable
 70
    12
  0
APPID
  5
51
330
9
100
AcDbSymbolTableRecord
100
AcDbRegAppTableRecord
  2
ACAD
 70
     0
  0
APPID
  5
59
330
9
100
AcDbSymbolTableRecord
100
AcDbRegAppTableRecord
  2
AcadAnnotative
 70
     0
  0
APPID
  5
72
330
9
100
AcDbSymbolTableRecord
100
AcDbRegAppTableRecord
  2
AcAecLayerStandard
 70
     0
  0
APPID
  5
DD
330
9
100
AcDbSymbolTableRecord
100
AcDbRegAppTableRecord
  2
AcadAnnoPO
 70
     0
  0
APPID
  5
116
330
9
100
AcDbSymbolTableRecord
100
AcDbRegAppTableRecord
  2
ACAD_MLEADERVER
 70
     0
  0
APPID
  5
12E
330
9
100
AcDbSymbolTableRecord
100
AcDbRegAppTableRecord
  2
ACAD_EXEMPT_FROM_CAD_STANDARDS
 70
     0
  0
APPID
  5
161
330
9
100
AcDbSymbolTableRecord
100
AcDbRegAppTableRecord
  2
ACAD_NAV_VCDISPLAY
 70
     0
  0
APPID
  5
1AC
330
9
100
AcDbSymbolTableRecord
100
AcDbRegAppTableRecord
  2
AcCmTransparency
 70
     0
  0
APPID
  5
2A9
330
9
100
AcDbSymbolTableRecord
100
AcDbRegAppTableRecord
  2
ACAD_DSTYLE_DIMJAG
 70
     0
  0
APPID
  5
2AA
330
9
100
AcDbSymbolTableRecord
100
AcDbRegAppTableRecord
  2
ACAD_DSTYLE_DIMTALN
 70
     0
  0
APPID
  5
81E
330
9
100
AcDbSymbolTableRecord
100
AcDbRegAppTableRecord
  2
ACAD_PSEXT
 70
     0
  0
APPID
  5
839
330
9
100
AcDbSymbolTableRecord
100
AcDbRegAppTableRecord
  2
ACAD_DSTYLE_DIMRADIAL_EXTENSION
 70
     0
  0
ENDTAB
  0
TABLE
  2
DIMSTYLE
  5
A
330
0
100
AcDbSymbolTable
 70
     2
100
AcDbDimStyleTable
 71
     1
340
53
  0
DIMSTYLE
105
53
102
{ACAD_REACTORS
330
2D2
330
2EA
330
330
330
34C
330
395
330
398
330
39E
330
3F9
330
411
330
454
330
46C
330
484
330
4A0
330
5B8
330
604
330
65A
330
676
330
6EA
330
70F
330
72B
330
747
330
78D
330
7A9
330
7FE
330
83A
330
847
330
958
330
970
330
9F9
102
}
330
A
100
AcDbSymbolTableRecord
100
AcDbDimStyleTableRecord
  2
ISO-25
 70
     0
 40
15.0
 41
2.5
 42
1.625
 43
3.75
 44
1.25
 50
90.0
 73
     0
 74
     0
 77
     1
 78
     8
140
2.5
141
2.5
143
0.03937007874016
147
1.625
171
     3
172
     1
271
     2
272
     2
274
     3
283
     0
284
     8
340
50
1001
ACAD_DSTYLE_DIMJAG
1070
   388
1040
1.5
1001
ACAD_DSTYLE_DIMTALN
1070
   392
1070
     0
  0
DIMSTYLE
105
54
330
A
100
AcDbSymbolTableRecord
100
AcDbDimStyleTableRecord
  2
Annotative
 70
     0
340
50
1001
AcadAnnotative
1000
AnnotativeData
1002
{
1070
     1
1070
     1
1002
}
  0
ENDTAB
  0
TABLE
  2
BLOCK_RECORD
  5
1
330
0
100
AcDbSymbolTable
 70
    31
  0
BLOCK_RECORD
  5
67
102
{ACAD_XDICTIONARY
360
9C
102
}
330
1
100
AcDbSymbolTableRecord
100
AcDbBlockTableRecord
  2
*Model_Space
340
6A
 70
     0
280
     1
281
     0
  0
BLOCK_RECORD
  5
63
330
1
100
AcDbSymbolTableRecord
100
AcDbBlockTableRecord
  2
*Paper_Space
340
66
 70
     0
280
     1
281
     0
  0
BLOCK_RECORD
  5
6B
330
1
100
AcDbSymbolTableRecord
100
AcDbBlockTableRecord
  2
*Paper_Space0
340
6E
 70
     0
280
     1
281
     0
  0
BLOCK_RECORD
  5
2D3
330
1
100
AcDbSymbolTableRecord
100
AcDbBlockTableRecord
  2
*D1
340
0
 70
     0
280
     1
281
     0
  0
BLOCK_RECORD
  5
2EB
330
1
100
AcDbSymbolTableRecord
100
AcDbBlockTableRecord
  2
*D2
340
0
 70
     0
280
     1
281
     0
  0
BLOCK_RECORD
  5
331
330
1
100
AcDbSymbolTableRecord
100
AcDbBlockTableRecord
  2
*D3
340
0
 70
     0
280
     1
281
     0
  0
BLOCK_RECORD
  5
34D
330
1
100
AcDbSymbolTableRecord
100
AcDbBlockTableRecord
  2
*D4
340
0
 70
     0
280
     1
281
     0
  0
BLOCK_RECORD
  5
3A1
330
1
100
AcDbSymbolTableRecord
100
AcDbBlockTableRecord
  2
*D5
340
0
 70
     0
280
     1
281
     0
  0
BLOCK_RECORD
  5
3AD
330
1
100
AcDbSymbolTableRecord
100
AcDbBlockTableRecord
  2
*D6
340
0
 70
     0
280
     1
281
     0
  0
BLOCK_RECORD
  5
3C7
330
1
100
AcDbSymbolTableRecord
100
AcDbBlockTableRecord
  2
*D7
340
0
 70
     0
280
     1
281
     0
  0
BLOCK_RECORD
  5
3FA
330
1
100
AcDbSymbolTableRecord
100
AcDbBlockTableRecord
  2
*D8
340
0
 70
     0
280
     1
281
     0
  0
BLOCK_RECORD
  5
412
330
1
100
AcDbSymbolTableRecord
100
AcDbBlockTableRecord
  2
*D9
340
0
 70
     0
280
     1
281
     0
  0
BLOCK_RECORD
  5
455
330
1
100
AcDbSymbolTableRecord
100
AcDbBlockTableRecord
  2
*D10
340
0
 70
     0
280
     1
281
     0
  0
BLOCK_RECORD
  5
46D
330
1
100
AcDbSymbolTableRecord
100
AcDbBlockTableRecord
  2
*D11
340
0
 70
     0
280
     1
281
     0
  0
BLOCK_RECORD
  5
485
330
1
100
AcDbSymbolTableRecord
100
AcDbBlockTableRecord
  2
*D12
340
0
 70
     0
280
     1
281
     0
  0
BLOCK_RECORD
  5
4A1
330
1
100
AcDbSymbolTableRecord
100
AcDbBlockTableRecord
  2
*D13
340
0
 70
     0
280
     1
281
     0
  0
BLOCK_RECORD
  5
5B9
330
1
100
AcDbSymbolTableRecord
100
AcDbBlockTableRecord
  2
*D14
340
0
 70
     0
280
     1
281
     0
  0
BLOCK_RECORD
  5
5EA
330
1
100
AcDbSymbolTableRecord
100
AcDbBlockTableRecord
  2
_DotSmall
340
0
102
{BLKREFS
331
1357
331
1362
331
136D
331
1378
331
1383
331
138E
102
}
 70
     0
280
     1
281
     0
  0
BLOCK_RECORD
  5
605
330
1
100
AcDbSymbolTableRecord
100
AcDbBlockTableRecord
  2
*D16
340
0
 70
     0
280
     1
281
     0
  0
BLOCK_RECORD
  5
65B
330
1
100
AcDbSymbolTableRecord
100
AcDbBlockTableRecord
  2
*D17
340
0
 70
     0
280
     1
281
     0
  0
BLOCK_RECORD
  5
677
330
1
100
AcDbSymbolTableRecord
100
AcDbBlockTableRecord
  2
*D18
340
0
 70
     0
280
     1
281
     0
  0
BLOCK_RECORD
  5
6EB
330
1
100
AcDbSymbolTableRecord
100
AcDbBlockTableRecord
  2
*D19
340
0
 70
     0
280
     1
281
     0
  0
BLOCK_RECORD
  5
710
330
1
100
AcDbSymbolTableRecord
100
AcDbBlockTableRecord
  2
*D20
340
0
 70
     0
280
     1
281
     0
  0
BLOCK_RECORD
  5
72C
330
1
100
AcDbSymbolTableRecord
100
AcDbBlockTableRecord
  2
*D21
340
0
 70
     0
280
     1
281
     0
  0
BLOCK_RECORD
  5
748
330
1
100
AcDbSymbolTableRecord
100
AcDbBlockTableRecord
  2
*D22
340
0
 70
     0
280
     1
281
     0
  0
BLOCK_RECORD
  5
78E
330
1
100
AcDbSymbolTableRecord
100
AcDbBlockTableRecord
  2
*D23
340
0
 70
     0
280
     1
281
     0
  0
BLOCK_RECORD
  5
7AA
330
1
100
AcDbSymbolTableRecord
100
AcDbBlockTableRecord
  2
*D24
340
0
 70
     0
280
     1
281
     0
  0
BLOCK_RECORD
  5
7FF
330
1
100
AcDbSymbolTableRecord
100
AcDbBlockTableRecord
  2
*D25
340
0
 70
     0
280
     1
281
     0
  0
BLOCK_RECORD
  5
83B
330
1
100
AcDbSymbolTableRecord
100
AcDbBlockTableRecord
  2
*D26
340
0
 70
     0
280
     1
281
     0
  0
BLOCK_RECORD
  5
848
330
1
100
AcDbSymbolTableRecord
100
AcDbBlockTableRecord
  2
*D27
340
0
 70
     0
280
     1
281
     0
  0
BLOCK_RECORD
  5
959
330
1
100
AcDbSymbolTableRecord
100
AcDbBlockTableRecord
  2
*D28
340
0
 70
     0
280
     1
281
     0
  0
BLOCK_RECORD
  5
971
330
1
100
AcDbSymbolTableRecord
100
AcDbBlockTableRecord
  2
*D29
340
0
 70
     0
280
     1
281
     0
  0
BLOCK_RECORD
  5
9FC
330
1
100
AcDbSymbolTableRecord
100
AcDbBlockTableRecord
  2
*D30
340
0
 70
     0
280
     1
281
     0
  0
ENDTAB
  0
ENDSEC
  0
SECTION
  2
BLOCKS
  0
BLOCK
  5
68
330
67
100
AcDbEntity
  8
0
100
AcDbBlockBegin
  2
*Model_Space
 70
     0
 10
0.0
 20
0.0
 30
0.0
  3
*Model_Space
  1

  0
ENDBLK
  5
69
330
67
100
AcDbEntity
  8
0
100
AcDbBlockEnd
  0
BLOCK
  5
64
330
63
100
AcDbEntity
 67
     1
  8
0
100
AcDbBlockBegin
  2
*Paper_Space
 70
     0
 10
0.0
 20
0.0
 30
0.0
  3
*Paper_Space
  1

  0
ENDBLK
  5
65
330
63
100
AcDbEntity
 67
     1
  8
0
100
AcDbBlockEnd
  0
BLOCK
  5
6C
330
6B
100
AcDbEntity
 67
     1
  8
0
100
AcDbBlockBegin
  2
*Paper_Space0
 70
     0
 10
0.0
 20
0.0
 30
0.0
  3
*Paper_Space0
  1

  0
ENDBLK
  5
6D
330
6B
100
AcDbEntity
 67
     1
  8
0
100
AcDbBlockEnd
  0
BLOCK
  5
2D4
330
2D3
100
AcDbEntity
  8
0
100
AcDbBlockBegin
  2
*D1
 70
     1
 10
0.0
 20
0.0
 30
0.0
  3
*D1
  1

  0
LINE
  5
12E5
330
2D3
100
AcDbEntity
  8
寸法
 62
     0
440
 16777216
370
    -2
100
AcDbLine
 10
973.75
 20
2476.875
 30
0.0
 11
973.75
 21
2547.951875192132
 31
0.0
  0
LINE
  5
12E6
330
2D3
100
AcDbEntity
  8
寸法
 62
     0
440
 16777216
370
    -2
100
AcDbLine
 10
1403.75
 20
2476.875
 30
0.0
 11
1403.75
 21
2547.951875192132
 31
0.0
  0
LINE
  5
12E7
330
2D3
100
AcDbEntity
  8
寸法
 62
     0
440
 16777216
370
    -2
100
AcDbLine
 10
1011.25
 20
2529.201875192132
 30
0.0
 11
1366.25
 21
2529.201875192132
 31
0.0
  0
SOLID
  5
12E8
330
2D3
100
AcDbEntity
  8
寸法
 62
     0
440
 16777216
100
AcDbTrace
 10
1011.25
 20
2535.451875192132
 30
0.0
 11
1011.25
 21
2522.951875192132
 31
0.0
 12
973.75
 22
2529.201875192132
 32
0.0
 13
973.75
 23
2529.201875192132
 33
0.0
  0
SOLID
  5
12E9
330
2D3
100
AcDbEntity
  8
寸法
 62
     0
440
 16777216
100
AcDbTrace
 10
1366.25
 20
2535.451875192132
 30
0.0
 11
1366.25
 21
2522.951875192132
 31
0.0
 12
1403.75
 22
2529.201875192132
 32
0.0
 13
1403.75
 23
2529.201875192132
 33
0.0
  0
MTEXT
  5
12EA
330
2D3
100
AcDbEntity
  8
寸法
 62
     0
440
 16777216
100
AcDbMText
 10
1188.75
 20
2572.326875192132
 30
0.0
 40
37.5
 41
0.0
 46
0.0
 71
     5
 72
     1
  1
430
 73
     1
 44
1.0
  0
POINT
  5
12EB
330
2D3
100
AcDbEntity
  8
Defpoints
 62
     0
440
 16777216
100
AcDbPoint
 10
973.75
 20
2452.500000000001
 30
0.0
  0
POINT
  5
12EC
330
2D3
100
AcDbEntity
  8
Defpoints
 62
     0
440
 16777216
100
AcDbPoint
 10
1403.75
 20
2452.500000000001
 30
0.0
  0
POINT
  5
12ED
330
2D3
100
AcDbEntity
  8
Defpoints
 62
     0
440
 16777216
100
AcDbPoint
 10
1403.75
 20
2529.201875192132
 30
0.0
  0
ENDBLK
  5
2D5
330
2D3
100
AcDbEntity
  8
0
100
AcDbBlockEnd
  0
BLOCK
  5
2EC
330
2EB
100
AcDbEntity
  8
0
100
AcDbBlockBegin
  2
*D2
 70
     1
 10
0.0
 20
0.0
 30
0.0
  3
*D2
  1

  0
LINE
  5
12EE
330
2EB
100
AcDbEntity
  8
寸法
 62
     0
440
 16777216
370
    -2
100
AcDbLine
 10
1428.125
 20
2452.500000000001
 30
0.0
 11
1529.70451629386
 21
2452.500000000001
 31
0.0
  0
LINE
  5
12EF
330
2EB
100
AcDbEntity
  8
寸法
 62
     0
440
 16777216
370
    -2
100
AcDbLine
 10
1428.125
 20
2022.5
 30
0.0
 11
1529.70451629386
 21
2022.5
 31
0.0
  0
LINE
  5
12F0
330
2EB
100
AcDbEntity
  8
寸法
 62
     0
440
 16777216
370
    -2
100
AcDbLine
 10
1510.95451629386
 20
2415.0
 30
0.0
 11
1510.95451629386
 21
2060.0
 31
0.0
  0
SOLID
  5
12F1
330
2EB
100
AcDbEntity
  8
寸法
 62
     0
440
 16777216
100
AcDbTrace
 10
1504.70451629386
 20
2415.0
 30
0.0
 11
1517.20451629386
 21
2415.0
 31
0.0
 12
1510.95451629386
 22
2452.500000000001
 32
0.0
 13
1510.95451629386
 23
2452.500000000001
 33
0.0
  0
SOLID
  5
12F2
330
2EB
100
AcDbEntity
  8
寸法
 62
     0
440
 16777216
100
AcDbTrace
 10
1504.70451629386
 20
2060.0
 30
0.0
 11
1517.20451629386
 21
2060.0
 31
0.0
 12
1510.95451629386
 22
2022.5
 32
0.0
 13
1510.95451629386
 23
2022.5
 33
0.0
  0
MTEXT
  5
12F3
330
2EB
100
AcDbEntity
  8
寸法
 62
     0
440
 16777216
100
AcDbMText
 10
1467.82951629386
 20
2237.5
 30
0.0
 40
37.5
 41
0.0
 46
0.0
 71
     5
 72
     1
  1
430
 11
0.0000000000000001
 21
1.0
 31
0.0
 73
     1
 44
1.0
  0
POINT
  5
12F4
330
2EB
100
AcDbEntity
  8
Defpoints
 62
     0
440
 16777216
100
AcDbPoint
 10
1403.75
 20
2452.500000000001
 30
0.0
  0
POINT
  5
12F5
330
2EB
100
AcDbEntity
  8
Defpoints
 62
     0
440
 16777216
100
AcDbPoint
 10
1403.75
 20
2022.5
 30
0.0
  0
POINT
  5
12F6
330
2EB
100
AcDbEntity
  8
Defpoints
 62
     0
440
 16777216
100
AcDbPoint
 10
1510.95451629386
 20
2022.5
 30
0.0
  0
ENDBLK
  5
2ED
330
2EB
100
AcDbEntity
  8
0
100
AcDbBlockEnd
  0
BLOCK
  5
332
330
331
100
AcDbEntity
  8
0
100
AcDbBlockBegin
  2
*D3
 70
     1
 10
0.0
 20
0.0
 30
0.0
  3
*D3
  1

  0
LINE
  5
DB6
330
331
100
AcDbEntity
  8
寸法
 62
     0
440
 16777216
370
    -2
100
AcDbLine
 10
1423.124999999999
 20
1787.5
 30
0.0
 11
1529.70451629386
 21
1787.5
 31
0.0
  0
LINE
  5
DB7
330
331
100
AcDbEntity
  8
寸法
 62
     0
440
 16777216
370
    -2
100
AcDbLine
 10
1423.124999999999
 20
1837.5
 30
0.0
 11
1529.70451629386
 21
1837.5
 31
0.0
  0
LINE
  5
DB8
330
331
100
AcDbEntity
  8
寸法
 62
     0
440
 16777216
370
    -2
100
AcDbLine
 10
1510.95451629386
 20
1750.0
 30
0.0
 11
1510.95451629386
 21
1712.5
 31
0.0
  0
LINE
  5
DB9
330
331
100
AcDbEntity
  8
寸法
 62
     0
440
 16777216
370
    -2
100
AcDbLine
 10
1510.95451629386
 20
1875.0
 30
0.0
 11
1510.95451629386
 21
1912.5
 31
0.0
  0
MTEXT
  5
DBA
330
331
100
AcDbEntity
  8
寸法
 62
     0
440
 16777216
100
AcDbMText
 10
1559.063348184683
 20
1812.430999463838
 30
0.0
 40
37.5
 41
0.0
 46
0.0
 71
     5
 72
     1
  1
50
 11
0.0000000000000001
 21
1.0
 31
0.0
 73
     1
 44
1.0
  0
LINE
  5
DBB
330
331
100
AcDbEntity
  8
寸法
 62
     0
440
 16777216
370
    -2
100
AcDbLine
 10
1510.95451629386
 20
1787.5
 30
0.0
 11
1510.95451629386
 21
1837.5
 31
0.0
  0
SOLID
  5
DBC
330
331
100
AcDbEntity
  8
寸法
 62
     0
440
 16777216
100
AcDbTrace
 10
1504.70451629386
 20
1750.0
 30
0.0
 11
1517.20451629386
 21
1750.0
 31
0.0
 12
1510.95451629386
 22
1787.5
 32
0.0
 13
1510.95451629386
 23
1787.5
 33
0.0
  0
SOLID
  5
DBD
330
331
100
AcDbEntity
  8
寸法
 62
     0
440
 16777216
100
AcDbTrace
 10
1504.70451629386
 20
1875.0
 30
0.0
 11
1517.20451629386
 21
1875.0
 31
0.0
 12
1510.95451629386
 22
1837.5
 32
0.0
 13
1510.95451629386
 23
1837.5
 33
0.0
  0
POINT
  5
DBE
330
331
100
AcDbEntity
  8
Defpoints
 62
     0
440
 16777216
100
AcDbPoint
 10
1398.749999999999
 20
1787.5
 30
0.0
  0
POINT
  5
DBF
330
331
100
AcDbEntity
  8
Defpoints
 62
     0
440
 16777216
100
AcDbPoint
 10
1398.749999999999
 20
1837.5
 30
0.0
  0
POINT
  5
DC0
330
331
100
AcDbEntity
  8
Defpoints
 62
     0
440
 16777216
100
AcDbPoint
 10
1510.95451629386
 20
1837.5
 30
0.0
  0
ENDBLK
  5
333
330
331
100
AcDbEntity
  8
0
100
AcDbBlockEnd
  0
BLOCK
  5
34E
330
34D
100
AcDbEntity
  8
0
100
AcDbBlockBegin
  2
*D4
 70
     1
 10
0.0
 20
0.0
 30
0.0
  3
*D4
  1

  0
LINE
  5
DC1
330
34D
100
AcDbEntity
  8
寸法
 62
     0
440
 16777216
370
    -2
100
AcDbLine
 10
978.7499999999999
 20
1763.125
 30
0.0
 11
978.7499999999999
 21
1669.567423848663
 31
0.0
  0
LINE
  5
DC2
330
34D
100
AcDbEntity
  8
寸法
 62
     0
440
 16777216
370
    -2
100
AcDbLine
 10
1398.749999999999
 20
1763.125
 30
0.0
 11
1398.749999999999
 21
1669.567423848663
 31
0.0
  0
LINE
  5
DC3
330
34D
100
AcDbEntity
  8
寸法
 62
     0
440
 16777216
370
    -2
100
AcDbLine
 10
1016.25
 20
1688.317423848663
 30
0.0
 11
1361.25
 21
1688.317423848663
 31
0.0
  0
SOLID
  5
DC4
330
34D
100
AcDbEntity
  8
寸法
 62
     0
440
 16777216
100
AcDbTrace
 10
1016.25
 20
1694.567423848663
 30
0.0
 11
1016.25
 21
1682.067423848663
 31
0.0
 12
978.7499999999999
 22
1688.317423848663
 32
0.0
 13
978.7499999999999
 23
1688.317423848663
 33
0.0
  0
SOLID
  5
DC5
330
34D
100
AcDbEntity
  8
寸法
 62
     0
440
 16777216
100
AcDbTrace
 10
1361.25
 20
1694.567423848663
 30
0.0
 11
1361.25
 21
1682.067423848663
 31
0.0
 12
1398.749999999999
 22
1688.317423848663
 32
0.0
 13
1398.749999999999
 23
1688.317423848663
 33
0.0
  0
MTEXT
  5
DC6
330
34D
100
AcDbEntity
  8
寸法
 62
     0
440
 16777216
100
AcDbMText
 10
1188.75
 20
1731.442423848663
 30
0.0
 40
37.5
 41
0.0
 46
0.0
 71
     5
 72
     1
  1
420
 73
     1
 44
1.0
  0
POINT
  5
DC7
330
34D
100
AcDbEntity
  8
Defpoints
 62
     0
440
 16777216
100
AcDbPoint
 10
978.7499999999999
 20
1787.5
 30
0.0
  0
POINT
  5
DC8
330
34D
100
AcDbEntity
  8
Defpoints
 62
     0
440
 16777216
100
AcDbPoint
 10
1398.749999999999
 20
1787.5
 30
0.0
  0
POINT
  5
DC9
330
34D
100
AcDbEntity
  8
Defpoints
 62
     0
440
 16777216
100
AcDbPoint
 10
1398.749999999999
 20
1688.317423848663
 30
0.0
  0
ENDBLK
  5
34F
330
34D
100
AcDbEntity
  8
0
100
AcDbBlockEnd
  0
BLOCK
  5
3A2
330
3A1
100
AcDbEntity
  8
0
100
AcDbBlockBegin
  2
*D5
 70
     1
 10
0.0
 20
0.0
 30
0.0
  3
*D5
  1

  0
LINE
  5
12F7
330
3A1
100
AcDbEntity
  8
寸法
 62
     0
440
 16777216
370
    -2
100
AcDbLine
 10
973.75
 20
1051.875
 30
0.0
 11
973.75
 21
1123.981152225293
 31
0.0
  0
LINE
  5
12F8
330
3A1
100
AcDbEntity
  8
寸法
 62
     0
440
 16777216
370
    -2
100
AcDbLine
 10
1403.749999999999
 20
1051.874999999999
 30
0.0
 11
1403.749999999999
 21
1123.981152225293
 31
0.0
  0
LINE
  5
12F9
330
3A1
100
AcDbEntity
  8
寸法
 62
     0
440
 16777216
370
    -2
100
AcDbLine
 10
1011.25
 20
1105.231152225293
 30
0.0
 11
1366.249999999999
 21
1105.231152225293
 31
0.0
  0
SOLID
  5
12FA
330
3A1
100
AcDbEntity
  8
寸法
 62
     0
440
 16777216
100
AcDbTrace
 10
1011.25
 20
1111.481152225293
 30
0.0
 11
1011.25
 21
1098.981152225293
 31
0.0
 12
973.75
 22
1105.231152225293
 32
0.0
 13
973.75
 23
1105.231152225293
 33
0.0
  0
SOLID
  5
12FB
330
3A1
100
AcDbEntity
  8
寸法
 62
     0
440
 16777216
100
AcDbTrace
 10
1366.249999999999
 20
1111.481152225293
 30
0.0
 11
1366.249999999999
 21
1098.981152225293
 31
0.0
 12
1403.749999999999
 22
1105.231152225293
 32
0.0
 13
1403.749999999999
 23
1105.231152225293
 33
0.0
  0
MTEXT
  5
12FC
330
3A1
100
AcDbEntity
  8
寸法
 62
     0
440
 16777216
100
AcDbMText
 10
1188.749999999999
 20
1148.356152225293
 30
0.0
 40
37.5
 41
0.0
 46
0.0
 71
     5
 72
     1
  1
430
 73
     1
 44
1.0
  0
POINT
  5
12FD
330
3A1
100
AcDbEntity
  8
Defpoints
 62
     0
440
 16777216
100
AcDbPoint
 10
973.75
 20
1027.5
 30
0.0
  0
POINT
  5
12FE
330
3A1
100
AcDbEntity
  8
Defpoints
 62
     0
440
 16777216
100
AcDbPoint
 10
1403.749999999999
 20
1027.499999999999
 30
0.0
  0
POINT
  5
12FF
330
3A1
100
AcDbEntity
  8
Defpoints
 62
     0
440
 16777216
100
AcDbPoint
 10
1403.749999999999
 20
1105.231152225293
 30
0.0
  0
ENDBLK
  5
3A3
330
3A1
100
AcDbEntity
  8
0
100
AcDbBlockEnd
  0
BLOCK
  5
3AE
330
3AD
100
AcDbEntity
  8
0
100
AcDbBlockBegin
  2
*D6
 70
     1
 10
0.0
 20
0.0
 30
0.0
  3
*D6
  1

  0
LINE
  5
1300
330
3AD
100
AcDbEntity
  8
寸法
 62
     0
440
 16777216
370
    -2
100
AcDbLine
 10
1428.125
 20
1027.5
 30
0.0
 11
1529.70451629386
 21
1027.5
 31
0.0
  0
LINE
  5
1301
330
3AD
100
AcDbEntity
  8
寸法
 62
     0
440
 16777216
370
    -2
100
AcDbLine
 10
1428.125
 20
597.5
 30
0.0
 11
1529.70451629386
 21
597.5
 31
0.0
  0
LINE
  5
1302
330
3AD
100
AcDbEntity
  8
寸法
 62
     0
440
 16777216
370
    -2
100
AcDbLine
 10
1510.95451629386
 20
989.9999999999998
 30
0.0
 11
1510.95451629386
 21
635.0
 31
0.0
  0
SOLID
  5
1303
330
3AD
100
AcDbEntity
  8
寸法
 62
     0
440
 16777216
100
AcDbTrace
 10
1504.70451629386
 20
989.9999999999998
 30
0.0
 11
1517.20451629386
 21
989.9999999999998
 31
0.0
 12
1510.95451629386
 22
1027.5
 32
0.0
 13
1510.95451629386
 23
1027.5
 33
0.0
  0
SOLID
  5
1304
330
3AD
100
AcDbEntity
  8
寸法
 62
     0
440
 16777216
100
AcDbTrace
 10
1504.70451629386
 20
635.0
 30
0.0
 11
1517.20451629386
 21
635.0
 31
0.0
 12
1510.95451629386
 22
597.5
 32
0.0
 13
1510.95451629386
 23
597.5
 33
0.0
  0
MTEXT
  5
1305
330
3AD
100
AcDbEntity
  8
寸法
 62
     0
440
 16777216
100
AcDbMText
 10
1467.82951629386
 20
812.5000000000001
 30
0.0
 40
37.5
 41
0.0
 46
0.0
 71
     5
 72
     1
  1
430
 11
0.0000000000000001
 21
1.0
 31
0.0
 73
     1
 44
1.0
  0
POINT
  5
1306
330
3AD
100
AcDbEntity
  8
Defpoints
 62
     0
440
 16777216
100
AcDbPoint
 10
1403.75
 20
1027.5
 30
0.0
  0
POINT
  5
1307
330
3AD
100
AcDbEntity
  8
Defpoints
 62
     0
440
 16777216
100
AcDbPoint
 10
1403.75
 20
597.5
 30
0.0
  0
POINT
  5
1308
330
3AD
100
AcDbEntity
  8
Defpoints
 62
     0
440
 16777216
100
AcDbPoint
 10
1510.95451629386
 20
597.5
 30
0.0
  0
ENDBLK
  5
3AF
330
3AD
100
AcDbEntity
  8
0
100
AcDbBlockEnd
  0
BLOCK
  5
3C8
330
3C7
100
AcDbEntity
  8
0
100
AcDbBlockBegin
  2
*D7
 70
     1
 10
0.0
 20
0.0
 30
0.0
  3
*D7
  1

  0
LINE
  5
E42
330
3C7
100
AcDbEntity
  8
寸法
 62
     0
440
 16777216
370
    -2
100
AcDbLine
 10
978.7499999999999
 20
338.1250000000009
 30
0.0
 11
978.7499999999999
 21
244.5674238486631
 31
0.0
  0
LINE
  5
E43
330
3C7
100
AcDbEntity
  8
寸法
 62
     0
440
 16777216
370
    -2
100
AcDbLine
 10
1398.749999999999
 20
338.125
 30
0.0
 11
1398.749999999999
 21
244.5674238486631
 31
0.0
  0
LINE
  5
E44
330
3C7
100
AcDbEntity
  8
寸法
 62
     0
440
 16777216
370
    -2
100
AcDbLine
 10
1016.25
 20
263.3174238486631
 30
0.0
 11
1361.25
 21
263.3174238486631
 31
0.0
  0
SOLID
  5
E45
330
3C7
100
AcDbEntity
  8
寸法
 62
     0
440
 16777216
100
AcDbTrace
 10
1016.25
 20
269.5674238486631
 30
0.0
 11
1016.25
 21
257.0674238486631
 31
0.0
 12
978.7499999999999
 22
263.3174238486631
 32
0.0
 13
978.7499999999999
 23
263.3174238486631
 33
0.0
  0
SOLID
  5
E46
330
3C7
100
AcDbEntity
  8
寸法
 62
     0
440
 16777216
100
AcDbTrace
 10
1361.25
 20
269.5674238486631
 30
0.0
 11
1361.25
 21
257.0674238486631
 31
0.0
 12
1398.749999999999
 22
263.3174238486631
 32
0.0
 13
1398.749999999999
 23
263.3174238486631
 33
0.0
  0
MTEXT
  5
E47
330
3C7
100
AcDbEntity
  8
寸法
 62
     0
440
 16777216
100
AcDbMText
 10
1188.75
 20
306.4424238486631
 30
0.0
 40
37.5
 41
0.0
 46
0.0
 71
     5
 72
     1
  1
420
 73
     1
 44
1.0
  0
POINT
  5
E48
330
3C7
100
AcDbEntity
  8
Defpoints
 62
     0
440
 16777216
100
AcDbPoint
 10
978.7499999999999
 20
362.5000000000009
 30
0.0
  0
POINT
  5
E49
330
3C7
100
AcDbEntity
  8
Defpoints
 62
     0
440
 16777216
100
AcDbPoint
 10
1398.749999999999
 20
362.5
 30
0.0
  0
POINT
  5
E4A
330
3C7
100
AcDbEntity
  8
Defpoints
 62
     0
440
 16777216
100
AcDbPoint
 10
1398.749999999999
 20
263.3174238486631
 30
0.0
  0
ENDBLK
  5
3C9
330
3C7
100
AcDbEntity
  8
0
100
AcDbBlockEnd
  0
BLOCK
  5
3FB
330
3FA
100
AcDbEntity
  8
0
100
AcDbBlockBegin
  2
*D8
 70
     1
 10
0.0
 20
0.0
 30
0.0
  3
*D8
  1

  0
LINE
  5
F03
330
3FA
100
AcDbEntity
  8
寸法
 62
     0
440
 16777216
370
    -2
100
AcDbLine
 10
2047.5
 20
2031.875
 30
0.0
 11
2047.5
 21
2092.300807445596
 31
0.0
  0
LINE
  5
F04
330
3FA
100
AcDbEntity
  8
寸法
 62
     0
440
 16777216
370
    -2
100
AcDbLine
 10
2407.500000000001
 20
2031.875
 30
0.0
 11
2407.500000000001
 21
2092.300807445596
 31
0.0
  0
LINE
  5
F05
330
3FA
100
AcDbEntity
  8
寸法
 62
     0
440
 16777216
370
    -2
100
AcDbLine
 10
2085.0
 20
2073.550807445597
 30
0.0
 11
2370.0
 21
2073.550807445597
 31
0.0
  0
SOLID
  5
F06
330
3FA
100
AcDbEntity
  8
寸法
 62
     0
440
 16777216
100
AcDbTrace
 10
2085.0
 20
2079.800807445597
 30
0.0
 11
2085.0
 21
2067.300807445596
 31
0.0
 12
2047.5
 22
2073.550807445597
 32
0.0
 13
2047.5
 23
2073.550807445597
 33
0.0
  0
SOLID
  5
F07
330
3FA
100
AcDbEntity
  8
寸法
 62
     0
440
 16777216
100
AcDbTrace
 10
2370.0
 20
2079.800807445597
 30
0.0
 11
2370.0
 21
2067.300807445596
 31
0.0
 12
2407.500000000001
 22
2073.550807445597
 32
0.0
 13
2407.500000000001
 23
2073.550807445597
 33
0.0
  0
MTEXT
  5
F08
330
3FA
100
AcDbEntity
  8
寸法
 62
     0
440
 16777216
100
AcDbMText
 10
2227.5
 20
2116.675807445597
 30
0.0
 40
37.5
 41
0.0
 46
0.0
 71
     5
 72
     1
  1
360
 73
     1
 44
1.0
  0
POINT
  5
F09
330
3FA
100
AcDbEntity
  8
Defpoints
 62
     0
440
 16777216
100
AcDbPoint
 10
2047.5
 20
2007.5
 30
0.0
  0
POINT
  5
F0A
330
3FA
100
AcDbEntity
  8
Defpoints
 62
     0
440
 16777216
100
AcDbPoint
 10
2407.500000000001
 20
2007.5
 30
0.0
  0
POINT
  5
F0B
330
3FA
100
AcDbEntity
  8
Defpoints
 62
     0
440
 16777216
100
AcDbPoint
 10
2407.500000000001
 20
2073.550807445597
 30
0.0
  0
ENDBLK
  5
3FC
330
3FA
100
AcDbEntity
  8
0
100
AcDbBlockEnd
  0
BLOCK
  5
413
330
412
100
AcDbEntity
  8
0
100
AcDbBlockBegin
  2
*D9
 70
     1
 10
0.0
 20
0.0
 30
0.0
  3
*D9
  1

  0
LINE
  5
1347
330
412
100
AcDbEntity
  8
寸法
 62
     0
440
 16777216
370
    -2
100
AcDbLine
 10
2383.125
 20
2367.500000000001
 30
0.0
 11
2313.125000000002
 21
2367.500000000001
 31
0.0
  0
LINE
  5
1348
330
412
100
AcDbEntity
  8
寸法
 62
     0
440
 16777216
370
    -2
100
AcDbLine
 10
2383.125000000001
 20
2007.5
 30
0.0
 11
2313.125000000002
 21
2007.5
 31
0.0
  0
LINE
  5
1349
330
412
100
AcDbEntity
  8
寸法
 62
     0
440
 16777216
370
    -2
100
AcDbLine
 10
2331.875000000001
 20
2330.0
 30
0.0
 11
2331.875000000001
 21
2045.0
 31
0.0
  0
SOLID
  5
134A
330
412
100
AcDbEntity
  8
寸法
 62
     0
440
 16777216
100
AcDbTrace
 10
2325.625000000002
 20
2330.0
 30
0.0
 11
2338.125000000002
 21
2330.0
 31
0.0
 12
2331.875000000001
 22
2367.500000000001
 32
0.0
 13
2331.875000000001
 23
2367.500000000001
 33
0.0
  0
SOLID
  5
134B
330
412
100
AcDbEntity
  8
寸法
 62
     0
440
 16777216
100
AcDbTrace
 10
2325.625000000002
 20
2045.0
 30
0.0
 11
2338.125000000002
 21
2045.0
 31
0.0
 12
2331.875000000001
 22
2007.5
 32
0.0
 13
2331.875000000001
 23
2007.5
 33
0.0
  0
MTEXT
  5
134C
330
412
100
AcDbEntity
  8
寸法
 62
     0
440
 16777216
100
AcDbMText
 10
2288.750000000001
 20
2236.133285453585
 30
0.0
 40
37.5
 41
0.0
 46
0.0
 71
     5
 72
     1
  1
360
 11
0.0000000000000001
 21
1.0
 31
0.0
 73
     1
 44
1.0
  0
POINT
  5
134D
330
412
100
AcDbEntity
  8
Defpoints
 62
     0
440
 16777216
100
AcDbPoint
 10
2407.5
 20
2367.500000000001
 30
0.0
  0
POINT
  5
134E
330
412
100
AcDbEntity
  8
Defpoints
 62
     0
440
 16777216
100
AcDbPoint
 10
2407.500000000001
 20
2007.5
 30
0.0
  0
POINT
  5
134F
330
412
100
AcDbEntity
  8
Defpoints
 62
     0
440
 16777216
100
AcDbPoint
 10
2331.875000000001
 20
2007.5
 30
0.0
  0
ENDBLK
  5
414
330
412
100
AcDbEntity
  8
0
100
AcDbBlockEnd
  0
BLOCK
  5
456
330
455
100
AcDbEntity
  8
0
100
AcDbBlockBegin
  2
*D10
 70
     1
 10
0.0
 20
0.0
 30
0.0
  3
*D10
  1

  0
LINE
  5
E80
330
455
100
AcDbEntity
  8
寸法
 62
     0
440
 16777216
370
    -2
100
AcDbLine
 10
1947.5
 20
2482.875000000001
 30
0.0
 11
1947.5
 21
2529.883942115673
 31
0.0
  0
LINE
  5
E81
330
455
100
AcDbEntity
  8
寸法
 62
     0
440
 16777216
370
    -2
100
AcDbLine
 10
2507.5
 20
2482.875000000001
 30
0.0
 11
2507.5
 21
2529.883942115673
 31
0.0
  0
LINE
  5
E82
330
455
100
AcDbEntity
  8
寸法
 62
     0
440
 16777216
370
    -2
100
AcDbLine
 10
1985.0
 20
2511.133942115673
 30
0.0
 11
2470.0
 21
2511.133942115673
 31
0.0
  0
SOLID
  5
E83
330
455
100
AcDbEntity
  8
寸法
 62
     0
440
 16777216
100
AcDbTrace
 10
1985.0
 20
2517.383942115673
 30
0.0
 11
1985.0
 21
2504.883942115673
 31
0.0
 12
1947.5
 22
2511.133942115673
 32
0.0
 13
1947.5
 23
2511.133942115673
 33
0.0
  0
SOLID
  5
E84
330
455
100
AcDbEntity
  8
寸法
 62
     0
440
 16777216
100
AcDbTrace
 10
2470.0
 20
2517.383942115673
 30
0.0
 11
2470.0
 21
2504.883942115673
 31
0.0
 12
2507.5
 22
2511.133942115673
 32
0.0
 13
2507.5
 23
2511.133942115673
 33
0.0
  0
MTEXT
  5
E85
330
455
100
AcDbEntity
  8
寸法
 62
     0
440
 16777216
100
AcDbMText
 10
2227.5
 20
2554.258942115673
 30
0.0
 40
37.5
 41
0.0
 46
0.0
 71
     5
 72
     1
  1
560
 73
     1
 44
1.0
  0
POINT
  5
E86
330
455
100
AcDbEntity
  8
Defpoints
 62
     0
440
 16777216
100
AcDbPoint
 10
1947.5
 20
2458.500000000001
 30
0.0
  0
POINT
  5
E87
330
455
100
AcDbEntity
  8
Defpoints
 62
     0
440
 16777216
100
AcDbPoint
 10
2507.5
 20
2458.500000000001
 30
0.0
  0
POINT
  5
E88
330
455
100
AcDbEntity
  8
Defpoints
 62
     0
440
 16777216
100
AcDbPoint
 10
2507.5
 20
2511.133942115673
 30
0.0
  0
ENDBLK
  5
457
330
455
100
AcDbEntity
  8
0
100
AcDbBlockEnd
  0
BLOCK
  5
46E
330
46D
100
AcDbEntity
  8
0
100
AcDbBlockBegin
  2
*D11
 70
     1
 10
0.0
 20
0.0
 30
0.0
  3
*D11
  1

  0
LINE
  5
E9B
330
46D
100
AcDbEntity
  8
寸法
 62
     0
440
 16777216
370
    -2
100
AcDbLine
 10
2522.875
 20
2467.500000000001
 30
0.0
 11
2613.919830853607
 21
2467.500000000001
 31
0.0
  0
LINE
  5
E9C
330
46D
100
AcDbEntity
  8
寸法
 62
     0
440
 16777216
370
    -2
100
AcDbLine
 10
2522.875000000001
 20
1907.5
 30
0.0
 11
2613.919830853607
 21
1907.5
 31
0.0
  0
LINE
  5
E9D
330
46D
100
AcDbEntity
  8
寸法
 62
     0
440
 16777216
370
    -2
100
AcDbLine
 10
2595.169830853607
 20
2430.000000000001
 30
0.0
 11
2595.169830853607
 21
1945.0
 31
0.0
  0
SOLID
  5
E9E
330
46D
100
AcDbEntity
  8
寸法
 62
     0
440
 16777216
100
AcDbTrace
 10
2588.919830853607
 20
2430.000000000001
 30
0.0
 11
2601.419830853607
 21
2430.000000000001
 31
0.0
 12
2595.169830853607
 22
2467.500000000001
 32
0.0
 13
2595.169830853607
 23
2467.500000000001
 33
0.0
  0
SOLID
  5
E9F
330
46D
100
AcDbEntity
  8
寸法
 62
     0
440
 16777216
100
AcDbTrace
 10
2588.919830853607
 20
1945.0
 30
0.0
 11
2601.419830853607
 21
1945.0
 31
0.0
 12
2595.169830853607
 22
1907.5
 32
0.0
 13
2595.169830853607
 23
1907.5
 33
0.0
  0
MTEXT
  5
EA0
330
46D
100
AcDbEntity
  8
寸法
 62
     0
440
 16777216
100
AcDbMText
 10
2552.044830853606
 20
2187.500000000001
 30
0.0
 40
37.5
 41
0.0
 46
0.0
 71
     5
 72
     1
  1
560
 11
0.0000000000000001
 21
1.0
 31
0.0
 73
     1
 44
1.0
  0
POINT
  5
EA1
330
46D
100
AcDbEntity
  8
Defpoints
 62
     0
440
 16777216
100
AcDbPoint
 10
2498.5
 20
2467.500000000001
 30
0.0
  0
POINT
  5
EA2
330
46D
100
AcDbEntity
  8
Defpoints
 62
     0
440
 16777216
100
AcDbPoint
 10
2498.500000000001
 20
1907.5
 30
0.0
  0
POINT
  5
EA3
330
46D
100
AcDbEntity
  8
Defpoints
 62
     0
440
 16777216
100
AcDbPoint
 10
2595.169830853607
 20
1907.5
 30
0.0
  0
ENDBLK
  5
46F
330
46D
100
AcDbEntity
  8
0
100
AcDbBlockEnd
  0
BLOCK
  5
486
330
485
100
AcDbEntity
  8
0
100
AcDbBlockBegin
  2
*D12
 70
     1
 10
0.0
 20
0.0
 30
0.0
  3
*D12
  1

  0
LINE
  5
1351
330
485
100
AcDbEntity
  8
寸法
 62
     0
440
 16777216
370
    -2
100
AcDbLine
 10
2007.500000000001
 20
1611.875
 30
0.0
 11
2007.500000000001
 21
1659.128327370962
 31
0.0
  0
LINE
  5
1352
330
485
100
AcDbEntity
  8
寸法
 62
     0
440
 16777216
370
    -2
100
AcDbLine
 10
1947.5
 20
1602.875
 30
0.0
 11
1947.5
 21
1659.128327370962
 31
0.0
  0
LINE
  5
1353
330
485
100
AcDbEntity
  8
寸法
 62
     0
440
 16777216
370
    -2
100
AcDbLine
 10
2007.500000000001
 20
1640.378327370962
 30
0.0
 11
2045.000000000001
 21
1640.378327370962
 31
0.0
  0
LINE
  5
1354
330
485
100
AcDbEntity
  8
寸法
 62
     0
440
 16777216
370
    -2
100
AcDbLine
 10
1910.0
 20
1640.378327370962
 30
0.0
 11
1872.5
 21
1640.378327370962
 31
0.0
  0
MTEXT
  5
1355
330
485
100
AcDbEntity
  8
寸法
 62
     0
440
 16777216
100
AcDbMText
 10
1992.56802374535
 20
1687.5
 30
0.0
 40
37.5
 41
0.0
 46
0.0
 71
     5
 72
     1
  1
60
 73
     1
 44
1.0
  0
LINE
  5
1356
330
485
100
AcDbEntity
  8
寸法
 62
     0
440
 16777216
370
    -2
100
AcDbLine
 10
2007.500000000001
 20
1640.378327370962
 30
0.0
 11
1947.5
 21
1640.378327370962
 31
0.0
  0
INSERT
  5
1357
330
485
100
AcDbEntity
  8
寸法
 62
     0
440
 16777216
370
    -2
100
AcDbBlockReference
  2
_DotSmall
 10
2007.500000000001
 20
1640.378327370962
 30
0.0
 41
37.5
 42
37.5
 43
37.5
 50
180.0
  0
SOLID
  5
1358
330
485
100
AcDbEntity
  8
寸法
 62
     0
440
 16777216
100
AcDbTrace
 10
1910.0
 20
1646.628327370962
 30
0.0
 11
1910.0
 21
1634.128327370962
 31
0.0
 12
1947.5
 22
1640.378327370962
 32
0.0
 13
1947.5
 23
1640.378327370962
 33
0.0
  0
POINT
  5
1359
330
485
100
AcDbEntity
  8
Defpoints
 62
     0
440
 16777216
100
AcDbPoint
 10
2007.500000000001
 20
1587.5
 30
0.0
  0
POINT
  5
135A
330
485
100
AcDbEntity
  8
Defpoints
 62
     0
440
 16777216
100
AcDbPoint
 10
1947.5
 20
1578.5
 30
0.0
  0
POINT
  5
135B
330
485
100
AcDbEntity
  8
Defpoints
 62
     0
440
 16777216
100
AcDbPoint
 10
1947.5
 20
1640.378327370962
 30
0.0
  0
ENDBLK
  5
487
330
485
100
AcDbEntity
  8
0
100
AcDbBlockEnd
  0
BLOCK
  5
4A2
330
4A1
100
AcDbEntity
  8
0
100
AcDbBlockBegin
  2
*D13
 70
     1
 10
0.0
 20
0.0
 30
0.0
  3
*D13
  1

  0
LINE
  5
135C
330
4A1
100
AcDbEntity
  8
寸法
 62
     0
440
 16777216
370
    -2
100
AcDbLine
 10
2447.500000000001
 20
1611.875000000004
 30
0.0
 11
2447.500000000001
 21
1659.128327370967
 31
0.0
  0
LINE
  5
135D
330
4A1
100
AcDbEntity
  8
寸法
 62
     0
440
 16777216
370
    -2
100
AcDbLine
 10
2507.5
 20
1602.875
 30
0.0
 11
2507.5
 21
1659.128327370967
 31
0.0
  0
LINE
  5
135E
330
4A1
100
AcDbEntity
  8
寸法
 62
     0
440
 16777216
370
    -2
100
AcDbLine
 10
2447.500000000001
 20
1640.378327370967
 30
0.0
 11
2410.000000000001
 21
1640.378327370967
 31
0.0
  0
LINE
  5
135F
330
4A1
100
AcDbEntity
  8
寸法
 62
     0
440
 16777216
370
    -2
100
AcDbLine
 10
2545.0
 20
1640.378327370967
 30
0.0
 11
2582.5
 21
1640.378327370967
 31
0.0
  0
MTEXT
  5
1360
330
4A1
100
AcDbEntity
  8
寸法
 62
     0
440
 16777216
100
AcDbMText
 10
2462.5
 20
1687.500000000004
 30
0.0
 40
37.5
 41
0.0
 46
0.0
 71
     5
 72
     1
  1
60
 73
     1
 44
1.0
  0
LINE
  5
1361
330
4A1
100
AcDbEntity
  8
寸法
 62
     0
440
 16777216
370
    -2
100
AcDbLine
 10
2447.500000000001
 20
1640.378327370967
 30
0.0
 11
2507.5
 21
1640.378327370967
 31
0.0
  0
INSERT
  5
1362
330
4A1
100
AcDbEntity
  8
寸法
 62
     0
440
 16777216
370
    -2
100
AcDbBlockReference
  2
_DotSmall
 10
2447.500000000001
 20
1640.378327370967
 30
0.0
 41
37.5
 42
37.5
 43
37.5
  0
SOLID
  5
1363
330
4A1
100
AcDbEntity
  8
寸法
 62
     0
440
 16777216
100
AcDbTrace
 10
2545.0
 20
1646.628327370967
 30
0.0
 11
2545.0
 21
1634.128327370967
 31
0.0
 12
2507.5
 22
1640.378327370967
 32
0.0
 13
2507.5
 23
1640.378327370967
 33
0.0
  0
POINT
  5
1364
330
4A1
100
AcDbEntity
  8
Defpoints
 62
     0
440
 16777216
100
AcDbPoint
 10
2447.500000000001
 20
1587.500000000004
 30
0.0
  0
POINT
  5
1365
330
4A1
100
AcDbEntity
  8
Defpoints
 62
     0
440
 16777216
100
AcDbPoint
 10
2507.5
 20
1578.5
 30
0.0
  0
POINT
  5
1366
330
4A1
100
AcDbEntity
  8
Defpoints
 62
     0
440
 16777216
100
AcDbPoint
 10
2507.5
 20
1640.378327370967
 30
0.0
  0
ENDBLK
  5
4A3
330
4A1
100
AcDbEntity
  8
0
100
AcDbBlockEnd
  0
BLOCK
  5
5BA
330
5B9
100
AcDbEntity
  8
0
100
AcDbBlockBegin
  2
*D14
 70
     1
 10
0.0
 20
0.0
 30
0.0
  3
*D14
  1

  0
LINE
  5
1367
330
5B9
100
AcDbEntity
  8
寸法
 62
     0
440
 16777216
370
    -2
100
AcDbLine
 10
2007.500000000001
 20
1611.875
 30
0.0
 11
2007.500000000001
 21
1659.128327370962
 31
0.0
  0
LINE
  5
1368
330
5B9
100
AcDbEntity
  8
寸法
 62
     0
440
 16777216
370
    -2
100
AcDbLine
 10
2047.500000000001
 20
1611.875
 30
0.0
 11
2047.500000000001
 21
1659.128327370962
 31
0.0
  0
LINE
  5
1369
330
5B9
100
AcDbEntity
  8
寸法
 62
     0
440
 16777216
370
    -2
100
AcDbLine
 10
2007.500000000001
 20
1640.378327370962
 30
0.0
 11
1970.0
 21
1640.378327370962
 31
0.0
  0
LINE
  5
136A
330
5B9
100
AcDbEntity
  8
寸法
 62
     0
440
 16777216
370
    -2
100
AcDbLine
 10
2085.0
 20
1640.378327370962
 30
0.0
 11
2122.5
 21
1640.378327370962
 31
0.0
  0
MTEXT
  5
136B
330
5B9
100
AcDbEntity
  8
寸法
 62
     0
440
 16777216
100
AcDbMText
 10
2117.081875063961
 20
1687.5
 30
0.0
 40
37.5
 41
0.0
 46
0.0
 71
     5
 72
     1
  1
40
 73
     1
 44
1.0
  0
LINE
  5
136C
330
5B9
100
AcDbEntity
  8
寸法
 62
     0
440
 16777216
370
    -2
100
AcDbLine
 10
2007.500000000001
 20
1640.378327370962
 30
0.0
 11
2047.500000000001
 21
1640.378327370962
 31
0.0
  0
INSERT
  5
136D
330
5B9
100
AcDbEntity
  8
寸法
 62
     0
440
 16777216
370
    -2
100
AcDbBlockReference
  2
_DotSmall
 10
2007.500000000001
 20
1640.378327370962
 30
0.0
 41
37.5
 42
37.5
 43
37.5
  0
SOLID
  5
136E
330
5B9
100
AcDbEntity
  8
寸法
 62
     0
440
 16777216
100
AcDbTrace
 10
2085.0
 20
1646.628327370962
 30
0.0
 11
2085.0
 21
1634.128327370962
 31
0.0
 12
2047.500000000001
 22
1640.378327370962
 32
0.0
 13
2047.500000000001
 23
1640.378327370962
 33
0.0
  0
POINT
  5
136F
330
5B9
100
AcDbEntity
  8
Defpoints
 62
     0
440
 16777216
100
AcDbPoint
 10
2007.500000000001
 20
1587.5
 30
0.0
  0
POINT
  5
1370
330
5B9
100
AcDbEntity
  8
Defpoints
 62
     0
440
 16777216
100
AcDbPoint
 10
2047.500000000001
 20
1587.5
 30
0.0
  0
POINT
  5
1371
330
5B9
100
AcDbEntity
  8
Defpoints
 62
     0
440
 16777216
100
AcDbPoint
 10
2047.500000000001
 20
1640.378327370962
 30
0.0
  0
ENDBLK
  5
5BB
330
5B9
100
AcDbEntity
  8
0
100
AcDbBlockEnd
  0
BLOCK
  5
5EC
330
5EA
100
AcDbEntity
  8
0
100
AcDbBlockBegin
  2
_DotSmall
 70
     0
 10
0.0
 20
0.0
 30
0.0
  3
_DotSmall
  1

  0
LWPOLYLINE
  5
5EB
330
5EA
100
AcDbEntity
  8
0
  6
ByBlock
 62
     0
100
AcDbPolyline
 90
        2
 70
     1
 43
0.5
 10
-0.0625
 20
0.0
 42
1.0
 10
0.0625
 20
0.0
 42
1.0
  0
ENDBLK
  5
5ED
330
5EA
100
AcDbEntity
  8
0
100
AcDbBlockEnd
  0
BLOCK
  5
606
330
605
100
AcDbEntity
  8
0
100
AcDbBlockBegin
  2
*D16
 70
     1
 10
0.0
 20
0.0
 30
0.0
  3
*D16
  1

  0
LINE
  5
1372
330
605
100
AcDbEntity
  8
寸法
 62
     0
440
 16777216
370
    -2
100
AcDbLine
 10
2447.500000000001
 20
1611.875000000004
 30
0.0
 11
2447.500000000001
 21
1659.128327370967
 31
0.0
  0
LINE
  5
1373
330
605
100
AcDbEntity
  8
寸法
 62
     0
440
 16777216
370
    -2
100
AcDbLine
 10
2407.500000000001
 20
1611.875000000004
 30
0.0
 11
2407.500000000001
 21
1659.128327370967
 31
0.0
  0
LINE
  5
1374
330
605
100
AcDbEntity
  8
寸法
 62
     0
440
 16777216
370
    -2
100
AcDbLine
 10
2447.500000000001
 20
1640.378327370967
 30
0.0
 11
2485.000000000001
 21
1640.378327370967
 31
0.0
  0
LINE
  5
1375
330
605
100
AcDbEntity
  8
寸法
 62
     0
440
 16777216
370
    -2
100
AcDbLine
 10
2370.0
 20
1640.378327370967
 30
0.0
 11
2332.500000000001
 21
1640.378327370967
 31
0.0
  0
MTEXT
  5
1376
330
605
100
AcDbEntity
  8
寸法
 62
     0
440
 16777216
100
AcDbMText
 10
2341.559577846847
 20
1687.500000000004
 30
0.0
 40
37.5
 41
0.0
 46
0.0
 71
     5
 72
     1
  1
40
 73
     1
 44
1.0
  0
LINE
  5
1377
330
605
100
AcDbEntity
  8
寸法
 62
     0
440
 16777216
370
    -2
100
AcDbLine
 10
2447.500000000001
 20
1640.378327370967
 30
0.0
 11
2407.500000000001
 21
1640.378327370967
 31
0.0
  0
INSERT
  5
1378
330
605
100
AcDbEntity
  8
寸法
 62
     0
440
 16777216
370
    -2
100
AcDbBlockReference
  2
_DotSmall
 10
2447.500000000001
 20
1640.378327370967
 30
0.0
 41
37.5
 42
37.5
 43
37.5
 50
180.0
  0
SOLID
  5
1379
330
605
100
AcDbEntity
  8
寸法
 62
     0
440
 16777216
100
AcDbTrace
 10
2370.0
 20
1646.628327370967
 30
0.0
 11
2370.0
 21
1634.128327370967
 31
0.0
 12
2407.500000000001
 22
1640.378327370967
 32
0.0
 13
2407.500000000001
 23
1640.378327370967
 33
0.0
  0
POINT
  5
137A
330
605
100
AcDbEntity
  8
Defpoints
 62
     0
440
 16777216
100
AcDbPoint
 10
2447.500000000001
 20
1587.500000000004
 30
0.0
  0
POINT
  5
137B
330
605
100
AcDbEntity
  8
Defpoints
 62
     0
440
 16777216
100
AcDbPoint
 10
2407.500000000001
 20
1587.500000000004
 30
0.0
  0
POINT
  5
137C
330
605
100
AcDbEntity
  8
Defpoints
 62
     0
440
 16777216
100
AcDbPoint
 10
2407.500000000001
 20
1640.378327370967
 30
0.0
  0
ENDBLK
  5
607
330
605
100
AcDbEntity
  8
0
100
AcDbBlockEnd
  0
BLOCK
  5
65C
330
65B
100
AcDbEntity
  8
0
100
AcDbBlockBegin
  2
*D17
 70
     1
 10
0.0
 20
0.0
 30
0.0
  3
*D17
  1

  0
LINE
  5
137D
330
65B
100
AcDbEntity
  8
寸法
 62
     0
440
 16777216
370
    -2
100
AcDbLine
 10
2531.875
 20
1534.5
 30
0.0
 11
2613.919830853607
 21
1534.5
 31
0.0
  0
LINE
  5
137E
330
65B
100
AcDbEntity
  8
寸法
 62
     0
440
 16777216
370
    -2
100
AcDbLine
 10
2552.875
 20
1587.5
 30
0.0
 11
2613.919830853607
 21
1587.5
 31
0.0
  0
LINE
  5
137F
330
65B
100
AcDbEntity
  8
寸法
 62
     0
440
 16777216
370
    -2
100
AcDbLine
 10
2595.169830853607
 20
1534.5
 30
0.0
 11
2595.169830853607
 21
1497.0
 31
0.0
  0
LINE
  5
1380
330
65B
100
AcDbEntity
  8
寸法
 62
     0
440
 16777216
370
    -2
100
AcDbLine
 10
2595.169830853607
 20
1625.0
 30
0.0
 11
2595.169830853607
 21
1662.499999999999
 31
0.0
  0
MTEXT
  5
1381
330
65B
100
AcDbEntity
  8
寸法
 62
     0
440
 16777216
100
AcDbMText
 10
2631.723598709312
 20
1638.853778365397
 30
0.0
 40
37.5
 41
0.0
 46
0.0
 71
     5
 72
     1
  1
53
 11
0.0000000000000001
 21
1.0
 31
0.0
 73
     1
 44
1.0
  0
LINE
  5
1382
330
65B
100
AcDbEntity
  8
寸法
 62
     0
440
 16777216
370
    -2
100
AcDbLine
 10
2595.169830853607
 20
1534.5
 30
0.0
 11
2595.169830853607
 21
1587.5
 31
0.0
  0
INSERT
  5
1383
330
65B
100
AcDbEntity
  8
寸法
 62
     0
440
 16777216
370
    -2
100
AcDbBlockReference
  2
_DotSmall
 10
2595.169830853607
 20
1534.5
 30
0.0
 41
37.5
 42
37.5
 43
37.5
 50
90.0
  0
SOLID
  5
1384
330
65B
100
AcDbEntity
  8
寸法
 62
     0
440
 16777216
100
AcDbTrace
 10
2588.919830853607
 20
1625.0
 30
0.0
 11
2601.419830853607
 21
1625.0
 31
0.0
 12
2595.169830853607
 22
1587.5
 32
0.0
 13
2595.169830853607
 23
1587.5
 33
0.0
  0
POINT
  5
1385
330
65B
100
AcDbEntity
  8
Defpoints
 62
     0
440
 16777216
100
AcDbPoint
 10
2507.5
 20
1534.5
 30
0.0
  0
POINT
  5
1386
330
65B
100
AcDbEntity
  8
Defpoints
 62
     0
440
 16777216
100
AcDbPoint
 10
2528.5
 20
1587.5
 30
0.0
  0
POINT
  5
1387
330
65B
100
AcDbEntity
  8
Defpoints
 62
     0
440
 16777216
100
AcDbPoint
 10
2595.169830853607
 20
1587.5
 30
0.0
  0
ENDBLK
  5
65D
330
65B
100
AcDbEntity
  8
0
100
AcDbBlockEnd
  0
BLOCK
  5
678
330
677
100
AcDbEntity
  8
0
100
AcDbBlockBegin
  2
*D18
 70
     1
 10
0.0
 20
0.0
 30
0.0
  3
*D18
  1

  0
LINE
  5
1388
330
677
100
AcDbEntity
  8
寸法
 62
     0
440
 16777216
370
    -2
100
AcDbLine
 10
2531.875
 20
1534.5
 30
0.0
 11
2613.919830853607
 21
1534.5
 31
0.0
  0
LINE
  5
1389
330
677
100
AcDbEntity
  8
寸法
 62
     0
440
 16777216
370
    -2
100
AcDbLine
 10
2561.875000000001
 20
1487.5
 30
0.0
 11
2613.919830853607
 21
1487.5
 31
0.0
  0
LINE
  5
138A
330
677
100
AcDbEntity
  8
寸法
 62
     0
440
 16777216
370
    -2
100
AcDbLine
 10
2595.169830853607
 20
1534.5
 30
0.0
 11
2595.169830853607
 21
1572.0
 31
0.0
  0
LINE
  5
138B
330
677
100
AcDbEntity
  8
寸法
 62
     0
440
 16777216
370
    -2
100
AcDbLine
 10
2595.169830853607
 20
1450.0
 30
0.0
 11
2595.169830853607
 21
1412.5
 31
0.0
  0
MTEXT
  5
138C
330
677
100
AcDbEntity
  8
寸法
 62
     0
440
 16777216
100
AcDbMText
 10
2632.943612713036
 20
1437.5
 30
0.0
 40
37.5
 41
0.0
 46
0.0
 71
     5
 72
     1
  1
47
 11
0.0000000000000001
 21
1.0
 31
0.0
 73
     1
 44
1.0
  0
LINE
  5
138D
330
677
100
AcDbEntity
  8
寸法
 62
     0
440
 16777216
370
    -2
100
AcDbLine
 10
2595.169830853607
 20
1534.5
 30
0.0
 11
2595.169830853607
 21
1487.5
 31
0.0
  0
INSERT
  5
138E
330
677
100
AcDbEntity
  8
寸法
 62
     0
440
 16777216
370
    -2
100
AcDbBlockReference
  2
_DotSmall
 10
2595.169830853607
 20
1534.5
 30
0.0
 41
37.5
 42
37.5
 43
37.5
 50
270.0
  0
SOLID
  5
138F
330
677
100
AcDbEntity
  8
寸法
 62
     0
440
 16777216
100
AcDbTrace
 10
2588.919830853607
 20
1450.0
 30
0.0
 11
2601.419830853607
 21
1450.0
 31
0.0
 12
2595.169830853607
 22
1487.5
 32
0.0
 13
2595.169830853607
 23
1487.5
 33
0.0
  0
POINT
  5
1390
330
677
100
AcDbEntity
  8
Defpoints
 62
     0
440
 16777216
100
AcDbPoint
 10
2507.5
 20
1534.5
 30
0.0
  0
POINT
  5
1391
330
677
100
AcDbEntity
  8
Defpoints
 62
     0
440
 16777216
100
AcDbPoint
 10
2537.5
 20
1487.5
 30
0.0
  0
POINT
  5
1392
330
677
100
AcDbEntity
  8
Defpoints
 62
     0
440
 16777216
100
AcDbPoint
 10
2595.169830853607
 20
1487.5
 30
0.0
  0
ENDBLK
  5
679
330
677
100
AcDbEntity
  8
0
100
AcDbBlockEnd
  0
BLOCK
  5
6EC
330
6EB
100
AcDbEntity
  8
0
100
AcDbBlockBegin
  2
*D19
 70
     1
 10
0.0
 20
0.0
 30
0.0
  3
*D19
  1

  0
LINE
  5
1393
330
6EB
100
AcDbEntity
  8
寸法
 62
     0
440
 16777216
370
    -2
100
AcDbLine
 10
2522.875
 20
1587.5
 30
0.0
 11
2694.110073493021
 21
1587.5
 31
0.0
  0
LINE
  5
1394
330
6EB
100
AcDbEntity
  8
寸法
 62
     0
440
 16777216
370
    -2
100
AcDbLine
 10
2531.875
 20
1487.5
 30
0.0
 11
2694.110073493021
 21
1487.5
 31
0.0
  0
LINE
  5
1395
330
6EB
100
AcDbEntity
  8
寸法
 62
     0
440
 16777216
370
    -2
100
AcDbLine
 10
2675.360073493021
 20
1625.0
 30
0.0
 11
2675.360073493021
 21
1662.499999999999
 31
0.0
  0
LINE
  5
1396
330
6EB
100
AcDbEntity
  8
寸法
 62
     0
440
 16777216
370
    -2
100
AcDbLine
 10
2675.360073493021
 20
1450.0
 30
0.0
 11
2675.360073493021
 21
1412.5
 31
0.0
  0
MTEXT
  5
1397
330
6EB
100
AcDbEntity
  8
寸法
 62
     0
440
 16777216
100
AcDbMText
 10
2709.545211239831
 20
1537.5
 30
0.0
 40
37.5
 41
0.0
 46
0.0
 71
     5
 72
     1
  1
100
 11
0.0000000000000001
 21
1.0
 31
0.0
 73
     1
 44
1.0
  0
LINE
  5
1398
330
6EB
100
AcDbEntity
  8
寸法
 62
     0
440
 16777216
370
    -2
100
AcDbLine
 10
2675.360073493021
 20
1587.5
 30
0.0
 11
2675.360073493021
 21
1487.5
 31
0.0
  0
SOLID
  5
1399
330
6EB
100
AcDbEntity
  8
寸法
 62
     0
440
 16777216
100
AcDbTrace
 10
2669.110073493021
 20
1625.0
 30
0.0
 11
2681.610073493021
 21
1625.0
 31
0.0
 12
2675.360073493021
 22
1587.5
 32
0.0
 13
2675.360073493021
 23
1587.5
 33
0.0
  0
SOLID
  5
139A
330
6EB
100
AcDbEntity
  8
寸法
 62
     0
440
 16777216
100
AcDbTrace
 10
2669.110073493021
 20
1450.0
 30
0.0
 11
2681.610073493021
 21
1450.0
 31
0.0
 12
2675.360073493021
 22
1487.5
 32
0.0
 13
2675.360073493021
 23
1487.5
 33
0.0
  0
POINT
  5
139B
330
6EB
100
AcDbEntity
  8
Defpoints
 62
     0
440
 16777216
100
AcDbPoint
 10
2498.5
 20
1587.5
 30
0.0
  0
POINT
  5
139C
330
6EB
100
AcDbEntity
  8
Defpoints
 62
     0
440
 16777216
100
AcDbPoint
 10
2507.5
 20
1487.5
 30
0.0
  0
POINT
  5
139D
330
6EB
100
AcDbEntity
  8
Defpoints
 62
     0
440
 16777216
100
AcDbPoint
 10
2675.360073493021
 20
1487.5
 30
0.0
  0
ENDBLK
  5
6ED
330
6EB
100
AcDbEntity
  8
0
100
AcDbBlockEnd
  0
BLOCK
  5
711
330
710
100
AcDbEntity
  8
0
100
AcDbBlockBegin
  2
*D20
 70
     1
 10
0.0
 20
0.0
 30
0.0
  3
*D20
  1

  0
LINE
  5
103E
330
710
100
AcDbEntity
  8
寸法
 62
     0
440
 16777216
370
    -2
100
AcDbLine
 10
3086.25
 20
2441.875
 30
0.0
 11
3086.25
 21
2569.617808321949
 31
0.0
  0
LINE
  5
103F
330
710
100
AcDbEntity
  8
寸法
 62
     0
440
 16777216
370
    -2
100
AcDbLine
 10
3036.25
 20
2422.875
 30
0.0
 11
3036.25
 21
2569.617808321949
 31
0.0
  0
LINE
  5
1040
330
710
100
AcDbEntity
  8
寸法
 62
     0
440
 16777216
370
    -2
100
AcDbLine
 10
3123.75
 20
2550.86780832195
 30
0.0
 11
3161.25
 21
2550.86780832195
 31
0.0
  0
LINE
  5
1041
330
710
100
AcDbEntity
  8
寸法
 62
     0
440
 16777216
370
    -2
100
AcDbLine
 10
2998.75
 20
2550.86780832195
 30
0.0
 11
2961.25
 21
2550.86780832195
 31
0.0
  0
MTEXT
  5
1042
330
710
100
AcDbEntity
  8
寸法
 62
     0
440
 16777216
100
AcDbMText
 10
2974.816875989929
 20
2583.090479539291
 30
0.0
 40
37.5
 41
0.0
 46
0.0
 71
     5
 72
     1
  1
50
 73
     1
 44
1.0
  0
LINE
  5
1043
330
710
100
AcDbEntity
  8
寸法
 62
     0
440
 16777216
370
    -2
100
AcDbLine
 10
3086.25
 20
2550.86780832195
 30
0.0
 11
3036.25
 21
2550.86780832195
 31
0.0
  0
SOLID
  5
1044
330
710
100
AcDbEntity
  8
寸法
 62
     0
440
 16777216
100
AcDbTrace
 10
3123.75
 20
2557.11780832195
 30
0.0
 11
3123.75
 21
2544.617808321949
 31
0.0
 12
3086.25
 22
2550.86780832195
 32
0.0
 13
3086.25
 23
2550.86780832195
 33
0.0
  0
SOLID
  5
1045
330
710
100
AcDbEntity
  8
寸法
 62
     0
440
 16777216
100
AcDbTrace
 10
2998.75
 20
2557.11780832195
 30
0.0
 11
2998.75
 21
2544.617808321949
 31
0.0
 12
3036.25
 22
2550.86780832195
 32
0.0
 13
3036.25
 23
2550.86780832195
 33
0.0
  0
POINT
  5
1046
330
710
100
AcDbEntity
  8
Defpoints
 62
     0
440
 16777216
100
AcDbPoint
 10
3086.25
 20
2417.5
 30
0.0
  0
POINT
  5
1047
330
710
100
AcDbEntity
  8
Defpoints
 62
     0
440
 16777216
100
AcDbPoint
 10
3036.25
 20
2398.5
 30
0.0
  0
POINT
  5
1048
330
710
100
AcDbEntity
  8
Defpoints
 62
     0
440
 16777216
100
AcDbPoint
 10
3036.25
 20
2550.86780832195
 30
0.0
  0
ENDBLK
  5
712
330
710
100
AcDbEntity
  8
0
100
AcDbBlockEnd
  0
BLOCK
  5
72D
330
72C
100
AcDbEntity
  8
0
100
AcDbBlockBegin
  2
*D21
 70
     1
 10
0.0
 20
0.0
 30
0.0
  3
*D21
  1

  0
LINE
  5
1054
330
72C
100
AcDbEntity
  8
寸法
 62
     0
440
 16777216
370
    -2
100
AcDbLine
 10
3446.25
 20
2441.875
 30
0.0
 11
3446.25
 21
2569.617808321949
 31
0.0
  0
LINE
  5
1055
330
72C
100
AcDbEntity
  8
寸法
 62
     0
440
 16777216
370
    -2
100
AcDbLine
 10
3496.25
 20
2422.875
 30
0.0
 11
3496.25
 21
2569.617808321949
 31
0.0
  0
LINE
  5
1056
330
72C
100
AcDbEntity
  8
寸法
 62
     0
440
 16777216
370
    -2
100
AcDbLine
 10
3408.75
 20
2550.86780832195
 30
0.0
 11
3371.25
 21
2550.86780832195
 31
0.0
  0
LINE
  5
1057
330
72C
100
AcDbEntity
  8
寸法
 62
     0
440
 16777216
370
    -2
100
AcDbLine
 10
3533.75
 20
2550.86780832195
 30
0.0
 11
3571.25
 21
2550.86780832195
 31
0.0
  0
MTEXT
  5
1058
330
72C
100
AcDbEntity
  8
寸法
 62
     0
440
 16777216
100
AcDbMText
 10
3561.872318871671
 20
2579.785587113234
 30
0.0
 40
37.5
 41
0.0
 46
0.0
 71
     5
 72
     1
  1
50
 73
     1
 44
1.0
  0
LINE
  5
1059
330
72C
100
AcDbEntity
  8
寸法
 62
     0
440
 16777216
370
    -2
100
AcDbLine
 10
3446.25
 20
2550.86780832195
 30
0.0
 11
3496.25
 21
2550.86780832195
 31
0.0
  0
SOLID
  5
105A
330
72C
100
AcDbEntity
  8
寸法
 62
     0
440
 16777216
100
AcDbTrace
 10
3408.75
 20
2557.11780832195
 30
0.0
 11
3408.75
 21
2544.617808321949
 31
0.0
 12
3446.25
 22
2550.86780832195
 32
0.0
 13
3446.25
 23
2550.86780832195
 33
0.0
  0
SOLID
  5
105B
330
72C
100
AcDbEntity
  8
寸法
 62
     0
440
 16777216
100
AcDbTrace
 10
3533.75
 20
2557.11780832195
 30
0.0
 11
3533.75
 21
2544.617808321949
 31
0.0
 12
3496.25
 22
2550.86780832195
 32
0.0
 13
3496.25
 23
2550.86780832195
 33
0.0
  0
POINT
  5
105C
330
72C
100
AcDbEntity
  8
Defpoints
 62
     0
440
 16777216
100
AcDbPoint
 10
3446.25
 20
2417.5
 30
0.0
  0
POINT
  5
105D
330
72C
100
AcDbEntity
  8
Defpoints
 62
     0
440
 16777216
100
AcDbPoint
 10
3496.25
 20
2398.5
 30
0.0
  0
POINT
  5
105E
330
72C
100
AcDbEntity
  8
Defpoints
 62
     0
440
 16777216
100
AcDbPoint
 10
3496.25
 20
2550.86780832195
 30
0.0
  0
ENDBLK
  5
72E
330
72C
100
AcDbEntity
  8
0
100
AcDbBlockEnd
  0
BLOCK
  5
749
330
748
100
AcDbEntity
  8
0
100
AcDbBlockBegin
  2
*D22
 70
     1
 10
0.0
 20
0.0
 30
0.0
  3
*D22
  1

  0
LINE
  5
1071
330
748
100
AcDbEntity
  8
寸法
 62
     0
440
 16777216
370
    -2
100
AcDbLine
 10
3086.25
 20
2441.875
 30
0.0
 11
3086.25
 21
2569.617808321949
 31
0.0
  0
LINE
  5
1072
330
748
100
AcDbEntity
  8
寸法
 62
     0
440
 16777216
370
    -2
100
AcDbLine
 10
3446.25
 20
2441.875
 30
0.0
 11
3446.25
 21
2569.617808321949
 31
0.0
  0
LINE
  5
1073
330
748
100
AcDbEntity
  8
寸法
 62
     0
440
 16777216
370
    -2
100
AcDbLine
 10
3123.75
 20
2550.86780832195
 30
0.0
 11
3408.75
 21
2550.86780832195
 31
0.0
  0
SOLID
  5
1074
330
748
100
AcDbEntity
  8
寸法
 62
     0
440
 16777216
100
AcDbTrace
 10
3123.75
 20
2557.11780832195
 30
0.0
 11
3123.75
 21
2544.617808321949
 31
0.0
 12
3086.25
 22
2550.86780832195
 32
0.0
 13
3086.25
 23
2550.86780832195
 33
0.0
  0
SOLID
  5
1075
330
748
100
AcDbEntity
  8
寸法
 62
     0
440
 16777216
100
AcDbTrace
 10
3408.75
 20
2557.11780832195
 30
0.0
 11
3408.75
 21
2544.617808321949
 31
0.0
 12
3446.25
 22
2550.86780832195
 32
0.0
 13
3446.25
 23
2550.86780832195
 33
0.0
  0
MTEXT
  5
1076
330
748
100
AcDbEntity
  8
寸法
 62
     0
440
 16777216
100
AcDbMText
 10
3266.25
 20
2593.992808321949
 30
0.0
 40
37.5
 41
0.0
 46
0.0
 71
     5
 72
     1
  1
360
 73
     1
 44
1.0
  0
POINT
  5
1077
330
748
100
AcDbEntity
  8
Defpoints
 62
     0
440
 16777216
100
AcDbPoint
 10
3086.25
 20
2417.5
 30
0.0
  0
POINT
  5
1078
330
748
100
AcDbEntity
  8
Defpoints
 62
     0
440
 16777216
100
AcDbPoint
 10
3446.25
 20
2417.5
 30
0.0
  0
POINT
  5
1079
330
748
100
AcDbEntity
  8
Defpoints
 62
     0
440
 16777216
100
AcDbPoint
 10
3446.25
 20
2550.86780832195
 30
0.0
  0
ENDBLK
  5
74A
330
748
100
AcDbEntity
  8
0
100
AcDbBlockEnd
  0
BLOCK
  5
78F
330
78E
100
AcDbEntity
  8
0
100
AcDbBlockBegin
  2
*D23
 70
     1
 10
0.0
 20
0.0
 30
0.0
  3
*D23
  1

  0
LINE
  5
1097
330
78E
100
AcDbEntity
  8
寸法
 62
     0
440
 16777216
370
    -2
100
AcDbLine
 10
3520.625
 20
2367.5
 30
0.0
 11
3618.300158566473
 21
2367.5
 31
0.0
  0
LINE
  5
1098
330
78E
100
AcDbEntity
  8
寸法
 62
     0
440
 16777216
370
    -2
100
AcDbLine
 10
3501.625
 20
2417.5
 30
0.0
 11
3618.300158566473
 21
2417.5
 31
0.0
  0
LINE
  5
1099
330
78E
100
AcDbEntity
  8
寸法
 62
     0
440
 16777216
370
    -2
100
AcDbLine
 10
3599.550158566473
 20
2330.0
 30
0.0
 11
3599.550158566473
 21
2292.5
 31
0.0
  0
LINE
  5
109A
330
78E
100
AcDbEntity
  8
寸法
 62
     0
440
 16777216
370
    -2
100
AcDbLine
 10
3599.550158566473
 20
2455.0
 30
0.0
 11
3599.550158566473
 21
2492.5
 31
0.0
  0
MTEXT
  5
109B
330
78E
100
AcDbEntity
  8
寸法
 62
     0
440
 16777216
100
AcDbMText
 10
3568.420502454928
 20
2486.516757952984
 30
0.0
 40
37.5
 41
0.0
 46
0.0
 71
     5
 72
     1
  1
50
 11
0.0000000000000001
 21
1.0
 31
0.0
 73
     1
 44
1.0
  0
LINE
  5
109C
330
78E
100
AcDbEntity
  8
寸法
 62
     0
440
 16777216
370
    -2
100
AcDbLine
 10
3599.550158566473
 20
2367.5
 30
0.0
 11
3599.550158566473
 21
2417.5
 31
0.0
  0
SOLID
  5
109D
330
78E
100
AcDbEntity
  8
寸法
 62
     0
440
 16777216
100
AcDbTrace
 10
3593.300158566473
 20
2330.0
 30
0.0
 11
3605.800158566473
 21
2330.0
 31
0.0
 12
3599.550158566473
 22
2367.5
 32
0.0
 13
3599.550158566473
 23
2367.5
 33
0.0
  0
SOLID
  5
109E
330
78E
100
AcDbEntity
  8
寸法
 62
     0
440
 16777216
100
AcDbTrace
 10
3593.300158566473
 20
2455.0
 30
0.0
 11
3605.800158566473
 21
2455.0
 31
0.0
 12
3599.550158566473
 22
2417.5
 32
0.0
 13
3599.550158566473
 23
2417.5
 33
0.0
  0
POINT
  5
109F
330
78E
100
AcDbEntity
  8
Defpoints
 62
     0
440
 16777216
100
AcDbPoint
 10
3496.25
 20
2367.5
 30
0.0
  0
POINT
  5
10A0
330
78E
100
AcDbEntity
  8
Defpoints
 62
     0
440
 16777216
100
AcDbPoint
 10
3477.25
 20
2417.5
 30
0.0
  0
POINT
  5
10A1
330
78E
100
AcDbEntity
  8
Defpoints
 62
     0
440
 16777216
100
AcDbPoint
 10
3599.550158566473
 20
2417.5
 30
0.0
  0
ENDBLK
  5
790
330
78E
100
AcDbEntity
  8
0
100
AcDbBlockEnd
  0
BLOCK
  5
7AB
330
7AA
100
AcDbEntity
  8
0
100
AcDbBlockBegin
  2
*D24
 70
     1
 10
0.0
 20
0.0
 30
0.0
  3
*D24
  1

  0
LINE
  5
10AD
330
7AA
100
AcDbEntity
  8
寸法
 62
     0
440
 16777216
370
    -2
100
AcDbLine
 10
3520.625000000001
 20
2007.5
 30
0.0
 11
3618.300158566473
 21
2007.5
 31
0.0
  0
LINE
  5
10AE
330
7AA
100
AcDbEntity
  8
寸法
 62
     0
440
 16777216
370
    -2
100
AcDbLine
 10
3501.625
 20
1957.5
 30
0.0
 11
3618.300158566473
 21
1957.5
 31
0.0
  0
LINE
  5
10AF
330
7AA
100
AcDbEntity
  8
寸法
 62
     0
440
 16777216
370
    -2
100
AcDbLine
 10
3599.550158566473
 20
2045.0
 30
0.0
 11
3599.550158566473
 21
2082.5
 31
0.0
  0
LINE
  5
10B0
330
7AA
100
AcDbEntity
  8
寸法
 62
     0
440
 16777216
370
    -2
100
AcDbLine
 10
3599.550158566473
 20
1920.0
 30
0.0
 11
3599.550158566473
 21
1882.5
 31
0.0
  0
MTEXT
  5
10B1
330
7AA
100
AcDbEntity
  8
寸法
 62
     0
440
 16777216
100
AcDbMText
 10
3565.307528360771
 20
1901.753536879087
 30
0.0
 40
37.5
 41
0.0
 46
0.0
 71
     5
 72
     1
  1
50
 11
0.0000000000000001
 21
1.0
 31
0.0
 73
     1
 44
1.0
  0
LINE
  5
10B2
330
7AA
100
AcDbEntity
  8
寸法
 62
     0
440
 16777216
370
    -2
100
AcDbLine
 10
3599.550158566473
 20
2007.5
 30
0.0
 11
3599.550158566473
 21
1957.5
 31
0.0
  0
SOLID
  5
10B3
330
7AA
100
AcDbEntity
  8
寸法
 62
     0
440
 16777216
100
AcDbTrace
 10
3593.300158566473
 20
2045.0
 30
0.0
 11
3605.800158566474
 21
2045.0
 31
0.0
 12
3599.550158566473
 22
2007.5
 32
0.0
 13
3599.550158566473
 23
2007.5
 33
0.0
  0
SOLID
  5
10B4
330
7AA
100
AcDbEntity
  8
寸法
 62
     0
440
 16777216
100
AcDbTrace
 10
3593.300158566473
 20
1920.0
 30
0.0
 11
3605.800158566474
 21
1920.0
 31
0.0
 12
3599.550158566473
 22
1957.5
 32
0.0
 13
3599.550158566473
 23
1957.5
 33
0.0
  0
POINT
  5
10B5
330
7AA
100
AcDbEntity
  8
Defpoints
 62
     0
440
 16777216
100
AcDbPoint
 10
3496.25
 20
2007.5
 30
0.0
  0
POINT
  5
10B6
330
7AA
100
AcDbEntity
  8
Defpoints
 62
     0
440
 16777216
100
AcDbPoint
 10
3477.25
 20
1957.5
 30
0.0
  0
POINT
  5
10B7
330
7AA
100
AcDbEntity
  8
Defpoints
 62
     0
440
 16777216
100
AcDbPoint
 10
3599.550158566473
 20
1957.5
 30
0.0
  0
ENDBLK
  5
7AC
330
7AA
100
AcDbEntity
  8
0
100
AcDbBlockEnd
  0
BLOCK
  5
800
330
7FF
100
AcDbEntity
  8
0
100
AcDbBlockBegin
  2
*D25
 70
     1
 10
0.0
 20
0.0
 30
0.0
  3
*D25
  1

  0
LINE
  5
10C1
330
7FF
100
AcDbEntity
  8
寸法
 62
     0
440
 16777216
370
    -2
100
AcDbLine
 10
3520.625
 20
2367.5
 30
0.0
 11
3618.300158566473
 21
2367.5
 31
0.0
  0
LINE
  5
10C2
330
7FF
100
AcDbEntity
  8
寸法
 62
     0
440
 16777216
370
    -2
100
AcDbLine
 10
3520.625000000001
 20
2007.5
 30
0.0
 11
3618.300158566473
 21
2007.5
 31
0.0
  0
LINE
  5
10C3
330
7FF
100
AcDbEntity
  8
寸法
 62
     0
440
 16777216
370
    -2
100
AcDbLine
 10
3599.550158566473
 20
2330.0
 30
0.0
 11
3599.550158566473
 21
2045.0
 31
0.0
  0
SOLID
  5
10C4
330
7FF
100
AcDbEntity
  8
寸法
 62
     0
440
 16777216
100
AcDbTrace
 10
3593.300158566473
 20
2330.0
 30
0.0
 11
3605.800158566473
 21
2330.0
 31
0.0
 12
3599.550158566473
 22
2367.5
 32
0.0
 13
3599.550158566473
 23
2367.5
 33
0.0
  0
SOLID
  5
10C5
330
7FF
100
AcDbEntity
  8
寸法
 62
     0
440
 16777216
100
AcDbTrace
 10
3593.300158566473
 20
2045.0
 30
0.0
 11
3605.800158566473
 21
2045.0
 31
0.0
 12
3599.550158566473
 22
2007.5
 32
0.0
 13
3599.550158566473
 23
2007.5
 33
0.0
  0
MTEXT
  5
10C6
330
7FF
100
AcDbEntity
  8
寸法
 62
     0
440
 16777216
100
AcDbMText
 10
3556.425158566473
 20
2187.500000000001
 30
0.0
 40
37.5
 41
0.0
 46
0.0
 71
     5
 72
     1
  1
360
 11
0.0000000000000001
 21
1.0
 31
0.0
 73
     1
 44
1.0
  0
POINT
  5
10C7
330
7FF
100
AcDbEntity
  8
Defpoints
 62
     0
440
 16777216
100
AcDbPoint
 10
3496.25
 20
2367.5
 30
0.0
  0
POINT
  5
10C8
330
7FF
100
AcDbEntity
  8
Defpoints
 62
     0
440
 16777216
100
AcDbPoint
 10
3496.25
 20
2007.5
 30
0.0
  0
POINT
  5
10C9
330
7FF
100
AcDbEntity
  8
Defpoints
 62
     0
440
 16777216
100
AcDbPoint
 10
3599.550158566473
 20
2007.5
 30
0.0
  0
ENDBLK
  5
801
330
7FF
100
AcDbEntity
  8
0
100
AcDbBlockEnd
  0
BLOCK
  5
83C
330
83B
100
AcDbEntity
  8
0
100
AcDbBlockBegin
  2
*D26
 70
     1
 10
0.0
 20
0.0
 30
0.0
  3
*D26
  1

  0
LINE
  5
1083
330
83B
100
AcDbEntity
  8
寸法
 62
     0
440
 16777216
370
    -2
100
AcDbLine
 10
3036.25
 20
2422.875
 30
0.0
 11
3036.25
 21
2653.892479652935
 31
0.0
  0
LINE
  5
1084
330
83B
100
AcDbEntity
  8
寸法
 62
     0
440
 16777216
370
    -2
100
AcDbLine
 10
3496.25
 20
2422.875
 30
0.0
 11
3496.25
 21
2653.892479652935
 31
0.0
  0
LINE
  5
1085
330
83B
100
AcDbEntity
  8
寸法
 62
     0
440
 16777216
370
    -2
100
AcDbLine
 10
3073.75
 20
2635.142479652936
 30
0.0
 11
3458.75
 21
2635.142479652936
 31
0.0
  0
SOLID
  5
1086
330
83B
100
AcDbEntity
  8
寸法
 62
     0
440
 16777216
100
AcDbTrace
 10
3073.75
 20
2641.392479652936
 30
0.0
 11
3073.75
 21
2628.892479652936
 31
0.0
 12
3036.25
 22
2635.142479652936
 32
0.0
 13
3036.25
 23
2635.142479652936
 33
0.0
  0
SOLID
  5
1087
330
83B
100
AcDbEntity
  8
寸法
 62
     0
440
 16777216
100
AcDbTrace
 10
3458.75
 20
2641.392479652936
 30
0.0
 11
3458.75
 21
2628.892479652936
 31
0.0
 12
3496.25
 22
2635.142479652936
 32
0.0
 13
3496.25
 23
2635.142479652936
 33
0.0
  0
MTEXT
  5
1088
330
83B
100
AcDbEntity
  8
寸法
 62
     0
440
 16777216
100
AcDbMText
 10
3266.25
 20
2678.267479652936
 30
0.0
 40
37.5
 41
0.0
 46
0.0
 71
     5
 72
     1
  1
460
 73
     1
 44
1.0
  0
POINT
  5
1089
330
83B
100
AcDbEntity
  8
Defpoints
 62
     0
440
 16777216
100
AcDbPoint
 10
3036.25
 20
2398.5
 30
0.0
  0
POINT
  5
108A
330
83B
100
AcDbEntity
  8
Defpoints
 62
     0
440
 16777216
100
AcDbPoint
 10
3496.25
 20
2398.5
 30
0.0
  0
POINT
  5
108B
330
83B
100
AcDbEntity
  8
Defpoints
 62
     0
440
 16777216
100
AcDbPoint
 10
3496.25
 20
2635.142479652936
 30
0.0
  0
ENDBLK
  5
83D
330
83B
100
AcDbEntity
  8
0
100
AcDbBlockEnd
  0
BLOCK
  5
849
330
848
100
AcDbEntity
  8
0
100
AcDbBlockBegin
  2
*D27
 70
     1
 10
0.0
 20
0.0
 30
0.0
  3
*D27
  1

  0
LINE
  5
10D3
330
848
100
AcDbEntity
  8
寸法
 62
     0
440
 16777216
370
    -2
100
AcDbLine
 10
3501.625
 20
2417.5
 30
0.0
 11
3712.726784932494
 21
2417.5
 31
0.0
  0
LINE
  5
10D4
330
848
100
AcDbEntity
  8
寸法
 62
     0
440
 16777216
370
    -2
100
AcDbLine
 10
3501.625
 20
1957.5
 30
0.0
 11
3712.726784932494
 21
1957.5
 31
0.0
  0
LINE
  5
10D5
330
848
100
AcDbEntity
  8
寸法
 62
     0
440
 16777216
370
    -2
100
AcDbLine
 10
3693.976784932494
 20
2380.0
 30
0.0
 11
3693.976784932494
 21
1995.0
 31
0.0
  0
SOLID
  5
10D6
330
848
100
AcDbEntity
  8
寸法
 62
     0
440
 16777216
100
AcDbTrace
 10
3687.726784932494
 20
2380.0
 30
0.0
 11
3700.226784932494
 21
2380.0
 31
0.0
 12
3693.976784932494
 22
2417.5
 32
0.0
 13
3693.976784932494
 23
2417.5
 33
0.0
  0
SOLID
  5
10D7
330
848
100
AcDbEntity
  8
寸法
 62
     0
440
 16777216
100
AcDbTrace
 10
3687.726784932494
 20
1995.0
 30
0.0
 11
3700.226784932494
 21
1995.0
 31
0.0
 12
3693.976784932494
 22
1957.5
 32
0.0
 13
3693.976784932494
 23
1957.5
 33
0.0
  0
MTEXT
  5
10D8
330
848
100
AcDbEntity
  8
寸法
 62
     0
440
 16777216
100
AcDbMText
 10
3650.851784932494
 20
2187.500000000001
 30
0.0
 40
37.5
 41
0.0
 46
0.0
 71
     5
 72
     1
  1
460
 11
0.0000000000000001
 21
1.0
 31
0.0
 73
     1
 44
1.0
  0
POINT
  5
10D9
330
848
100
AcDbEntity
  8
Defpoints
 62
     0
440
 16777216
100
AcDbPoint
 10
3477.25
 20
2417.5
 30
0.0
  0
POINT
  5
10DA
330
848
100
AcDbEntity
  8
Defpoints
 62
     0
440
 16777216
100
AcDbPoint
 10
3477.25
 20
1957.5
 30
0.0
  0
POINT
  5
10DB
330
848
100
AcDbEntity
  8
Defpoints
 62
     0
440
 16777216
100
AcDbPoint
 10
3693.976784932494
 20
1957.5
 30
0.0
  0
ENDBLK
  5
84A
330
848
100
AcDbEntity
  8
0
100
AcDbBlockEnd
  0
BLOCK
  5
95A
330
959
100
AcDbEntity
  8
0
100
AcDbBlockBegin
  2
*D28
 70
     1
 10
0.0
 20
0.0
 30
0.0
  3
*D28
  1

  0
LINE
  5
10E3
330
959
100
AcDbEntity
  8
寸法
 62
     0
440
 16777216
370
    -2
100
AcDbLine
 10
3520.625
 20
1687.5
 30
0.0
 11
3618.300158566473
 21
1687.5
 31
0.0
  0
LINE
  5
10E4
330
959
100
AcDbEntity
  8
寸法
 62
     0
440
 16777216
370
    -2
100
AcDbLine
 10
3520.625
 20
1387.5
 30
0.0
 11
3618.300158566473
 21
1387.5
 31
0.0
  0
LINE
  5
10E5
330
959
100
AcDbEntity
  8
寸法
 62
     0
440
 16777216
370
    -2
100
AcDbLine
 10
3599.550158566473
 20
1649.999999999999
 30
0.0
 11
3599.550158566473
 21
1425.0
 31
0.0
  0
SOLID
  5
10E6
330
959
100
AcDbEntity
  8
寸法
 62
     0
440
 16777216
100
AcDbTrace
 10
3593.300158566473
 20
1649.999999999999
 30
0.0
 11
3605.800158566473
 21
1649.999999999999
 31
0.0
 12
3599.550158566473
 22
1687.5
 32
0.0
 13
3599.550158566473
 23
1687.5
 33
0.0
  0
SOLID
  5
10E7
330
959
100
AcDbEntity
  8
寸法
 62
     0
440
 16777216
100
AcDbTrace
 10
3593.300158566473
 20
1425.0
 30
0.0
 11
3605.800158566473
 21
1425.0
 31
0.0
 12
3599.550158566473
 22
1387.5
 32
0.0
 13
3599.550158566473
 23
1387.5
 33
0.0
  0
MTEXT
  5
10E8
330
959
100
AcDbEntity
  8
寸法
 62
     0
440
 16777216
100
AcDbMText
 10
3556.425158566473
 20
1537.5
 30
0.0
 40
37.5
 41
0.0
 46
0.0
 71
     5
 72
     1
  1
300
 11
0.0000000000000001
 21
1.0
 31
0.0
 73
     1
 44
1.0
  0
POINT
  5
10E9
330
959
100
AcDbEntity
  8
Defpoints
 62
     0
440
 16777216
100
AcDbPoint
 10
3496.25
 20
1687.5
 30
0.0
  0
POINT
  5
10EA
330
959
100
AcDbEntity
  8
Defpoints
 62
     0
440
 16777216
100
AcDbPoint
 10
3496.25
 20
1387.5
 30
0.0
  0
POINT
  5
10EB
330
959
100
AcDbEntity
  8
Defpoints
 62
     0
440
 16777216
100
AcDbPoint
 10
3599.550158566473
 20
1387.5
 30
0.0
  0
ENDBLK
  5
95B
330
959
100
AcDbEntity
  8
0
100
AcDbBlockEnd
  0
BLOCK
  5
972
330
971
100
AcDbEntity
  8
0
100
AcDbBlockBegin
  2
*D29
 70
     1
 10
0.0
 20
0.0
 30
0.0
  3
*D29
  1

  0
LINE
  5
12CD
330
971
100
AcDbEntity
  8
寸法
 62
     0
440
 16777216
370
    -2
100
AcDbLine
 10
3520.625
 20
1087.5
 30
0.0
 11
3618.300158566473
 21
1087.499999999999
 31
0.0
  0
LINE
  5
12CE
330
971
100
AcDbEntity
  8
寸法
 62
     0
440
 16777216
370
    -2
100
AcDbLine
 10
3520.625
 20
937.5
 30
0.0
 11
3618.300158566472
 21
937.5
 31
0.0
  0
LINE
  5
12CF
330
971
100
AcDbEntity
  8
寸法
 62
     0
440
 16777216
370
    -2
100
AcDbLine
 10
3599.550158566473
 20
1049.999999999999
 30
0.0
 11
3599.550158566472
 21
975.0
 31
0.0
  0
SOLID
  5
12D0
330
971
100
AcDbEntity
  8
寸法
 62
     0
440
 16777216
100
AcDbTrace
 10
3593.300158566473
 20
1049.999999999999
 30
0.0
 11
3605.800158566473
 21
1049.999999999999
 31
0.0
 12
3599.550158566473
 22
1087.499999999999
 32
0.0
 13
3599.550158566473
 23
1087.499999999999
 33
0.0
  0
SOLID
  5
12D1
330
971
100
AcDbEntity
  8
寸法
 62
     0
440
 16777216
100
AcDbTrace
 10
3593.300158566472
 20
975.0
 30
0.0
 11
3605.800158566472
 21
975.0
 31
0.0
 12
3599.550158566472
 22
937.5
 32
0.0
 13
3599.550158566472
 23
937.5
 33
0.0
  0
MTEXT
  5
12D2
330
971
100
AcDbEntity
  8
寸法
 62
     0
440
 16777216
100
AcDbMText
 10
3556.425158566472
 20
1012.5
 30
0.0
 40
37.5
 41
0.0
 46
0.0
 71
     5
 72
     1
  1
150
 11
0.0000000000000001
 21
1.0
 31
0.0
 73
     1
 44
1.0
  0
POINT
  5
12D3
330
971
100
AcDbEntity
  8
Defpoints
 62
     0
440
 16777216
100
AcDbPoint
 10
3496.25
 20
1087.5
 30
0.0
  0
POINT
  5
12D4
330
971
100
AcDbEntity
  8
Defpoints
 62
     0
440
 16777216
100
AcDbPoint
 10
3496.25
 20
937.5
 30
0.0
  0
POINT
  5
12D5
330
971
100
AcDbEntity
  8
Defpoints
 62
     0
440
 16777216
100
AcDbPoint
 10
3599.550158566472
 20
937.5
 30
0.0
  0
ENDBLK
  5
973
330
971
100
AcDbEntity
  8
0
100
AcDbBlockEnd
  0
BLOCK
  5
9FD
330
9FC
100
AcDbEntity
  8
0
100
AcDbBlockBegin
  2
*D30
 70
     1
 10
0.0
 20
0.0
 30
0.0
  3
*D30
  1

  0
LINE
  5
E25
330
9FC
100
AcDbEntity
  8
寸法
 62
     0
440
 16777216
370
    -2
100
AcDbLine
 10
1423.124999999999
 20
362.5
 30
0.0
 11
1529.70451629386
 21
362.5
 31
0.0
  0
LINE
  5
E26
330
9FC
100
AcDbEntity
  8
寸法
 62
     0
440
 16777216
370
    -2
100
AcDbLine
 10
1423.124999999999
 20
412.4999999999999
 30
0.0
 11
1529.70451629386
 21
412.4999999999999
 31
0.0
  0
LINE
  5
E27
330
9FC
100
AcDbEntity
  8
寸法
 62
     0
440
 16777216
370
    -2
100
AcDbLine
 10
1510.95451629386
 20
325.0
 30
0.0
 11
1510.95451629386
 21
287.5
 31
0.0
  0
LINE
  5
E28
330
9FC
100
AcDbEntity
  8
寸法
 62
     0
440
 16777216
370
    -2
100
AcDbLine
 10
1510.95451629386
 20
449.9999999999999
 30
0.0
 11
1510.95451629386
 21
487.4999999999999
 31
0.0
  0
MTEXT
  5
E29
330
9FC
100
AcDbEntity
  8
寸法
 62
     0
440
 16777216
100
AcDbMText
 10
1557.546786031716
 20
390.1880066040658
 30
0.0
 40
37.5
 41
0.0
 46
0.0
 71
     5
 72
     1
  1
50
 11
0.0000000000000001
 21
1.0
 31
0.0
 73
     1
 44
1.0
  0
LINE
  5
E2A
330
9FC
100
AcDbEntity
  8
寸法
 62
     0
440
 16777216
370
    -2
100
AcDbLine
 10
1510.95451629386
 20
362.5
 30
0.0
 11
1510.95451629386
 21
412.4999999999999
 31
0.0
  0
SOLID
  5
E2B
330
9FC
100
AcDbEntity
  8
寸法
 62
     0
440
 16777216
100
AcDbTrace
 10
1504.70451629386
 20
325.0
 30
0.0
 11
1517.20451629386
 21
325.0
 31
0.0
 12
1510.95451629386
 22
362.5
 32
0.0
 13
1510.95451629386
 23
362.5
 33
0.0
  0
SOLID
  5
E2C
330
9FC
100
AcDbEntity
  8
寸法
 62
     0
440
 16777216
100
AcDbTrace
 10
1504.70451629386
 20
449.9999999999999
 30
0.0
 11
1517.20451629386
 21
449.9999999999999
 31
0.0
 12
1510.95451629386
 22
412.4999999999999
 32
0.0
 13
1510.95451629386
 23
412.4999999999999
 33
0.0
  0
POINT
  5
E2D
330
9FC
100
AcDbEntity
  8
Defpoints
 62
     0
440
 16777216
100
AcDbPoint
 10
1398.749999999999
 20
362.5
 30
0.0
  0
POINT
  5
E2E
330
9FC
100
AcDbEntity
  8
Defpoints
 62
     0
440
 16777216
100
AcDbPoint
 10
1398.749999999999
 20
412.5
 30
0.0
  0
POINT
  5
E2F
330
9FC
100
AcDbEntity
  8
Defpoints
 62
     0
440
 16777216
100
AcDbPoint
 10
1510.95451629386
 20
412.4999999999999
 30
0.0
  0
ENDBLK
  5
9FE
330
9FC
100
AcDbEntity
  8
0
100
AcDbBlockEnd
  0
ENDSEC
  0
SECTION
  2
ENTITIES
  0
LWPOLYLINE
  5
9A
330
67
100
AcDbEntity
  8
用紙
100
AcDbPolyline
 90
        4
 70
     1
 43
0.0
 10
0.0
 20
0.0
 10
4455.0
 20
0.0
 10
4455.0
 20
3150.0
 10
0.0
 20
3150.0
  0
LWPOLYLINE
  5
9B
330
67
100
AcDbEntity
  8
輪郭
100
AcDbPolyline
 90
        4
 70
     1
 43
0.0
 10
150.0
 20
150.0
 10
4305.0
 20
150.0
 10
4305.0
 20
3000.0
 10
150.0
 20
3000.0
  0
LINE
  5
C4
330
67
100
AcDbEntity
  8
表題
100
AcDbLine
 10
3030.0
 20
150.0
 30
0.0
 11
4305.0
 21
150.0
 31
0.0
  0
LINE
  5
C5
330
67
100
AcDbEntity
  8
表題
100
AcDbLine
 10
4305.0
 20
150.0
 30
0.0
 11
4305.0
 21
525.0
 31
0.0
  0
LINE
  5
C6
330
67
100
AcDbEntity
  8
表題
100
AcDbLine
 10
4079.999999999999
 20
225.0
 30
0.0
 11
4079.999999999999
 21
375.0
 31
0.0
  0
LINE
  5
C7
330
67
100
AcDbEntity
  8
表題
100
AcDbLine
 10
3855.0
 20
225.0
 30
0.0
 11
3855.0
 21
375.0
 31
0.0
  0
LINE
  5
C8
330
67
100
AcDbEntity
  8
表題
100
AcDbLine
 10
4305.0
 20
525.0
 30
0.0
 11
3030.0
 21
525.0
 31
0.0
  0
LINE
  5
C9
330
67
100
AcDbEntity
  8
表題
100
AcDbLine
 10
4305.0
 20
375.0
 30
0.0
 11
3030.0
 21
375.0
 31
0.0
  0
LINE
  5
CA
330
67
100
AcDbEntity
  8
表題
100
AcDbLine
 10
4305.0
 20
300.0
 30
0.0
 11
3030.0
 21
300.0
 31
0.0
  0
LINE
  5
CB
330
67
100
AcDbEntity
  8
表題
100
AcDbLine
 10
4305.0
 20
225.0
 30
0.0
 11
3030.0
 21
225.0
 31
0.0
  0
LINE
  5
CC
330
67
100
AcDbEntity
  8
表題
100
AcDbLine
 10
3030.0
 20
525.0
 30
0.0
 11
3030.0
 21
150.0
 31
0.0
  0
LINE
  5
CD
330
67
100
AcDbEntity
  8
表題
100
AcDbLine
 10
3255.0
 20
525.0
 30
0.0
 11
3255.0
 21
375.0
 31
0.0
  0
TEXT
  5
CE
330
67
100
AcDbEntity
  8
表題
100
AcDbText
 10
3054.784263959391
 20
427.5
 30
0.0
 40
45.0
  1
製品名
  7
文字
 72
     1
 11
3142.5
 21
450.0
 31
0.0
100
AcDbText
 73
     2
  0
TEXT
  5
CF
330
67
100
AcDbEntity
  8
表題
100
AcDbText
 10
3429.137055837563
 20
427.5
 30
0.0
 40
45.0
  1
特殊改良ます　ＣＤ３６０
  7
文字
 72
     1
 11
3780.0
 21
450.0
 31
0.0
100
AcDbText
 73
     2
  0
TEXT
  5
D0
330
67
100
AcDbEntity
  8
表題
100
AcDbText
 10
3237.829949238578
 20
315.0
 30
0.0
 40
45.0
  1
図　面　番　号
  7
文字
 72
     1
 11
3442.499999999999
 21
337.5
 31
0.0
100
AcDbText
 73
     2
  0
TEXT
  5
D1
330
67
100
AcDbEntity
  8
表題
100
AcDbText
 10
3909.022842639592
 20
315.0
 30
0.0
 40
45.0
  1
担当
  7
文字
 72
     1
 11
3967.499999999999
 21
337.5
 31
0.0
100
AcDbText
 73
     2
  0
TEXT
  5
D2
330
67
100
AcDbEntity
  8
表題
100
AcDbText
 10
4119.403553299492
 20
240.0
 30
0.0
 40
45.0
  1
1：15
  7
文字
 72
     1
 11
4192.5
 21
262.5
 31
0.0
100
AcDbText
 73
     2
  0
TEXT
  5
D3
330
67
100
AcDbEntity
  8
表題
100
AcDbText
 10
3433.591370558376
 20
165.0
 30
0.0
 40
45.0
  1
大生建材株式会社
  7
文字
 72
     1
 11
3667.5
 21
187.5
 31
0.0
100
AcDbText
 73
     2
  0
TEXT
  5
D4
330
67
100
AcDbEntity
  8
表題
100
AcDbText
 10
4134.022842639594
 20
315.0
 30
0.0
 40
45.0
  1
尺度
  7
文字
 72
     1
 11
4192.5
 21
337.5
 31
0.0
100
AcDbText
 73
     2
  0
LINE
  5
172
330
67
100
AcDbEntity
  8
製品
100
AcDbLine
 10
978.7499999999999
 20
1787.5
 30
0.0
 11
973.75
 21
1832.5
 31
0.0
  0
LINE
  5
173
330
67
100
AcDbEntity
  8
製品
100
AcDbLine
 10
973.75
 20
1832.5
 30
0.0
 11
978.7499999999999
 21
1837.5
 31
0.0
  0
LINE
  5
174
330
67
100
AcDbEntity
  8
製品
100
AcDbLine
 10
978.7499999999999
 20
1837.5
 30
0.0
 11
1398.749999999999
 21
1837.5
 31
0.0
  0
LINE
  5
175
102
{ACAD_REACTORS
330
34B
102
}
330
67
100
AcDbEntity
  8
製品
100
AcDbLine
 10
1398.749999999999
 20
1837.5
 30
0.0
 11
1403.75
 21
1832.5
 31
0.0
  0
LINE
  5
176
330
67
100
AcDbEntity
  8
製品
100
AcDbLine
 10
1403.75
 20
1832.5
 30
0.0
 11
1398.749999999999
 21
1787.5
 31
0.0
  0
LINE
  5
177
102
{ACAD_REACTORS
330
34B
330
363
102
}
330
67
100
AcDbEntity
  8
製品
100
AcDbLine
 10
1398.749999999999
 20
1787.5
 30
0.0
 11
978.7499999999999
 21
1787.5
 31
0.0
  0
LINE
  5
17A
330
67
100
AcDbEntity
  8
製品
100
AcDbLine
 10
978.7500000000001
 20
362.5
 30
0.0
 11
973.75
 21
409.4999999999999
 31
0.0
  0
LINE
  5
17B
330
67
100
AcDbEntity
  8
製品
100
AcDbLine
 10
973.75
 20
409.4999999999999
 30
0.0
 11
976.75
 21
412.5
 31
0.0
  0
LINE
  5
17C
330
67
100
AcDbEntity
  8
製品
100
AcDbLine
 10
976.75
 20
412.5
 30
0.0
 11
1400.75
 21
412.5
 31
0.0
  0
LINE
  5
17D
330
67
100
AcDbEntity
  8
製品
100
AcDbLine
 10
1400.75
 20
412.5
 30
0.0
 11
1403.75
 21
409.4999999999999
 31
0.0
  0
LINE
  5
17E
330
67
100
AcDbEntity
  8
製品
100
AcDbLine
 10
1403.75
 20
409.4999999999999
 30
0.0
 11
1398.749999999999
 21
362.5
 31
0.0
  0
LINE
  5
17F
330
67
100
AcDbEntity
  8
製品
100
AcDbLine
 10
1398.749999999999
 20
362.5
 30
0.0
 11
978.7499999999999
 21
362.5
 31
0.0
  0
LINE
  5
180
330
67
100
AcDbEntity
  8
製品2
100
AcDbLine
 10
973.75
 20
409.4999999999999
 30
0.0
 11
1403.75
 21
409.4999999999999
 31
0.0
  0
LINE
  5
181
330
67
100
AcDbEntity
  8
製品2
100
AcDbLine
 10
973.75
 20
1832.5
 30
0.0
 11
1403.75
 21
1832.5
 31
0.0
  0
TEXT
  5
235
330
67
100
AcDbEntity
  8
文字
100
AcDbText
 10
1119.787503409145
 20
2846.818145241389
 30
0.0
 40
35.0
  1
汚　蓋
  7
文字
 72
     1
 11
1188.010853662952
 21
2864.318145241389
 31
0.0
100
AcDbText
 73
     2
  0
TEXT
  5
236
330
67
100
AcDbEntity
  8
文字
100
AcDbText
 10
1119.787503409145
 20
1370.572329827953
 30
0.0
 40
35.0
  1
雨　蓋
  7
文字
 72
     1
 11
1188.010853662952
 21
1388.072329827953
 31
0.0
100
AcDbText
 73
     2
  0
TEXT
  5
240
330
67
100
AcDbEntity
  8
文字
100
AcDbText
 10
1028.823036404069
 20
2746.818145241388
 30
0.0
 40
35.0
  1
参考重量　23kg
  7
文字
 72
     1
 11
1188.010853662952
 21
2764.318145241388
 31
0.0
100
AcDbText
 73
     2
  0
TEXT
  5
241
330
67
100
AcDbEntity
  8
文字
100
AcDbText
 10
1028.823036404069
 20
1271.818145241388
 30
0.0
 40
35.0
  1
参考重量　23kg
  7
文字
 72
     1
 11
1188.010853662952
 21
1289.318145241388
 31
0.0
100
AcDbText
 73
     2
  0
LINE
  5
24E
330
67
100
AcDbEntity
  8
製品
100
AcDbLine
 10
1956.5
 20
1587.5
 30
0.0
 11
2498.5
 21
1587.5
 31
0.0
  0
LINE
  5
24F
330
67
100
AcDbEntity
  8
製品
100
AcDbLine
 10
2507.5
 20
1578.5
 30
0.0
 11
2507.5
 21
1487.5
 31
0.0
  0
LINE
  5
250
330
67
100
AcDbEntity
  8
製品
100
AcDbLine
 10
2507.5
 20
1487.5
 30
0.0
 11
1947.5
 21
1487.5
 31
0.0
  0
LINE
  5
251
330
67
100
AcDbEntity
  8
製品
100
AcDbLine
 10
1947.5
 20
1487.5
 30
0.0
 11
1947.5
 21
1578.5
 31
0.0
  0
LINE
  5
25B
330
67
100
AcDbEntity
  8
製品
100
AcDbLine
 10
1956.5
 20
1587.5
 30
0.0
 11
1947.5
 21
1578.5
 31
0.0
  0
LINE
  5
25C
330
67
100
AcDbEntity
  8
製品
100
AcDbLine
 10
2498.5
 20
1587.5
 30
0.0
 11
2507.5
 21
1578.5
 31
0.0
  0
LINE
  5
25D
330
67
100
AcDbEntity
  8
製品2
100
AcDbLine
 10
1977.5
 20
1578.5
 30
0.0
 11
2477.5
 21
1578.5
 31
0.0
  0
LINE
  5
26B
330
67
100
AcDbEntity
  8
製品
100
AcDbLine
 10
2047.500000000001
 20
1487.5
 30
0.0
 11
2042.5
 21
1534.5
 31
0.0
  0
LINE
  5
26D
102
{ACAD_REACTORS
330
49F
102
}
330
67
100
AcDbEntity
  8
製品
100
AcDbLine
 10
2012.500000000001
 20
1534.5
 30
0.0
 11
2007.500000000001
 21
1587.5
 31
0.0
  0
LINE
  5
26E
102
{ACAD_REACTORS
330
4BB
102
}
330
67
100
AcDbEntity
  8
製品
100
AcDbLine
 10
2447.500000000001
 20
1587.500000000004
 30
0.0
 11
2442.500000000001
 21
1534.500000000004
 31
0.0
  0
LINE
  5
26F
330
67
100
AcDbEntity
  8
製品
100
AcDbLine
 10
2442.5
 20
1534.5
 30
0.0
 11
2012.5
 21
1534.5
 31
0.0
  0
LINE
  5
270
330
67
100
AcDbEntity
  8
製品
100
AcDbLine
 10
2412.5
 20
1534.500000000004
 30
0.0
 11
2407.500000000001
 21
1487.500000000004
 31
0.0
  0
LINE
  5
274
330
67
100
AcDbEntity
  8
製品2
100
AcDbLine
 10
1956.5
 20
1587.5
 30
0.0
 11
1956.5
 21
1487.5
 31
0.0
  0
LINE
  5
275
330
67
100
AcDbEntity
  8
製品2
100
AcDbLine
 10
2498.5
 20
1587.5
 30
0.0
 11
2498.5
 21
1487.5
 31
0.0
  0
LWPOLYLINE
  5
2A1
330
67
100
AcDbEntity
  8
製品
100
AcDbPolyline
 90
        4
 70
     1
 43
0.0
 10
3036.25
 20
1687.5
 10
3496.25
 20
1687.5
 10
3496.25
 20
1387.5
 10
3036.25
 20
1387.5
  0
LINE
  5
2A2
330
67
100
AcDbEntity
  8
製品
100
AcDbLine
 10
3086.25
 20
1687.5
 30
0.0
 11
3086.25
 21
1387.5
 31
0.0
  0
LINE
  5
2A3
330
67
100
AcDbEntity
  8
製品
100
AcDbLine
 10
3446.25
 20
1687.5
 30
0.0
 11
3446.25
 21
1387.5
 31
0.0
  0
LWPOLYLINE
  5
2A6
102
{ACAD_REACTORS
330
987
102
}
330
67
100
AcDbEntity
  8
製品
100
AcDbPolyline
 90
        4
 70
     1
 43
0.0
 10
3036.25
 20
1087.5
 10
3496.25
 20
1087.5
 10
3496.25
 20
937.5
 10
3036.25
 20
937.5
  0
LINE
  5
2A7
330
67
100
AcDbEntity
  8
製品
100
AcDbLine
 10
3086.25
 20
1087.5
 30
0.0
 11
3086.25
 21
937.4999999999998
 31
0.0
  0
LINE
  5
2A8
330
67
100
AcDbEntity
  8
製品
100
AcDbLine
 10
3446.25
 20
1087.5
 30
0.0
 11
3446.249999999999
 21
937.5
 31
0.0
  0
DIMENSION
  5
2D2
330
67
100
AcDbEntity
  8
寸法
100
AcDbDimension
  2
*D1
 10
1403.75
 20
2529.201875192132
 30
0.0
 11
1188.75
 21
2572.326875192132
 31
0.0
 70
    32
 71
     5
 42
429.9999999999998
 73
     0
 74
     0
 75
     0
  3
ISO-25
100
AcDbAlignedDimension
 13
973.75
 23
2452.500000000001
 33
0.0
 14
1403.75
 24
2452.500000000001
 34
0.0
100
AcDbRotatedDimension
  0
DIMENSION
  5
2EA
330
67
100
AcDbEntity
  8
寸法
100
AcDbDimension
  2
*D2
 10
1510.95451629386
 20
2022.5
 30
0.0
 11
1467.82951629386
 21
2237.5
 31
0.0
 70
    32
 71
     5
 42
430.0000000000002
 73
     0
 74
     0
 75
     0
  3
ISO-25
100
AcDbAlignedDimension
 13
1403.75
 23
2452.500000000001
 33
0.0
 14
1403.75
 24
2022.5
 34
0.0
 50
90.0
100
AcDbRotatedDimension
  0
DIMENSION
  5
330
102
{ACAD_XDICTIONARY
360
33F
102
}
102
{ACAD_REACTORS
330
34B
102
}
330
67
100
AcDbEntity
  8
寸法
100
AcDbDimension
  2
*D3
 10
1510.95451629386
 20
1837.5
 30
0.0
 11
1559.063348184683
 21
1812.430999463838
 31
0.0
 70
   160
 71
     5
 42
50.0
 73
     0
 74
     0
 75
     0
  3
ISO-25
100
AcDbAlignedDimension
 13
1398.749999999999
 23
1787.5
 33
0.0
 14
1398.749999999999
 24
1837.5
 34
0.0
 50
90.0
100
AcDbRotatedDimension
1001
ACAD
1000
DSTYLE
1002
{
1070
   279
1070
     2
1002
}
  0
DIMENSION
  5
34C
102
{ACAD_XDICTIONARY
360
359
102
}
102
{ACAD_REACTORS
330
363
102
}
330
67
100
AcDbEntity
  8
寸法
100
AcDbDimension
  2
*D4
 10
1398.749999999999
 20
1688.317423848663
 30
0.0
 11
1188.75
 21
1731.442423848663
 31
0.0
 70
    32
 71
     5
 42
419.9999999999997
 73
     0
 74
     0
 75
     0
  3
ISO-25
100
AcDbAlignedDimension
 13
978.7499999999999
 23
1787.5
 33
0.0
 14
1398.749999999999
 24
1787.5
 34
0.0
100
AcDbRotatedDimension
  0
DIMENSION
  5
395
330
67
100
AcDbEntity
  8
寸法
100
AcDbDimension
  2
*D5
 10
1403.749999999999
 20
1105.231152225293
 30
0.0
 11
1188.749999999999
 21
1148.356152225293
 31
0.0
 70
    32
 71
     5
 42
429.9999999999995
 73
     0
 74
     0
 75
     0
  3
ISO-25
100
AcDbAlignedDimension
 13
973.75
 23
1027.5
 33
0.0
 14
1403.749999999999
 24
1027.499999999999
 34
0.0
100
AcDbRotatedDimension
  0
DIMENSION
  5
398
330
67
100
AcDbEntity
  8
寸法
100
AcDbDimension
  2
*D6
 10
1510.95451629386
 20
597.5
 30
0.0
 11
1467.82951629386
 21
812.5000000000001
 31
0.0
 70
    32
 71
     5
 42
429.9999999999998
 73
     0
 74
     0
 75
     0
  3
ISO-25
100
AcDbAlignedDimension
 13
1403.75
 23
1027.5
 33
0.0
 14
1403.75
 24
597.5
 34
0.0
 50
90.0
100
AcDbRotatedDimension
  0
DIMENSION
  5
39E
330
67
100
AcDbEntity
  8
寸法
100
AcDbDimension
  2
*D7
 10
1398.749999999999
 20
263.3174238486631
 30
0.0
 11
1188.75
 21
306.4424238486631
 31
0.0
 70
    32
 71
     5
 42
419.9999999999997
 73
     0
 74
     0
 75
     0
  3
ISO-25
100
AcDbAlignedDimension
 13
978.7499999999999
 23
362.5000000000009
 33
0.0
 14
1398.749999999999
 24
362.5
 34
0.0
100
AcDbRotatedDimension
  0
DIMENSION
  5
3F9
330
67
100
AcDbEntity
  8
寸法
100
AcDbDimension
  2
*D8
 10
2407.500000000001
 20
2073.550807445597
 30
0.0
 11
2227.5
 21
2116.675807445597
 31
0.0
 70
    32
 71
     5
 42
360.0000000000004
 73
     0
 74
     0
 75
     0
  3
ISO-25
100
AcDbAlignedDimension
 13
2047.5
 23
2007.5
 33
0.0
 14
2407.500000000001
 24
2007.5
 34
0.0
100
AcDbRotatedDimension
  0
DIMENSION
  5
411
330
67
100
AcDbEntity
  8
寸法
100
AcDbDimension
  2
*D9
 10
2331.875000000001
 20
2007.5
 30
0.0
 11
2331.875000000001
 21
2236.133285453585
 31
0.0
 70
   160
 71
     5
 42
360.0000000000004
 73
     0
 74
     0
 75
     0
  3
ISO-25
100
AcDbAlignedDimension
 13
2407.5
 23
2367.500000000001
 33
0.0
 14
2407.500000000001
 24
2007.5
 34
0.0
 50
90.0
100
AcDbRotatedDimension
  0
DIMENSION
  5
454
330
67
100
AcDbEntity
  8
寸法
100
AcDbDimension
  2
*D10
 10
2507.5
 20
2511.133942115673
 30
0.0
 11
2227.5
 21
2554.258942115673
 31
0.0
 70
    32
 71
     5
 42
559.9999999999997
 73
     0
 74
     0
 75
     0
  3
ISO-25
100
AcDbAlignedDimension
 13
1947.5
 23
2458.500000000001
 33
0.0
 14
2507.5
 24
2458.500000000001
 34
0.0
100
AcDbRotatedDimension
  0
DIMENSION
  5
46C
330
67
100
AcDbEntity
  8
寸法
100
AcDbDimension
  2
*D11
 10
2595.169830853607
 20
1907.5
 30
0.0
 11
2552.044830853606
 21
2187.500000000001
 31
0.0
 70
    32
 71
     5
 42
560.0000000000004
 73
     0
 74
     0
 75
     0
  3
ISO-25
100
AcDbAlignedDimension
 13
2498.5
 23
2467.500000000001
 33
0.0
 14
2498.500000000001
 24
1907.5
 34
0.0
 50
90.0
100
AcDbRotatedDimension
  0
DIMENSION
  5
484
102
{ACAD_XDICTIONARY
360
493
102
}
102
{ACAD_REACTORS
330
49F
102
}
330
67
100
AcDbEntity
  8
寸法
100
AcDbDimension
  2
*D12
 10
1947.5
 20
1640.378327370962
 30
0.0
 11
1992.56802374535
 21
1687.5
 31
0.0
 70
   160
 71
     5
 42
60.0
 73
     0
 74
     0
 75
     0
  3
ISO-25
100
AcDbAlignedDimension
 13
2007.500000000001
 23
1587.5
 33
0.0
 14
1947.5
 24
1578.5
 34
0.0
100
AcDbRotatedDimension
1001
ACAD
1000
DSTYLE
1002
{
1070
   343
1005
5EA
1070
   173
1070
     1
1070
   344
1005
0
1070
   279
1070
     2
1002
}
  0
DIMENSION
  5
4A0
102
{ACAD_XDICTIONARY
360
4AF
102
}
102
{ACAD_REACTORS
330
4BB
102
}
330
67
100
AcDbEntity
  8
寸法
100
AcDbDimension
  2
*D13
 10
2507.5
 20
1640.378327370967
 30
0.0
 11
2462.5
 21
1687.500000000004
 31
0.0
 70
   160
 71
     5
 42
59.99999999999954
 73
     0
 74
     0
 75
     0
  3
ISO-25
100
AcDbAlignedDimension
 13
2447.500000000001
 23
1587.500000000004
 33
0.0
 14
2507.5
 24
1578.5
 34
0.0
100
AcDbRotatedDimension
1001
ACAD
1000
DSTYLE
1002
{
1070
   343
1005
5EA
1070
   173
1070
     1
1070
   344
1005
0
1070
   279
1070
     2
1002
}
  0
DIMENSION
  5
5B8
330
67
100
AcDbEntity
  8
寸法
100
AcDbDimension
  2
*D14
 10
2047.500000000001
 20
1640.378327370962
 30
0.0
 11
2117.081875063961
 21
1687.5
 31
0.0
 70
   160
 71
     5
 42
40.0
 73
     0
 74
     0
 75
     0
  3
ISO-25
100
AcDbAlignedDimension
 13
2007.500000000001
 23
1587.5
 33
0.0
 14
2047.500000000001
 24
1587.5
 34
0.0
100
AcDbRotatedDimension
1001
ACAD
1000
DSTYLE
1002
{
1070
   173
1070
     1
1070
   279
1070
     2
1070
   343
1005
5EA
1002
}
  0
DIMENSION
  5
604
330
67
100
AcDbEntity
  8
寸法
100
AcDbDimension
  2
*D16
 10
2407.500000000001
 20
1640.378327370967
 30
0.0
 11
2341.559577846847
 21
1687.500000000004
 31
0.0
 70
   160
 71
     5
 42
40.0
 73
     0
 74
     0
 75
     0
  3
ISO-25
100
AcDbAlignedDimension
 13
2447.500000000001
 23
1587.500000000004
 33
0.0
 14
2407.500000000001
 24
1587.500000000004
 34
0.0
100
AcDbRotatedDimension
1001
ACAD
1000
DSTYLE
1002
{
1070
   173
1070
     1
1070
   279
1070
     2
1070
   343
1005
5EA
1002
}
  0
DIMENSION
  5
65A
330
67
100
AcDbEntity
  8
寸法
100
AcDbDimension
  2
*D17
 10
2595.169830853607
 20
1587.5
 30
0.0
 11
2631.723598709312
 21
1638.853778365397
 31
0.0
 70
   160
 71
     5
 42
53.0
 73
     0
 74
     0
 75
     0
  3
ISO-25
100
AcDbAlignedDimension
 13
2507.5
 23
1534.5
 33
0.0
 14
2528.5
 24
1587.5
 34
0.0
 50
90.0
100
AcDbRotatedDimension
1001
ACAD
1000
DSTYLE
1002
{
1070
   173
1070
     1
1070
   279
1070
     2
1070
   343
1005
5EA
1002
}
  0
DIMENSION
  5
676
330
67
100
AcDbEntity
  8
寸法
100
AcDbDimension
  2
*D18
 10
2595.169830853607
 20
1487.5
 30
0.0
 11
2632.943612713036
 21
1437.5
 31
0.0
 70
   160
 71
     5
 42
47.0
 73
     0
 74
     0
 75
     0
  3
ISO-25
100
AcDbAlignedDimension
 13
2507.5
 23
1534.5
 33
0.0
 14
2537.5
 24
1487.5
 34
0.0
 50
90.0
100
AcDbRotatedDimension
1001
ACAD
1000
DSTYLE
1002
{
1070
   173
1070
     1
1070
   279
1070
     2
1070
   343
1005
5EA
1002
}
  0
DIMENSION
  5
6EA
330
67
100
AcDbEntity
  8
寸法
100
AcDbDimension
  2
*D19
 10
2675.360073493021
 20
1487.5
 30
0.0
 11
2709.545211239831
 21
1537.5
 31
0.0
 70
   160
 71
     5
 42
100.0
 73
     0
 74
     0
 75
     0
  3
ISO-25
100
AcDbAlignedDimension
 13
2498.5
 23
1587.5
 33
0.0
 14
2507.5
 24
1487.5
 34
0.0
 50
90.0
100
AcDbRotatedDimension
1001
ACAD
1000
DSTYLE
1002
{
1070
   279
1070
     2
1002
}
  0
DIMENSION
  5
70F
330
67
100
AcDbEntity
  8
寸法
100
AcDbDimension
  2
*D20
 10
3036.25
 20
2550.86780832195
 30
0.0
 11
2974.816875989929
 21
2583.090479539291
 31
0.0
 70
   160
 71
     5
 42
50.0
 73
     0
 74
     0
 75
     0
  3
ISO-25
100
AcDbAlignedDimension
 13
3086.25
 23
2417.5
 33
0.0
 14
3036.25
 24
2398.5
 34
0.0
100
AcDbRotatedDimension
1001
ACAD
1000
DSTYLE
1002
{
1070
   279
1070
     2
1002
}
  0
DIMENSION
  5
72B
330
67
100
AcDbEntity
  8
寸法
100
AcDbDimension
  2
*D21
 10
3496.25
 20
2550.86780832195
 30
0.0
 11
3561.872318871671
 21
2579.785587113234
 31
0.0
 70
   160
 71
     5
 42
50.0
 73
     0
 74
     0
 75
     0
  3
ISO-25
100
AcDbAlignedDimension
 13
3446.25
 23
2417.5
 33
0.0
 14
3496.25
 24
2398.5
 34
0.0
100
AcDbRotatedDimension
1001
ACAD
1000
DSTYLE
1002
{
1070
   279
1070
     2
1002
}
  0
DIMENSION
  5
747
330
67
100
AcDbEntity
  8
寸法
100
AcDbDimension
  2
*D22
 10
3446.25
 20
2550.86780832195
 30
0.0
 11
3266.25
 21
2593.992808321949
 31
0.0
 70
    32
 71
     5
 42
360.0
 73
     0
 74
     0
 75
     0
  3
ISO-25
100
AcDbAlignedDimension
 13
3086.25
 23
2417.5
 33
0.0
 14
3446.25
 24
2417.5
 34
0.0
100
AcDbRotatedDimension
  0
DIMENSION
  5
78D
330
67
100
AcDbEntity
  8
寸法
100
AcDbDimension
  2
*D23
 10
3599.550158566473
 20
2417.5
 30
0.0
 11
3568.420502454928
 21
2486.516757952984
 31
0.0
 70
   160
 71
     5
 42
50.0
 73
     0
 74
     0
 75
     0
  3
ISO-25
100
AcDbAlignedDimension
 13
3496.25
 23
2367.5
 33
0.0
 14
3477.25
 24
2417.5
 34
0.0
 50
90.0
100
AcDbRotatedDimension
1001
ACAD
1000
DSTYLE
1002
{
1070
   279
1070
     2
1002
}
  0
DIMENSION
  5
7A9
330
67
100
AcDbEntity
  8
寸法
100
AcDbDimension
  2
*D24
 10
3599.550158566473
 20
1957.5
 30
0.0
 11
3565.307528360771
 21
1901.753536879087
 31
0.0
 70
   160
 71
     5
 42
50.0
 73
     0
 74
     0
 75
     0
  3
ISO-25
100
AcDbAlignedDimension
 13
3496.25
 23
2007.5
 33
0.0
 14
3477.25
 24
1957.5
 34
0.0
 50
90.0
100
AcDbRotatedDimension
1001
ACAD
1000
DSTYLE
1002
{
1070
   279
1070
     2
1002
}
  0
DIMENSION
  5
7FE
330
67
100
AcDbEntity
  8
寸法
100
AcDbDimension
  2
*D25
 10
3599.550158566473
 20
2007.5
 30
0.0
 11
3556.425158566473
 21
2187.500000000001
 31
0.0
 70
    32
 71
     5
 42
360.0000000000002
 73
     0
 74
     0
 75
     0
  3
ISO-25
100
AcDbAlignedDimension
 13
3496.25
 23
2367.5
 33
0.0
 14
3496.25
 24
2007.5
 34
0.0
 50
90.0
100
AcDbRotatedDimension
1001
ACAD
1000
DSTYLE
1002
{
1070
   279
1070
     2
1002
}
  0
DIMENSION
  5
83A
330
67
100
AcDbEntity
  8
寸法
100
AcDbDimension
  2
*D26
 10
3496.25
 20
2635.142479652936
 30
0.0
 11
3266.25
 21
2678.267479652936
 31
0.0
 70
    32
 71
     5
 42
459.9999999999995
 73
     0
 74
     0
 75
     0
  3
ISO-25
100
AcDbAlignedDimension
 13
3036.25
 23
2398.5
 33
0.0
 14
3496.25
 24
2398.5
 34
0.0
100
AcDbRotatedDimension
  0
DIMENSION
  5
847
330
67
100
AcDbEntity
  8
寸法
100
AcDbDimension
  2
*D27
 10
3693.976784932494
 20
1957.5
 30
0.0
 11
3650.851784932494
 21
2187.500000000001
 31
0.0
 70
    32
 71
     5
 42
460.0
 73
     0
 74
     0
 75
     0
  3
ISO-25
100
AcDbAlignedDimension
 13
3477.25
 23
2417.5
 33
0.0
 14
3477.25
 24
1957.5
 34
0.0
 50
90.0
100
AcDbRotatedDimension
  0
DIMENSION
  5
958
330
67
100
AcDbEntity
  8
寸法
100
AcDbDimension
  2
*D28
 10
3599.550158566473
 20
1387.5
 30
0.0
 11
3556.425158566473
 21
1537.5
 31
0.0
 70
    32
 71
     5
 42
300.0
 73
     0
 74
     0
 75
     0
  3
ISO-25
100
AcDbAlignedDimension
 13
3496.25
 23
1687.5
 33
0.0
 14
3496.25
 24
1387.5
 34
0.0
 50
90.0
100
AcDbRotatedDimension
  0
DIMENSION
  5
970
102
{ACAD_XDICTIONARY
360
97D
102
}
102
{ACAD_REACTORS
330
987
102
}
330
67
100
AcDbEntity
  8
寸法
100
AcDbDimension
  2
*D29
 10
3599.550158566472
 20
937.5
 30
0.0
 11
3556.425158566472
 21
1012.5
 31
0.0
 70
    32
 71
     5
 42
149.9999999999996
 73
     0
 74
     0
 75
     0
  3
ISO-25
100
AcDbAlignedDimension
 13
3496.25
 23
1087.5
 33
0.0
 14
3496.25
 24
937.5
 34
0.0
 50
90.0
100
AcDbRotatedDimension
  0
DIMENSION
  5
9F9
330
67
100
AcDbEntity
  8
寸法
100
AcDbDimension
  2
*D30
 10
1510.95451629386
 20
412.4999999999999
 30
0.0
 11
1557.546786031716
 21
390.1880066040658
 31
0.0
 70
   160
 71
     5
 42
50.0
 73
     0
 74
     0
 75
     0
  3
ISO-25
100
AcDbAlignedDimension
 13
1398.749999999999
 23
362.5
 33
0.0
 14
1398.749999999999
 24
412.5
 34
0.0
 50
90.0
100
AcDbRotatedDimension
1001
ACAD
1000
DSTYLE
1002
{
1070
   279
1070
     2
1002
}
  0
TEXT
  5
CDA
330
67
100
AcDbEntity
  8
文字
100
AcDbText
 10
2159.276649746193
 20
2846.818145241389
 30
0.0
 40
35.0
  1
縁　塊
  7
文字
 72
     1
 11
2227.5
 21
2864.318145241389
 31
0.0
100
AcDbText
 73
     2
  0
TEXT
  5
CDB
330
67
100
AcDbEntity
  8
文字
100
AcDbText
 10
2068.312182741117
 20
2746.818145241388
 30
0.0
 40
35.0
  1
参考重量　36kg
  7
文字
 72
     1
 11
2227.5
 21
2764.318145241388
 31
0.0
100
AcDbText
 73
     2
  0
TEXT
  5
CDC
330
67
100
AcDbEntity
  8
文字
100
AcDbText
 10
3198.026649746193
 20
2846.818145241389
 30
0.0
 40
35.0
  1
側　塊
  7
文字
 72
     1
 11
3266.25
 21
2864.318145241389
 31
0.0
100
AcDbText
 73
     2
  0
TEXT
  5
CDD
330
67
100
AcDbEntity
  8
文字
100
AcDbText
 10
3107.062182741117
 20
1755.598257988959
 30
0.0
 40
35.0
  1
参考重量　58kg
  7
文字
 72
     1
 11
3266.25
 21
1773.098257988959
 31
0.0
100
AcDbText
 73
     2
  0
TEXT
  5
CE0
330
67
100
AcDbEntity
  8
文字
100
AcDbText
 10
3107.062182741117
 20
1165.877700836405
 30
0.0
 40
35.0
  1
参考重量　29kg
  7
文字
 72
     1
 11
3266.25
 21
1183.377700836405
 31
0.0
100
AcDbText
 73
     2
  0
LWPOLYLINE
  5
D38
330
67
100
AcDbEntity
  8
製品
100
AcDbPolyline
 90
        4
 70
     1
 43
0.0
 10
973.75
 20
2452.500000000001
 10
1403.75
 20
2452.500000000001
 10
1403.75
 20
2022.5
 10
973.75
 20
2022.5
  0
LWPOLYLINE
  5
D81
330
67
100
AcDbEntity
  8
製品
100
AcDbPolyline
 90
        4
 70
     1
 43
0.0
 10
978.7499999999999
 20
2447.5
 10
1398.749999999999
 20
2447.5
 10
1398.749999999999
 20
2027.5
 10
978.7499999999999
 20
2027.5
  0
LWPOLYLINE
  5
DCA
330
67
100
AcDbEntity
  8
製品
100
AcDbPolyline
 90
        4
 70
     1
 43
0.0
 10
973.75
 20
1027.5
 10
1403.75
 20
1027.5
 10
1403.75
 20
597.5
 10
973.75
 20
597.5
  0
LWPOLYLINE
  5
E30
330
67
100
AcDbEntity
  8
製品
100
AcDbPolyline
 90
        4
 70
     1
 43
0.0
 10
976.75
 20
1024.5
 10
1400.75
 20
1024.5
 10
1400.75
 20
600.4999999999999
 10
976.75
 20
600.4999999999999
  0
LINE
  5
E31
330
67
100
AcDbEntity
  8
製品
100
AcDbLine
 10
978.7499999999999
 20
2447.5
 30
0.0
 11
973.75
 21
2452.500000000001
 31
0.0
  0
LINE
  5
E32
330
67
100
AcDbEntity
  8
製品
100
AcDbLine
 10
1398.749999999999
 20
2447.5
 30
0.0
 11
1403.75
 21
2452.500000000001
 31
0.0
  0
LINE
  5
E33
330
67
100
AcDbEntity
  8
製品
100
AcDbLine
 10
1398.749999999999
 20
2027.5
 30
0.0
 11
1403.75
 21
2022.5
 31
0.0
  0
LINE
  5
E34
330
67
100
AcDbEntity
  8
製品
100
AcDbLine
 10
978.7499999999999
 20
2027.5
 30
0.0
 11
973.75
 21
2022.5
 31
0.0
  0
LINE
  5
E35
330
67
100
AcDbEntity
  8
製品
100
AcDbLine
 10
976.75
 20
1024.5
 30
0.0
 11
973.75
 21
1027.5
 31
0.0
  0
LINE
  5
E36
330
67
100
AcDbEntity
  8
製品
100
AcDbLine
 10
1400.75
 20
1024.5
 30
0.0
 11
1403.749999999999
 21
1027.499999999999
 31
0.0
  0
LINE
  5
E37
330
67
100
AcDbEntity
  8
製品
100
AcDbLine
 10
1400.75
 20
600.4999999999999
 30
0.0
 11
1403.75
 21
597.5000000000004
 31
0.0
  0
LINE
  5
E38
330
67
100
AcDbEntity
  8
製品
100
AcDbLine
 10
976.75
 20
600.4999999999999
 30
0.0
 11
973.75
 21
597.5
 31
0.0
  0
LWPOLYLINE
  5
E64
330
67
100
AcDbEntity
  8
製品
100
AcDbPolyline
 90
        8
 70
     1
 43
0.0
 10
1956.5
 20
2467.500000000001
 10
2498.5
 20
2467.500000000001
 10
2507.5
 20
2458.500000000001
 10
2507.5
 20
1916.5
 10
2498.5
 20
1907.5
 10
1956.5
 20
1907.5
 10
1947.5
 20
1916.5
 10
1947.5
 20
2458.500000000001
  0
LINE
  5
E66
330
67
100
AcDbEntity
  8
製品
100
AcDbLine
 10
1947.5
 20
2458.500000000001
 30
0.0
 11
2507.5
 21
2458.500000000001
 31
0.0
  0
LINE
  5
E68
330
67
100
AcDbEntity
  8
製品
100
AcDbLine
 10
2498.5
 20
2467.500000000001
 30
0.0
 11
2498.5
 21
1907.5
 31
0.0
  0
LINE
  5
E6A
330
67
100
AcDbEntity
  8
製品
100
AcDbLine
 10
2507.5
 20
1916.5
 30
0.0
 11
1947.5
 21
1916.5
 31
0.0
  0
LINE
  5
E6C
330
67
100
AcDbEntity
  8
製品
100
AcDbLine
 10
1956.5
 20
1907.5
 30
0.0
 11
1956.5
 21
2467.500000000001
 31
0.0
  0
LWPOLYLINE
  5
EA4
330
67
100
AcDbEntity
  8
製品
100
AcDbPolyline
 90
        4
 70
     1
 43
0.0
 10
2042.5
 20
2372.5
 10
2412.5
 20
2372.5
 10
2412.5
 20
2002.5
 10
2042.5
 20
2002.5
  0
LWPOLYLINE
  5
EDE
330
67
100
AcDbEntity
  8
製品
100
AcDbPolyline
 90
        4
 70
     1
 43
0.0
 10
2047.5
 20
2367.500000000001
 10
2407.5
 20
2367.500000000001
 10
2407.500000000001
 20
2007.5
 10
2047.5
 20
2007.5
  0
LWPOLYLINE
  5
F0C
330
67
100
AcDbEntity
  8
製品
100
AcDbPolyline
 90
        4
 70
     1
 43
0.0
 10
2012.5
 20
2402.500000000001
 10
2442.5
 20
2402.500000000001
 10
2442.500000000001
 20
1972.5
 10
2012.5
 20
1972.5
  0
LWPOLYLINE
  5
F0D
330
67
100
AcDbEntity
  8
製品
100
AcDbPolyline
 90
        4
 70
     1
 43
0.0
 10
2007.5
 20
2407.500000000001
 10
2447.5
 20
2407.500000000001
 10
2447.500000000001
 20
1967.5
 10
2007.5
 20
1967.5
  0
LWPOLYLINE
  5
102B
330
67
100
AcDbEntity
  8
製品
100
AcDbPolyline
 90
        8
 70
     1
 43
0.0
 10
3055.25
 20
2417.5
 10
3477.25
 20
2417.5
 10
3496.25
 20
2398.5
 10
3496.25
 20
1976.5
 10
3477.25
 20
1957.5
 10
3055.25
 20
1957.5
 10
3036.25
 20
1976.5
 10
3036.25
 20
2398.5
  0
LWPOLYLINE
  5
1032
330
67
100
AcDbEntity
  8
製品
100
AcDbPolyline
 90
        8
 70
     1
 43
0.0
 10
3114.25
 20
2367.5
 10
3418.25
 20
2367.5
 42
-0.4142135623730948
 10
3446.25
 20
2339.5
 10
3446.25
 20
2035.5
 42
-0.4142135623730956
 10
3418.25
 20
2007.5
 10
3114.25
 20
2007.5
 42
-0.4142135623730951
 10
3086.25
 20
2035.5
 10
3086.25
 20
2339.5
 42
-0.4142135623730951
  0
ARC
  5
1107
330
67
100
AcDbEntity
  8
製品
100
AcDbCircle
 10
1076.25
 20
2237.5
 30
0.0
 40
27.5
100
AcDbArc
 50
129.5211963586422
 51
230.4788036413577
  0
ARC
  5
110B
330
67
100
AcDbEntity
  8
製品
100
AcDbCircle
 10
1076.25
 20
2285.0
 30
0.0
 40
17.5
100
AcDbArc
 50
0.0
 51
180.0
  0
ARC
  5
110C
330
67
100
AcDbEntity
  8
製品
100
AcDbCircle
 10
1076.25
 20
2190.0
 30
0.0
 40
17.5
100
AcDbArc
 50
180.0
 51
0.0
  0
LINE
  5
110D
330
67
100
AcDbEntity
  8
製品
100
AcDbLine
 10
1058.75
 20
2285.0
 30
0.0
 11
1058.75
 21
2258.713203435597
 31
0.0
  0
LINE
  5
110E
330
67
100
AcDbEntity
  8
製品
100
AcDbLine
 10
1058.75
 20
2216.286796564403
 30
0.0
 11
1058.75
 21
2190.0
 31
0.0
  0
LINE
  5
110F
330
67
100
AcDbEntity
  8
製品
100
AcDbLine
 10
1093.75
 20
2285.0
 30
0.0
 11
1093.75
 21
2258.713203435597
 31
0.0
  0
LINE
  5
1110
330
67
100
AcDbEntity
  8
製品
100
AcDbLine
 10
1093.75
 20
2216.286796564403
 30
0.0
 11
1093.75
 21
2190.0
 31
0.0
  0
ARC
  5
1111
330
67
100
AcDbEntity
  8
製品
100
AcDbCircle
 10
1076.25
 20
2237.5
 30
0.0
 40
27.5
100
AcDbArc
 50
309.5211963586423
 51
50.47880364135771
  0
ARC
  5
1112
330
67
100
AcDbEntity
  8
製品
100
AcDbCircle
 10
1076.25
 20
2285.0
 30
0.0
 40
14.5
100
AcDbArc
 50
0.0
 51
180.0
  0
LINE
  5
1113
330
67
100
AcDbEntity
  8
製品
100
AcDbLine
 10
1061.75
 20
2285.0
 30
0.0
 11
1061.749999999999
 21
2257.248417658132
 31
0.0
  0
LINE
  5
1114
330
67
100
AcDbEntity
  8
製品
100
AcDbLine
 10
1090.75
 20
2285.0
 30
0.0
 11
1090.749999999999
 21
2257.248417658132
 31
0.0
  0
ARC
  5
1115
330
67
100
AcDbEntity
  8
製品
100
AcDbCircle
 10
1076.25
 20
2237.5
 30
0.0
 40
24.5
100
AcDbArc
 50
306.2874570851099
 51
53.71254291489012
  0
LINE
  5
1116
330
67
100
AcDbEntity
  8
製品
100
AcDbLine
 10
1090.749999999999
 20
2217.751582341868
 30
0.0
 11
1090.75
 21
2190.0
 31
0.0
  0
ARC
  5
1117
330
67
100
AcDbEntity
  8
製品
100
AcDbCircle
 10
1076.25
 20
2190.0
 30
0.0
 40
14.5
100
AcDbArc
 50
180.0
 51
0.0
  0
LINE
  5
1118
330
67
100
AcDbEntity
  8
製品
100
AcDbLine
 10
1061.749999999999
 20
2217.751582341868
 30
0.0
 11
1061.75
 21
2190.0
 31
0.0
  0
ARC
  5
1119
330
67
100
AcDbEntity
  8
製品
100
AcDbCircle
 10
1076.25
 20
2237.5
 30
0.0
 40
24.5
100
AcDbArc
 50
126.2874570851098
 51
233.7125429148901
  0
CIRCLE
  5
1122
330
67
100
AcDbEntity
  8
製品
100
AcDbCircle
 10
1076.25
 20
2287.0
 30
0.0
 40
6.5
  0
CIRCLE
  5
1123
330
67
100
AcDbEntity
  8
製品
100
AcDbCircle
 10
1076.25
 20
2188.0
 30
0.0
 40
6.5
  0
ARC
  5
1124
330
67
100
AcDbEntity
  8
製品
100
AcDbCircle
 10
1301.25
 20
2237.5
 30
0.0
 40
27.5
100
AcDbArc
 50
129.5211963586417
 51
230.4788036413583
  0
ARC
  5
1125
330
67
100
AcDbEntity
  8
製品
100
AcDbCircle
 10
1301.25
 20
2237.5
 30
0.0
 40
24.5
100
AcDbArc
 50
126.2874570851101
 51
233.7125429148898
  0
ARC
  5
1126
330
67
100
AcDbEntity
  8
製品
100
AcDbCircle
 10
1301.25
 20
2237.5
 30
0.0
 40
27.5
100
AcDbArc
 50
309.5211963586417
 51
50.47880364135827
  0
ARC
  5
1127
330
67
100
AcDbEntity
  8
製品
100
AcDbCircle
 10
1301.25
 20
2237.5
 30
0.0
 40
24.5
100
AcDbArc
 50
306.2874570851101
 51
53.71254291488987
  0
ARC
  5
1128
330
67
100
AcDbEntity
  8
製品
100
AcDbCircle
 10
1301.25
 20
2285.0
 30
0.0
 40
17.5
100
AcDbArc
 50
0.0
 51
180.0
  0
ARC
  5
1129
330
67
100
AcDbEntity
  8
製品
100
AcDbCircle
 10
1301.25
 20
2285.0
 30
0.0
 40
14.5
100
AcDbArc
 50
0.0
 51
180.0
  0
ARC
  5
112A
330
67
100
AcDbEntity
  8
製品
100
AcDbCircle
 10
1301.25
 20
2190.0
 30
0.0
 40
17.5
100
AcDbArc
 50
180.0
 51
0.0
  0
ARC
  5
112B
330
67
100
AcDbEntity
  8
製品
100
AcDbCircle
 10
1301.25
 20
2190.0
 30
0.0
 40
14.5
100
AcDbArc
 50
180.0
 51
0.0
  0
LINE
  5
112C
330
67
100
AcDbEntity
  8
製品
100
AcDbLine
 10
1283.75
 20
2285.0
 30
0.0
 11
1283.75
 21
2258.713203435597
 31
0.0
  0
LINE
  5
112D
330
67
100
AcDbEntity
  8
製品
100
AcDbLine
 10
1286.75
 20
2285.0
 30
0.0
 11
1286.749999999999
 21
2257.248417658132
 31
0.0
  0
LINE
  5
112E
330
67
100
AcDbEntity
  8
製品
100
AcDbLine
 10
1283.75
 20
2216.286796564403
 30
0.0
 11
1283.75
 21
2190.0
 31
0.0
  0
LINE
  5
112F
330
67
100
AcDbEntity
  8
製品
100
AcDbLine
 10
1286.749999999999
 20
2217.751582341868
 30
0.0
 11
1286.75
 21
2190.0
 31
0.0
  0
LINE
  5
1130
330
67
100
AcDbEntity
  8
製品
100
AcDbLine
 10
1318.75
 20
2285.0
 30
0.0
 11
1318.75
 21
2258.713203435597
 31
0.0
  0
LINE
  5
1131
330
67
100
AcDbEntity
  8
製品
100
AcDbLine
 10
1315.75
 20
2285.0
 30
0.0
 11
1315.749999999999
 21
2257.248417658132
 31
0.0
  0
LINE
  5
1132
330
67
100
AcDbEntity
  8
製品
100
AcDbLine
 10
1318.75
 20
2216.286796564403
 30
0.0
 11
1318.75
 21
2190.0
 31
0.0
  0
LINE
  5
1133
330
67
100
AcDbEntity
  8
製品
100
AcDbLine
 10
1315.749999999999
 20
2217.751582341868
 30
0.0
 11
1315.75
 21
2190.0
 31
0.0
  0
CIRCLE
  5
1134
330
67
100
AcDbEntity
  8
製品
100
AcDbCircle
 10
1301.25
 20
2287.0
 30
0.0
 40
6.5
  0
CIRCLE
  5
1135
330
67
100
AcDbEntity
  8
製品
100
AcDbCircle
 10
1301.25
 20
2188.0
 30
0.0
 40
6.5
  0
LINE
  5
113E
330
67
100
AcDbEntity
  8
製品
100
AcDbLine
 10
1048.75
 20
1837.5
 30
0.0
 11
1051.75
 21
1826.5
 31
0.0
  0
LINE
  5
113F
330
67
100
AcDbEntity
  8
製品
100
AcDbLine
 10
1051.75
 20
1826.5
 30
0.0
 11
1100.75
 21
1826.5
 31
0.0
  0
LINE
  5
1140
330
67
100
AcDbEntity
  8
製品
100
AcDbLine
 10
1100.75
 20
1826.5
 30
0.0
 11
1103.75
 21
1837.5
 31
0.0
  0
LINE
  5
1141
330
67
100
AcDbEntity
  8
製品
100
AcDbLine
 10
1093.75
 20
1837.5
 30
0.0
 11
1090.749999999999
 21
1826.5
 31
0.0
  0
LINE
  5
1142
330
67
100
AcDbEntity
  8
製品
100
AcDbLine
 10
1058.75
 20
1837.5
 30
0.0
 11
1061.749999999999
 21
1826.5
 31
0.0
  0
LINE
  5
1143
330
67
100
AcDbEntity
  8
製品
100
AcDbLine
 10
1273.749999999999
 20
1837.5
 30
0.0
 11
1276.75
 21
1826.5
 31
0.0
  0
LINE
  5
1144
330
67
100
AcDbEntity
  8
製品
100
AcDbLine
 10
1276.75
 20
1826.5
 30
0.0
 11
1325.75
 21
1826.5
 31
0.0
  0
LINE
  5
1145
330
67
100
AcDbEntity
  8
製品
100
AcDbLine
 10
1325.75
 20
1826.5
 30
0.0
 11
1328.75
 21
1837.5
 31
0.0
  0
LINE
  5
1146
330
67
100
AcDbEntity
  8
製品
100
AcDbLine
 10
1318.75
 20
1837.5
 30
0.0
 11
1315.749999999999
 21
1826.5
 31
0.0
  0
LINE
  5
1147
330
67
100
AcDbEntity
  8
製品
100
AcDbLine
 10
1283.75
 20
1837.5
 30
0.0
 11
1286.749999999999
 21
1826.5
 31
0.0
  0
LINE
  5
1150
330
67
100
AcDbEntity
  8
製品
100
AcDbLine
 10
1058.75
 20
412.5
 30
0.0
 11
1061.75
 21
409.4999999999999
 31
0.0
  0
LINE
  5
1151
330
67
100
AcDbEntity
  8
製品
100
AcDbLine
 10
1061.75
 20
409.4999999999999
 30
0.0
 11
1073.75
 21
362.5
 31
0.0
  0
LINE
  5
1152
330
67
100
AcDbEntity
  8
製品
100
AcDbLine
 10
1103.75
 20
412.5
 30
0.0
 11
1100.75
 21
409.4999999999999
 31
0.0
  0
LINE
  5
1153
330
67
100
AcDbEntity
  8
製品
100
AcDbLine
 10
1100.75
 20
409.4999999999999
 30
0.0
 11
1088.75
 21
362.5
 31
0.0
  0
LINE
  5
1154
330
67
100
AcDbEntity
  8
製品
100
AcDbLine
 10
1273.749999999999
 20
412.5
 30
0.0
 11
1276.75
 21
409.4999999999999
 31
0.0
  0
LINE
  5
1155
330
67
100
AcDbEntity
  8
製品
100
AcDbLine
 10
1276.75
 20
409.4999999999999
 30
0.0
 11
1288.75
 21
362.5
 31
0.0
  0
LINE
  5
1156
330
67
100
AcDbEntity
  8
製品
100
AcDbLine
 10
1318.75
 20
412.5
 30
0.0
 11
1315.75
 21
409.4999999999999
 31
0.0
  0
LINE
  5
1157
330
67
100
AcDbEntity
  8
製品
100
AcDbLine
 10
1315.75
 20
409.4999999999999
 30
0.0
 11
1303.75
 21
362.5
 31
0.0
  0
ARC
  5
115F
330
67
100
AcDbEntity
  8
製品1
100
AcDbCircle
 10
1081.25
 20
865.0
 30
0.0
 40
7.5
100
AcDbArc
 50
0.0
 51
180.0
  0
ARC
  5
1160
330
67
100
AcDbEntity
  8
製品1
100
AcDbCircle
 10
1081.25
 20
760.0
 30
0.0
 40
7.5
100
AcDbArc
 50
180.0
 51
0.0
  0
LINE
  5
1161
330
67
100
AcDbEntity
  8
製品1
100
AcDbLine
 10
1073.75
 20
865.0
 30
0.0
 11
1073.75
 21
760.0
 31
0.0
  0
LINE
  5
1162
330
67
100
AcDbEntity
  8
製品1
100
AcDbLine
 10
1088.75
 20
865.0
 30
0.0
 11
1088.75
 21
760.0
 31
0.0
  0
ARC
  5
1166
330
67
100
AcDbEntity
  8
製品
100
AcDbCircle
 10
1081.25
 20
860.0
 30
0.0
 40
22.5
100
AcDbArc
 50
0.0
 51
180.0
  0
ARC
  5
1167
330
67
100
AcDbEntity
  8
製品
100
AcDbCircle
 10
1081.25
 20
765.0
 30
0.0
 40
22.5
100
AcDbArc
 50
180.0
 51
0.0
  0
ARC
  5
1168
330
67
100
AcDbEntity
  8
製品
100
AcDbCircle
 10
1081.25
 20
860.0
 30
0.0
 40
19.5
100
AcDbArc
 50
0.0
 51
180.0
  0
ARC
  5
1169
330
67
100
AcDbEntity
  8
製品
100
AcDbCircle
 10
1081.25
 20
765.0
 30
0.0
 40
19.5
100
AcDbArc
 50
180.0
 51
0.0
  0
LINE
  5
116A
330
67
100
AcDbEntity
  8
製品
100
AcDbLine
 10
1058.75
 20
860.0
 30
0.0
 11
1058.75
 21
765.0
 31
0.0
  0
LINE
  5
116B
330
67
100
AcDbEntity
  8
製品
100
AcDbLine
 10
1061.75
 20
860.0
 30
0.0
 11
1061.75
 21
765.0
 31
0.0
  0
LINE
  5
116C
330
67
100
AcDbEntity
  8
製品
100
AcDbLine
 10
1100.75
 20
860.0
 30
0.0
 11
1100.75
 21
765.0
 31
0.0
  0
LINE
  5
116D
330
67
100
AcDbEntity
  8
製品
100
AcDbLine
 10
1103.75
 20
860.0
 30
0.0
 11
1103.75
 21
765.0
 31
0.0
  0
ARC
  5
116E
330
67
100
AcDbEntity
  8
製品1
100
AcDbCircle
 10
1296.25
 20
865.0
 30
0.0
 40
7.5
100
AcDbArc
 50
0.0
 51
180.0
  0
ARC
  5
116F
330
67
100
AcDbEntity
  8
製品1
100
AcDbCircle
 10
1296.25
 20
760.0
 30
0.0
 40
7.5
100
AcDbArc
 50
180.0
 51
0.0
  0
LINE
  5
1170
330
67
100
AcDbEntity
  8
製品1
100
AcDbLine
 10
1288.75
 20
865.0
 30
0.0
 11
1288.75
 21
760.0
 31
0.0
  0
LINE
  5
1171
330
67
100
AcDbEntity
  8
製品1
100
AcDbLine
 10
1303.75
 20
865.0
 30
0.0
 11
1303.75
 21
760.0
 31
0.0
  0
ARC
  5
1172
330
67
100
AcDbEntity
  8
製品
100
AcDbCircle
 10
1296.25
 20
860.0
 30
0.0
 40
22.5
100
AcDbArc
 50
0.0
 51
180.0
  0
ARC
  5
1173
330
67
100
AcDbEntity
  8
製品
100
AcDbCircle
 10
1296.25
 20
860.0
 30
0.0
 40
19.5
100
AcDbArc
 50
0.0
 51
180.0
  0
ARC
  5
1174
330
67
100
AcDbEntity
  8
製品
100
AcDbCircle
 10
1296.25
 20
765.0
 30
0.0
 40
22.5
100
AcDbArc
 50
180.0
 51
0.0
  0
ARC
  5
1175
330
67
100
AcDbEntity
  8
製品
100
AcDbCircle
 10
1296.25
 20
765.0
 30
0.0
 40
19.5
100
AcDbArc
 50
180.0
 51
0.0
  0
LINE
  5
1176
330
67
100
AcDbEntity
  8
製品
100
AcDbLine
 10
1273.749999999999
 20
860.0
 30
0.0
 11
1273.749999999999
 21
765.0
 31
0.0
  0
LINE
  5
1177
330
67
100
AcDbEntity
  8
製品
100
AcDbLine
 10
1276.75
 20
860.0
 30
0.0
 11
1276.75
 21
765.0
 31
0.0
  0
LINE
  5
1178
330
67
100
AcDbEntity
  8
製品
100
AcDbLine
 10
1315.75
 20
860.0
 30
0.0
 11
1315.75
 21
765.0
 31
0.0
  0
LINE
  5
1179
330
67
100
AcDbEntity
  8
製品
100
AcDbLine
 10
1318.75
 20
860.0
 30
0.0
 11
1318.75
 21
765.0
 31
0.0
  0
LINE
  5
11EB
330
67
100
AcDbEntity
  8
鉄筋
100
AcDbLine
 10
993.75
 20
990.0
 30
0.0
 11
1383.75
 21
990.0
 31
0.0
  0
LINE
  5
11EC
330
67
100
AcDbEntity
  8
鉄筋
100
AcDbLine
 10
993.75
 20
900.0
 30
0.0
 11
1383.75
 21
900.0
 31
0.0
  0
LINE
  5
11ED
330
67
100
AcDbEntity
  8
鉄筋
100
AcDbLine
 10
993.75
 20
725.0
 30
0.0
 11
1383.75
 21
725.0
 31
0.0
  0
LINE
  5
11EE
330
67
100
AcDbEntity
  8
鉄筋
100
AcDbLine
 10
993.75
 20
635.0
 30
0.0
 11
1383.75
 21
635.0
 31
0.0
  0
LINE
  5
11EF
330
67
100
AcDbEntity
  8
鉄筋
100
AcDbLine
 10
1008.75
 20
1005.0
 30
0.0
 11
1008.75
 21
620.0
 31
0.0
  0
LINE
  5
11F0
330
67
100
AcDbEntity
  8
鉄筋
100
AcDbLine
 10
1128.75
 20
1005.0
 30
0.0
 11
1128.75
 21
620.0
 31
0.0
  0
LINE
  5
11F1
330
67
100
AcDbEntity
  8
鉄筋
100
AcDbLine
 10
1248.75
 20
1005.0
 30
0.0
 11
1248.75
 21
620.0
 31
0.0
  0
LINE
  5
11F2
330
67
100
AcDbEntity
  8
鉄筋
100
AcDbLine
 10
1368.75
 20
1005.0
 30
0.0
 11
1368.75
 21
620.0
 31
0.0
  0
LINE
  5
11F3
330
67
100
AcDbEntity
  8
鉄筋
100
AcDbLine
 10
993.75
 20
2415.0
 30
0.0
 11
1383.75
 21
2415.0
 31
0.0
  0
LINE
  5
11F4
330
67
100
AcDbEntity
  8
鉄筋
100
AcDbLine
 10
993.75
 20
2325.0
 30
0.0
 11
1383.75
 21
2325.0
 31
0.0
  0
LINE
  5
11F5
330
67
100
AcDbEntity
  8
鉄筋
100
AcDbLine
 10
993.75
 20
2150.0
 30
0.0
 11
1383.75
 21
2150.0
 31
0.0
  0
LINE
  5
11F6
330
67
100
AcDbEntity
  8
鉄筋
100
AcDbLine
 10
993.75
 20
2060.0
 30
0.0
 11
1383.75
 21
2060.0
 31
0.0
  0
LINE
  5
11F7
330
67
100
AcDbEntity
  8
鉄筋
100
AcDbLine
 10
1008.75
 20
2430.0
 30
0.0
 11
1008.75
 21
2045.0
 31
0.0
  0
LINE
  5
11F8
330
67
100
AcDbEntity
  8
鉄筋
100
AcDbLine
 10
1128.75
 20
2430.0
 30
0.0
 11
1128.75
 21
2045.0
 31
0.0
  0
LINE
  5
11F9
330
67
100
AcDbEntity
  8
鉄筋
100
AcDbLine
 10
1248.75
 20
2430.0
 30
0.0
 11
1248.75
 21
2045.0
 31
0.0
  0
LINE
  5
11FA
330
67
100
AcDbEntity
  8
鉄筋
100
AcDbLine
 10
1368.75
 20
2430.0
 30
0.0
 11
1368.75
 21
2045.0
 31
0.0
  0
LINE
  5
1206
330
67
100
AcDbEntity
  8
鉄筋
100
AcDbLine
 10
993.75
 20
1802.5
 30
0.0
 11
1383.75
 21
1802.5
 31
0.0
  0
CIRCLE
  5
1207
330
67
100
AcDbEntity
  8
鉄筋2
100
AcDbCircle
 10
1368.75
 20
1804.5
 30
0.0
 40
2.0
  0
CIRCLE
  5
1208
330
67
100
AcDbEntity
  8
鉄筋2
100
AcDbCircle
 10
1248.75
 20
1804.5
 30
0.0
 40
2.0
  0
CIRCLE
  5
1209
330
67
100
AcDbEntity
  8
鉄筋2
100
AcDbCircle
 10
1128.75
 20
1804.5
 30
0.0
 40
2.0
  0
CIRCLE
  5
120A
330
67
100
AcDbEntity
  8
鉄筋2
100
AcDbCircle
 10
1008.75
 20
1804.5
 30
0.0
 40
2.0
  0
LINE
  5
120B
330
67
100
AcDbEntity
  8
鉄筋
100
AcDbLine
 10
993.7500000000001
 20
377.5
 30
0.0
 11
1383.75
 21
377.5
 31
0.0
  0
CIRCLE
  5
120C
330
67
100
AcDbEntity
  8
鉄筋2
100
AcDbCircle
 10
1368.75
 20
379.5
 30
0.0
 40
2.0
  0
CIRCLE
  5
120D
330
67
100
AcDbEntity
  8
鉄筋2
100
AcDbCircle
 10
1248.75
 20
379.5
 30
0.0
 40
2.0
  0
CIRCLE
  5
120E
330
67
100
AcDbEntity
  8
鉄筋2
100
AcDbCircle
 10
1128.75
 20
379.5
 30
0.0
 40
2.0
  0
CIRCLE
  5
120F
330
67
100
AcDbEntity
  8
鉄筋2
100
AcDbCircle
 10
1008.75
 20
379.5
 30
0.0
 40
2.0
  0
LINE
  5
1241
330
67
100
AcDbEntity
  8
鉄筋
100
AcDbLine
 10
2422.5
 20
1502.5
 30
0.0
 11
2422.5
 21
1519.500000000005
 31
0.0
  0
LINE
  5
1242
330
67
100
AcDbEntity
  8
鉄筋
100
AcDbLine
 10
2422.5
 20
1519.500000000005
 30
0.0
 11
2462.5
 21
1519.500000000005
 31
0.0
  0
LINE
  5
1243
330
67
100
AcDbEntity
  8
鉄筋
100
AcDbLine
 10
2462.5
 20
1519.500000000005
 30
0.0
 11
2462.5
 21
1572.5
 31
0.0
  0
LINE
  5
1244
330
67
100
AcDbEntity
  8
鉄筋
100
AcDbLine
 10
2462.5
 20
1572.5
 30
0.0
 11
2492.5
 21
1572.5
 31
0.0
  0
LINE
  5
1245
330
67
100
AcDbEntity
  8
鉄筋
100
AcDbLine
 10
2492.5
 20
1572.5
 30
0.0
 11
2492.5
 21
1502.5
 31
0.0
  0
LINE
  5
1246
330
67
100
AcDbEntity
  8
鉄筋
100
AcDbLine
 10
2492.5
 20
1502.5
 30
0.0
 11
2422.5
 21
1502.5
 31
0.0
  0
LINE
  5
1247
330
67
100
AcDbEntity
  8
鉄筋
100
AcDbLine
 10
1962.5
 20
1502.5
 30
0.0
 11
1962.5
 21
1572.5
 31
0.0
  0
LINE
  5
1248
330
67
100
AcDbEntity
  8
鉄筋
100
AcDbLine
 10
1962.5
 20
1572.5
 30
0.0
 11
1992.5
 21
1572.5
 31
0.0
  0
LINE
  5
1249
330
67
100
AcDbEntity
  8
鉄筋
100
AcDbLine
 10
1992.5
 20
1572.5
 30
0.0
 11
1992.5
 21
1519.500000000004
 31
0.0
  0
LINE
  5
124A
330
67
100
AcDbEntity
  8
鉄筋
100
AcDbLine
 10
1992.5
 20
1519.500000000004
 30
0.0
 11
2032.5
 21
1519.500000000004
 31
0.0
  0
LINE
  5
124B
330
67
100
AcDbEntity
  8
鉄筋
100
AcDbLine
 10
2032.5
 20
1519.500000000004
 30
0.0
 11
2032.5
 21
1502.5
 31
0.0
  0
LINE
  5
124C
330
67
100
AcDbEntity
  8
鉄筋
100
AcDbLine
 10
2032.5
 20
1502.5
 30
0.0
 11
1962.5
 21
1502.5
 31
0.0
  0
CIRCLE
  5
125D
330
67
100
AcDbEntity
  8
鉄筋2
100
AcDbCircle
 10
1964.5
 20
1570.5
 30
0.0
 40
2.0
  0
CIRCLE
  5
125E
330
67
100
AcDbEntity
  8
鉄筋2
100
AcDbCircle
 10
1990.5
 20
1570.5
 30
0.0
 40
2.0
  0
CIRCLE
  5
125F
330
67
100
AcDbEntity
  8
鉄筋2
100
AcDbCircle
 10
1964.5
 20
1504.5
 30
0.0
 40
2.0
  0
CIRCLE
  5
1260
330
67
100
AcDbEntity
  8
鉄筋2
100
AcDbCircle
 10
2030.5
 20
1504.5
 30
0.0
 40
2.0
  0
CIRCLE
  5
1261
330
67
100
AcDbEntity
  8
鉄筋2
100
AcDbCircle
 10
2030.5
 20
1517.500000000004
 30
0.0
 40
2.0
  0
CIRCLE
  5
1266
330
67
100
AcDbEntity
  8
鉄筋2
100
AcDbCircle
 10
2424.5
 20
1517.500000000004
 30
0.0
 40
2.0
  0
CIRCLE
  5
1267
330
67
100
AcDbEntity
  8
鉄筋2
100
AcDbCircle
 10
2424.5
 20
1504.5
 30
0.0
 40
2.0
  0
CIRCLE
  5
1268
330
67
100
AcDbEntity
  8
鉄筋2
100
AcDbCircle
 10
2490.5
 20
1504.5
 30
0.0
 40
2.0
  0
CIRCLE
  5
1269
330
67
100
AcDbEntity
  8
鉄筋2
100
AcDbCircle
 10
2490.5
 20
1570.5
 30
0.0
 40
2.0
  0
CIRCLE
  5
126A
330
67
100
AcDbEntity
  8
鉄筋2
100
AcDbCircle
 10
2464.5
 20
1570.5
 30
0.0
 40
2.0
  0
LWPOLYLINE
  5
126B
102
{ACAD_REACTORS
330
13A8
102
}
330
67
100
AcDbEntity
  8
鉄筋
100
AcDbPolyline
 90
        4
 70
     1
 43
0.0
 10
1962.5
 20
2452.500000000001
 10
2492.5
 20
2452.500000000001
 10
2492.5
 20
1922.5
 10
1962.5
 20
1922.5
  0
LWPOLYLINE
  5
126C
330
67
100
AcDbEntity
  8
鉄筋
100
AcDbPolyline
 90
        4
 70
     1
 43
0.0
 10
1992.5
 20
2422.500000000001
 10
2462.5
 20
2422.500000000001
 10
2462.5
 20
1952.5
 10
1992.5
 20
1952.5
  0
LWPOLYLINE
  5
126D
330
67
100
AcDbEntity
  8
鉄筋
100
AcDbPolyline
 90
        4
 70
     1
 43
0.0
 10
2032.5
 20
2382.500000000001
 10
2422.5
 20
2382.500000000001
 10
2422.500000000001
 20
1992.5
 10
2032.5
 20
1992.5
  0
LINE
  5
1274
330
67
100
AcDbEntity
  8
鉄筋
100
AcDbLine
 10
1962.5
 20
2275.0
 30
0.0
 11
2032.5
 21
2275.0
 31
0.0
  0
LINE
  5
1275
330
67
100
AcDbEntity
  8
鉄筋
100
AcDbLine
 10
1962.5
 20
2100.0
 30
0.0
 11
2032.5
 21
2100.0
 31
0.0
  0
LINE
  5
1276
330
67
100
AcDbEntity
  8
鉄筋
100
AcDbLine
 10
2422.5
 20
2275.0
 30
0.0
 11
2492.5
 21
2275.0
 31
0.0
  0
LINE
  5
1277
330
67
100
AcDbEntity
  8
鉄筋
100
AcDbLine
 10
2422.5
 20
2100.0
 30
0.0
 11
2492.5
 21
2100.0
 31
0.0
  0
LINE
  5
1278
330
67
100
AcDbEntity
  8
鉄筋
100
AcDbLine
 10
2140.0
 20
2452.500000000001
 30
0.0
 11
2140.0
 21
2382.500000000001
 31
0.0
  0
LINE
  5
1279
330
67
100
AcDbEntity
  8
鉄筋
100
AcDbLine
 10
2315.0
 20
2452.500000000001
 30
0.0
 11
2315.0
 21
2382.500000000001
 31
0.0
  0
LINE
  5
127A
102
{ACAD_REACTORS
330
13A0
102
}
330
67
100
AcDbEntity
  8
鉄筋
100
AcDbLine
 10
2140.0
 20
1992.620616574908
 30
0.0
 11
2140.0
 21
1922.620616574908
 31
0.0
  0
LINE
  5
127B
102
{ACAD_REACTORS
330
13A3
102
}
330
67
100
AcDbEntity
  8
鉄筋
100
AcDbLine
 10
2315.0
 20
1992.620616574908
 30
0.0
 11
2315.0
 21
1922.620616574908
 31
0.0
  0
LWPOLYLINE
  5
128A
330
67
100
AcDbEntity
  8
鉄筋
100
AcDbPolyline
 90
        4
 70
     1
 43
0.0
 10
3061.25
 20
2392.5
 10
3471.25
 20
2392.5
 10
3471.25
 20
1982.5
 10
3061.25
 20
1982.5
  0
LINE
  5
1297
102
{ACAD_REACTORS
330
13AB
102
}
330
67
100
AcDbEntity
  8
鉄筋
100
AcDbLine
 10
3061.25
 20
1672.5
 30
0.0
 11
3061.25
 21
1402.5
 31
0.0
  0
LINE
  5
1298
102
{ACAD_REACTORS
330
13B1
102
}
330
67
100
AcDbEntity
  8
鉄筋
100
AcDbLine
 10
3471.250000000001
 20
1672.5
 30
0.0
 11
3471.250000000001
 21
1402.5
 31
0.0
  0
LINE
  5
1299
330
67
100
AcDbEntity
  8
鉄筋
100
AcDbLine
 10
3061.25
 20
1072.5
 30
0.0
 11
3061.25
 21
952.5000000000002
 31
0.0
  0
LINE
  5
129A
330
67
100
AcDbEntity
  8
鉄筋
100
AcDbLine
 10
3471.250000000001
 20
1072.5
 30
0.0
 11
3471.250000000001
 21
952.5
 31
0.0
  0
CIRCLE
  5
129D
102
{ACAD_REACTORS
330
13DE
102
}
330
67
100
AcDbEntity
  8
鉄筋2
100
AcDbCircle
 10
3059.250385913825
 20
1657.555562232442
 30
0.0
 40
2.0
  0
CIRCLE
  5
129E
102
{ACAD_REACTORS
330
13B4
102
}
330
67
100
AcDbEntity
  8
鉄筋2
100
AcDbCircle
 10
3059.250385913825
 20
1537.55724291339
 30
0.0
 40
2.0
  0
CIRCLE
  5
129F
102
{ACAD_REACTORS
330
13B7
102
}
330
67
100
AcDbEntity
  8
鉄筋2
100
AcDbCircle
 10
3059.250385913825
 20
1417.555562232442
 30
0.0
 40
2.0
  0
CIRCLE
  5
12A0
330
67
100
AcDbEntity
  8
鉄筋2
100
AcDbCircle
 10
3473.249999990728
 20
1537.499727635987
 30
0.0
 40
2.0
  0
CIRCLE
  5
12A1
330
67
100
AcDbEntity
  8
鉄筋2
100
AcDbCircle
 10
3473.249999990728
 20
1657.499727635987
 30
0.0
 40
2.0
  0
CIRCLE
  5
12A2
330
67
100
AcDbEntity
  8
鉄筋2
100
AcDbCircle
 10
3473.249999990728
 20
1417.499727635987
 30
0.0
 40
2.0
  0
CIRCLE
  5
12A3
330
67
100
AcDbEntity
  8
鉄筋2
100
AcDbCircle
 10
3473.250000000001
 20
1057.5
 30
0.0
 40
2.0
  0
CIRCLE
  5
12A4
330
67
100
AcDbEntity
  8
鉄筋2
100
AcDbCircle
 10
3473.250000000001
 20
967.5
 30
0.0
 40
2.0
  0
CIRCLE
  5
12A5
102
{ACAD_REACTORS
330
13E1
102
}
330
67
100
AcDbEntity
  8
鉄筋2
100
AcDbCircle
 10
3059.25
 20
967.5000000000002
 30
0.0
 40
2.0
  0
CIRCLE
  5
12A6
330
67
100
AcDbEntity
  8
鉄筋2
100
AcDbCircle
 10
3059.25
 20
1057.5
 30
0.0
 40
2.0
  0
CIRCLE
  5
12A7
330
67
100
AcDbEntity
  8
鉄筋2
100
AcDbCircle
 10
3063.25
 20
2390.5
 30
0.0
 40
2.0
  0
CIRCLE
  5
12A8
330
67
100
AcDbEntity
  8
鉄筋2
100
AcDbCircle
 10
3063.25
 20
2187.5
 30
0.0
 40
2.0
  0
CIRCLE
  5
12A9
330
67
100
AcDbEntity
  8
鉄筋2
100
AcDbCircle
 10
3063.25
 20
1984.5
 30
0.0
 40
2.0
  0
CIRCLE
  5
12AA
330
67
100
AcDbEntity
  8
鉄筋2
100
AcDbCircle
 10
3266.25
 20
1984.5
 30
0.0
 40
2.0
  0
CIRCLE
  5
12AB
330
67
100
AcDbEntity
  8
鉄筋2
100
AcDbCircle
 10
3469.250000000001
 20
1984.5
 30
0.0
 40
2.0
  0
CIRCLE
  5
12AC
330
67
100
AcDbEntity
  8
鉄筋2
100
AcDbCircle
 10
3469.250000000001
 20
2187.5
 30
0.0
 40
2.0
  0
CIRCLE
  5
12AD
330
67
100
AcDbEntity
  8
鉄筋2
100
AcDbCircle
 10
3469.25
 20
2390.5
 30
0.0
 40
2.0
  0
CIRCLE
  5
12AE
330
67
100
AcDbEntity
  8
鉄筋2
100
AcDbCircle
 10
3266.25
 20
2390.5
 30
0.0
 40
2.0
  0
MTEXT
  5
1317
330
67
100
AcDbEntity
  8
寸法
100
AcDbMText
 10
1210.5
 20
2090.0
 30
0.0
 40
30.0
 41
0.0
 46
0.0
 71
     1
 72
     5
  1

 73
     1
 44
1.0
  0
LWPOLYLINE
  5
1319
102
{ACAD_REACTORS
330
1329
102
}
330
67
100
AcDbEntity
  8
寸法
  6
ByBlock
370
    -2
100
AcDbPolyline
 90
        2
 70
     0
 43
0.0
 10
1188.75
 20
695.0
 10
1188.75
 20
635.0
  0
SOLID
  5
131A
330
67
100
AcDbEntity
  8
寸法
100
AcDbTrace
 10
1183.75
 20
695.0
 30
0.0
 11
1188.75
 21
725.0
 31
0.0
 12
1193.75
 22
695.0
 32
0.0
 13
1193.75
 23
695.0
 33
0.0
  0
MTEXT
  5
131C
330
67
100
AcDbEntity
  8
寸法
100
AcDbMText
 10
1167.0
 20
2180.0
 30
0.0
 40
30.0
 41
0.0
 46
0.0
 71
     3
 72
     5
  1

 73
     1
 44
1.0
  0
LWPOLYLINE
  5
131E
330
67
100
AcDbEntity
  8
寸法
  6
ByBlock
370
    -2
100
AcDbPolyline
 90
        2
 70
     0
 43
0.0
 10
1188.75
 20
870.0
 10
1188.75
 20
725.0
  0
SOLID
  5
131F
330
67
100
AcDbEntity
  8
寸法
100
AcDbTrace
 10
1183.75
 20
870.0
 30
0.0
 11
1188.75
 21
900.0
 31
0.0
 12
1193.75
 22
870.0
 32
0.0
 13
1193.75
 23
870.0
 33
0.0
  0
MTEXT
  5
1321
330
67
100
AcDbEntity
  8
寸法
100
AcDbMText
 10
1210.5
 20
2355.0
 30
0.0
 40
30.0
 41
0.0
 46
0.0
 71
     1
 72
     5
  1

 73
     1
 44
1.0
  0
LWPOLYLINE
  5
1323
330
67
100
AcDbEntity
  8
寸法
  6
ByBlock
370
    -2
100
AcDbPolyline
 90
        2
 70
     0
 43
0.0
 10
1188.75
 20
960.0
 10
1188.75
 20
900.0
  0
SOLID
  5
1324
330
67
100
AcDbEntity
  8
寸法
100
AcDbTrace
 10
1183.75
 20
960.0
 30
0.0
 11
1188.75
 21
990.0
 31
0.0
 12
1193.75
 22
960.0
 32
0.0
 13
1193.75
 23
960.0
 33
0.0
  0
MULTILEADER
  5
1326
102
{ACAD_XDICTIONARY
360
1328
102
}
102
{ACAD_REACTORS
330
1329
102
}
330
67
100
AcDbEntity
  8
寸法
 92
      696
310
B8020000180000000C00000016000000000000C00C00000033000000000000000C00000013000000993A0000C4000000260000002FBAE8A28BC6924011145D7F7AC08040000000000000000000000000000000000000000000000000000000000000F03F000000000000F03F00000000000000000000000000000000C60334
310
002D0034002C67000005000000010000000000000000003E40000000000000F03F0000000000000000000000000000F03F0000000000000000000000000000000000000000000000000000000001000000320000002DFF33FF200030FFB430B730C330AF300000460000000000000031320C00000033000000000000000C00
310
000010000000050000000C00000016000000000000C00C00000012000000FF7F00000C00000013000000010000000C000000140000000100000054000000070000000300000000000000007F92400000000000E88240000000000000000000000000009392400000000000D8834000000000000000000000000000A7924000
310
00000000E8824000000000000000000C00000013000000891300003C000000060000000200000000000000009392400000000000E882400000000000000000000000000093924040CE452206B8804000000000000000000C00000013000000112700003C0000000600000002000000000000000093924040CE452206B88040
310
00000000000000009A99999999A8924040CE452206B8804000000000000000000C00000016000000000000C00C00000012000000FF7F00000C00000017000000000000000C000000130000009A3A00003C00000006000000020000009A99999999A8924040CE452206B8804000000000000000005E74D1459720954040CE45
310
2206B8804000000000000000000C00000016000000000000C00C00000012000000FF7F00000C00000017000000FFFFFFFF0C0000003300000000000000
100
AcDbMLeader
300
CONTEXT_DATA{
 40
15.0
 10
1194.15
 20
535.0029950574462
 30
0.0
 41
30.0
140
30.0
145
16.35
174
     6
175
     6
176
     0
177
     0
290
     1
304
{\fMS PGothic|b0|i0|c128|p50;φ4-4本}
 11
0.0
 21
0.0
 31
1.0
340
50
 12
1210.5
 22
571.0029950574462
 32
0.0
 13
1.0
 23
0.0
 33
0.0
 42
0.0
 43
0.0
 44
0.0
 45
1.0
170
     1
 90
-1073741824
171
     1
172
     5
 91
-1073741824
141
0.0
 92
        0
291
     0
292
     0
173
     0
293
     0
142
0.0
143
0.0
294
     0
295
     0
296
     0
110
1188.75
120
635.0
130
0.0
111
1.0
121
0.0
131
0.0
112
0.0
122
1.0
132
0.0
297
     0
302
LEADER{
290
     1
291
     1
 10
1188.75
 20
535.0029950574462
 30
0.0
 11
1.0
 21
0.0
 31
0.0
 90
        0
 40
5.399999999999999
304
LEADER_LINE{
 10
1188.75
 20
635.0
 30
0.0
 91
        0
305
}
303
}
301
}
340
62
 90
   279552
170
     1
 91
-1056964608
341
56
171
    -2
290
     1
291
     1
 41
0.36
 42
2.0
172
     2
343
50
173
     6
 95
        6
174
     1
175
     0
 92
-1056964608
292
     0
 93
-1056964608
 10
1.0
 20
1.0
 30
1.0
 43
0.0
176
     0
293
     0
294
     0
178
     0
179
     1
 45
15.0
1001
ACAD_MLEADERVER
1070
     2
  0
MULTILEADER
  5
132B
330
67
100
AcDbEntity
  8
寸法
 92
      500
310
F4010000170000000C00000016000000000000C00C00000033000000000000000C00000013000000993A00000C00000033000000000000000C00000010000000050000000C00000016000000000000C00C00000012000000FF7F00000C00000013000000010000000C00000014000000010000005400000007000000030000
310
000000000000EB9440C028A072F067854000000000000000000000000000639540C028A072F03F854000000000000000000000000000EB9440C028A072F017854000000000000000000C00000013000000891300003C00000006000000020000000000000000EB9440C028A072F03F85400000000000000000000000000083
310
9340C028A072F03F854000000000000000000C00000013000000112700003C00000006000000020000000000000000839340C028A072F03F8540000000000000000066666666666D9340C028A072F03F854000000000000000000C00000016000000000000C00C00000012000000FF7F00000C00000017000000000000000C
310
000000130000009A3A00003C0000000600000002000000FFFFFFFFFF2B9340C028A072F03F8540000000000000000065666666666D9340C028A072F03F854000000000000000000C00000016000000000000C00C00000012000000FF7F00000C00000017000000FFFFFFFF0C0000003300000000000000
100
AcDbMLeader
300
CONTEXT_DATA{
 40
15.0
 10
1210.65
 20
679.992406131023
 30
0.0
 41
30.0
140
30.0
145
16.35
174
     6
175
     6
176
     2
177
     0
290
     1
304

 11
0.0
 21
0.0
 31
1.0
340
50
 12
1227.0
 22
709.992406131023
 32
0.0
 13
1.0
 23
0.0
 33
0.0
 42
0.0
 43
0.0
 44
0.0
 45
1.0
170
     1
 90
-1073741824
171
     3
172
     5
 91
-1073741824
141
0.0
 92
        0
291
     0
292
     0
173
     0
293
     0
142
0.0
143
0.0
294
     0
295
     0
296
     0
110
1368.75
120
679.992406131023
130
0.0
111
1.0
121
0.0
131
0.0
112
0.0
122
1.0
132
0.0
297
     0
302
LEADER{
290
     1
291
     1
 10
1248.75
 20
679.992406131023
 30
0.0
 11
-1.0
 21
0.0
 31
0.0
 90
        0
 40
5.399999999999999
304
LEADER_LINE{
 10
1368.75
 20
679.992406131023
 30
0.0
 91
        0
305
}
303
}
301
}
340
62
 90
   279552
170
     1
 91
-1056964608
341
56
171
    -2
290
     1
291
     1
 41
0.36
 42
2.0
172
     2
343
50
173
     6
 95
        6
174
     1
175
     2
 92
-1056964608
292
     0
 93
-1056964608
 10
1.0
 20
1.0
 30
1.0
 43
0.0
176
     0
293
     0
294
     0
178
     0
179
     3
 45
15.0
1001
ACAD_MLEADERVER
1070
     2
  0
MULTILEADER
  5
132E
330
67
100
AcDbEntity
  8
寸法
 92
      500
310
F4010000170000000C00000016000000000000C00C00000033000000000000000C00000013000000993A00000C00000033000000000000000C00000010000000050000000C00000016000000000000C00C00000012000000FF7F00000C00000013000000010000000C00000014000000010000005400000007000000030000
310
0000000000000B9340C028A072F067854000000000000000000000000000839340C028A072F03F8540000000000000000000000000000B9340C028A072F017854000000000000000000C00000013000000891300003C000000060000000200000000000000000B9340C028A072F03F854000000000000000000000000000A3
310
9140C028A072F03F854000000000000000000C00000013000000112700003C00000006000000020000000000000000A39140C028A072F03F8540000000000000000066666666668D9140C028A072F03F854000000000000000000C00000016000000000000C00C00000012000000FF7F00000C00000017000000000000000C
310
000000130000009A3A00003C0000000600000002000000FFFFFFFFFF4B9140C028A072F03F8540000000000000000065666666668D9140C028A072F03F854000000000000000000C00000016000000000000C00C00000012000000FF7F00000C00000017000000FFFFFFFF0C0000003300000000000000
100
AcDbMLeader
300
CONTEXT_DATA{
 40
15.0
 10
1090.65
 20
679.992406131023
 30
0.0
 41
30.0
140
30.0
145
16.35
174
     6
175
     6
176
     2
177
     0
290
     1
304

 11
0.0
 21
0.0
 31
1.0
340
50
 12
1107.0
 22
709.992406131023
 32
0.0
 13
1.0
 23
0.0
 33
0.0
 42
0.0
 43
0.0
 44
0.0
 45
1.0
170
     1
 90
-1073741824
171
     3
172
     5
 91
-1073741824
141
0.0
 92
        0
291
     0
292
     0
173
     0
293
     0
142
0.0
143
0.0
294
     0
295
     0
296
     0
110
1248.75
120
679.992406131023
130
0.0
111
1.0
121
0.0
131
0.0
112
0.0
122
1.0
132
0.0
297
     0
302
LEADER{
290
     1
291
     1
 10
1128.75
 20
679.992406131023
 30
0.0
 11
-1.0
 21
0.0
 31
0.0
 90
        0
 40
5.399999999999999
304
LEADER_LINE{
 10
1248.75
 20
679.992406131023
 30
0.0
 91
        0
305
}
303
}
301
}
340
62
 90
   279552
170
     1
 91
-1056964608
341
56
171
    -2
290
     1
291
     1
 41
0.36
 42
2.0
172
     2
343
50
173
     6
 95
        6
174
     1
175
     2
 92
-1056964608
292
     0
 93
-1056964608
 10
1.0
 20
1.0
 30
1.0
 43
0.0
176
     0
293
     0
294
     0
178
     0
179
     3
 45
15.0
1001
ACAD_MLEADERVER
1070
     2
  0
MULTILEADER
  5
132F
330
67
100
AcDbEntity
  8
寸法
 92
      500
310
F4010000170000000C00000016000000000000C00C00000033000000000000000C00000013000000993A00000C00000033000000000000000C00000010000000050000000C00000016000000000000C00C00000012000000FF7F00000C00000013000000010000000C00000014000000010000005400000007000000030000
310
0000000000002B9140C028A072F067854000000000000000000000000000A39140C028A072F03F8540000000000000000000000000002B9140C028A072F017854000000000000000000C00000013000000891300003C000000060000000200000000000000002B9140C028A072F03F85400000000000000000000000000086
310
8F40C028A072F03F854000000000000000000C00000013000000112700003C00000006000000020000000000000000868F40C028A072F03F85400000000000000000CDCCCCCCCC5A8F40C028A072F03F854000000000000000000C00000016000000000000C00C00000012000000FF7F00000C00000017000000000000000C
310
000000130000009A3A00003C00000006000000020000000000000000D88E40C028A072F03F85400000000000000000CDCCCCCCCC5A8F40C028A072F03F854000000000000000000C00000016000000000000C00C00000012000000FF7F00000C00000017000000FFFFFFFF0C0000003300000000000000
100
AcDbMLeader
300
CONTEXT_DATA{
 40
15.0
 10
970.65
 20
679.992406131023
 30
0.0
 41
30.0
140
30.0
145
16.35
174
     6
175
     6
176
     2
177
     0
290
     1
304

 11
0.0
 21
0.0
 31
1.0
340
50
 12
987.0
 22
709.992406131023
 32
0.0
 13
1.0
 23
0.0
 33
0.0
 42
0.0
 43
0.0
 44
0.0
 45
1.0
170
     1
 90
-1073741824
171
     3
172
     5
 91
-1073741824
141
0.0
 92
        0
291
     0
292
     0
173
     0
293
     0
142
0.0
143
0.0
294
     0
295
     0
296
     0
110
1128.75
120
679.992406131023
130
0.0
111
1.0
121
0.0
131
0.0
112
0.0
122
1.0
132
0.0
297
     0
302
LEADER{
290
     1
291
     1
 10
1008.75
 20
679.992406131023
 30
0.0
 11
-1.0
 21
0.0
 31
0.0
 90
        0
 40
5.399999999999999
304
LEADER_LINE{
 10
1128.75
 20
679.992406131023
 30
0.0
 91
        0
305
}
303
}
301
}
340
62
 90
   279552
170
     1
 91
-1056964608
341
56
171
    -2
290
     1
291
     1
 41
0.36
 42
2.0
172
     2
343
50
173
     6
 95
        6
174
     1
175
     2
 92
-1056964608
292
     0
 93
-1056964608
 10
1.0
 20
1.0
 30
1.0
 43
0.0
176
     0
293
     0
294
     0
178
     0
179
     3
 45
15.0
1001
ACAD_MLEADERVER
1070
     2
  0
MULTILEADER
  5
1330
330
67
100
AcDbEntity
  8
寸法
 92
     1064
310
280400001A0000000C00000016000000000000C00C00000033000000000000000C00000013000000993A0000BC000000260000001FC6361DB0268740916EB7CF64488540000000000000000000000000000000000000000000000000000000000000F03F000000000000F03F00000000000000000000000000000000C60300
310
0001000000010000000000000000003E40000000000000F03F0000000000000000000000000000F03F0000000000000000000000000000000000000000000000000000000001000000320000002DFF33FF200030FFB430B730C330AF30000000000000000000000000BC000000260000007C3A0863C7838840916EB7CF6448
310
8540000000000000000000000000000000000000000000000000000000000000F03F000000000000F03F0000000000000000000000000000000034002D003400000003000000010000000000000000003E40000000000000F03F0000000000000000000000000000F03F000000000000000000000000000000000000000000
310
000000000000000100000000000000000000007400780074002E00730068007800000000000000BC000000260000007C3A0863C7538B40916EB7CF64488540000000000000000000000000000000000000000000000000000000000000F03F000000000000F03F000000000000000000000000000000002C67000001000000
310
010000000000000000003E40000000000000F03F0000000000000000000000000000F03F0000000000000000000000000000000000000000000000000000000001000000320000002DFF33FF200030FFB430B730C330AF300000000000000000000000000C00000033000000000000000C00000010000000050000000C0000
310
0016000000000000C00C00000012000000FF7F00000C00000013000000010000000C00000014000000010000005400000007000000030000000000000000968E40C028A072F067854000000000000000000000000000868F40C028A072F03F854000000000000000000000000000968E40C028A072F0178540000000000000
310
00000C00000013000000891300003C00000006000000020000000000000000968E40C028A072F03F85400000000000000000F00B4E7A244D8D40C028A072F03F854000000000000000000C00000013000000112700003C0000000600000002000000F00B4E7A244D8D40C028A072F03F85400000000000000000BDD81A47F1
310
218D40C028A072F03F854000000000000000000C00000016000000000000C00C00000012000000FF7F00000C00000017000000000000000C000000130000009A3A00003C0000000600000002000000C25165D7986D8740C028A072F03F85400000000000000000BDD81A47F1218D40C028A072F03F85400000000000000000
310
0C00000016000000000000C00C00000012000000FF7F00000C00000017000000FFFFFFFF0C0000003300000000000000
100
AcDbMLeader
300
CONTEXT_DATA{
 40
15.0
 10
733.3496295848441
 20
679.992406131023
 30
0.0
 41
30.0
140
30.0
145
16.35
174
     6
175
     6
176
     2
177
     0
290
     1
304
{\fMS PGothic|b0|i0|c128|p50;φ}4-4{\fMS PGothic|b0|i0|c128|p50;本}
 11
0.0
 21
0.0
 31
1.0
340
50
 12
915.8928114030258
 22
715.9924061310229
 32
0.0
 13
1.0
 23
0.0
 33
0.0
 42
0.0
 43
0.0
 44
0.0
 45
1.0
170
     1
 90
-1073741824
171
     3
172
     5
 91
-1073741824
141
0.0
 92
        0
291
     0
292
     0
173
     0
293
     0
142
0.0
143
0.0
294
     0
295
     0
296
     0
110
1008.75
120
679.992406131023
130
0.0
111
1.0
121
0.0
131
0.0
112
0.0
122
1.0
132
0.0
297
     0
302
LEADER{
290
     1
291
     1
 10
937.6428114030259
 20
679.992406131023
 30
0.0
 11
-1.0
 21
0.0
 31
0.0
 90
        0
 40
5.399999999999999
304
LEADER_LINE{
 10
1008.75
 20
679.992406131023
 30
0.0
 91
        0
305
}
303
}
301
}
340
62
 90
   279552
170
     1
 91
-1056964608
341
56
171
    -2
290
     1
291
     1
 41
0.36
 42
2.0
172
     2
343
50
173
     6
 95
        6
174
     1
175
     2
 92
-1056964608
292
     0
 93
-1056964608
 10
1.0
 20
1.0
 30
1.0
 43
0.0
176
     0
293
     0
294
     0
178
     0
179
     3
 45
15.0
1001
ACAD_MLEADERVER
1070
     2
  0
LWPOLYLINE
  5
1331
330
67
100
AcDbEntity
  8
寸法
  6
ByBlock
370
    -2
100
AcDbPolyline
 90
        2
 70
     0
 43
0.0
 10
1188.75
 20
2385.0
 10
1188.75
 20
2325.0
  0
SOLID
  5
1332
330
67
100
AcDbEntity
  8
寸法
100
AcDbTrace
 10
1183.75
 20
2385.0
 30
0.0
 11
1188.75
 21
2415.0
 31
0.0
 12
1193.75
 22
2385.0
 32
0.0
 13
1193.75
 23
2385.0
 33
0.0
  0
LWPOLYLINE
  5
1333
330
67
100
AcDbEntity
  8
寸法
  6
ByBlock
370
    -2
100
AcDbPolyline
 90
        2
 70
     0
 43
0.0
 10
1188.75
 20
2295.0
 10
1188.75
 20
2150.0
  0
SOLID
  5
1334
330
67
100
AcDbEntity
  8
寸法
100
AcDbTrace
 10
1183.75
 20
2295.0
 30
0.0
 11
1188.75
 21
2325.0
 31
0.0
 12
1193.75
 22
2295.0
 32
0.0
 13
1193.75
 23
2295.0
 33
0.0
  0
LWPOLYLINE
  5
1335
102
{ACAD_REACTORS
330
1339
102
}
330
67
100
AcDbEntity
  8
寸法
  6
ByBlock
370
    -2
100
AcDbPolyline
 90
        2
 70
     0
 43
0.0
 10
1188.75
 20
2120.0
 10
1188.75
 20
2060.0
  0
SOLID
  5
1336
330
67
100
AcDbEntity
  8
寸法
100
AcDbTrace
 10
1183.75
 20
2120.0
 30
0.0
 11
1188.75
 21
2150.0
 31
0.0
 12
1193.75
 22
2120.0
 32
0.0
 13
1193.75
 23
2120.0
 33
0.0
  0
MULTILEADER
  5
1337
102
{ACAD_XDICTIONARY
360
1338
102
}
102
{ACAD_REACTORS
330
1339
102
}
330
67
100
AcDbEntity
  8
寸法
 92
      696
310
B8020000180000000C00000016000000000000C00C00000033000000000000000C00000013000000993A0000C4000000260000002FBAE8A28BC69240098AAE3F3DA49E40000000000000000000000000000000000000000000000000000000000000F03F000000000000F03F00000000000000000000000000000000C60334
310
002D0034002C67000005000000010000000000000000003E40000000000000F03F0000000000000000000000000000F03F0000000000000000000000000000000000000000000000000000000001000000320000002DFF33FF200030FFB430B730C330AF300000000000000000000000000C00000033000000000000000C00
310
000010000000050000000C00000016000000000000C00C00000012000000FF7F00000C00000013000000010000000C000000140000000100000054000000070000000300000000000000007F92400000000000B89F4000000000000000000000000000939240000000000018A04000000000000000000000000000A7924000
310
00000000B89F4000000000000000000C00000013000000891300003C000000060000000200000000000000009392400000000000B89F400000000000000000000000000093924020E7221103A09E4000000000000000000C00000013000000112700003C0000000600000002000000000000000093924020E7221103A09E40
310
00000000000000009A99999999A8924020E7221103A09E4000000000000000000C00000016000000000000C00C00000012000000FF7F00000C00000017000000000000000C000000130000009A3A00003C00000006000000020000009A99999999A8924020E7221103A09E4000000000000000005E74D1459720954020E722
310
1103A09E4000000000000000000C00000016000000000000C00C00000012000000FF7F00000C00000017000000FFFFFFFF0C0000003300000000000000
100
AcDbMLeader
300
CONTEXT_DATA{
 40
15.0
 10
1194.15
 20
1960.002995057446
 30
0.0
 41
30.0
140
30.0
145
16.35
174
     6
175
     6
176
     0
177
     0
290
     1
304
{\fMS PGothic|b0|i0|c128|p50;φ4-4本}
 11
0.0
 21
0.0
 31
1.0
340
50
 12
1210.5
 22
1996.002995057446
 32
0.0
 13
1.0
 23
0.0
 33
0.0
 42
0.0
 43
0.0
 44
0.0
 45
1.0
170
     1
 90
-1073741824
171
     1
172
     5
 91
-1073741824
141
0.0
 92
        0
291
     0
292
     0
173
     0
293
     0
142
0.0
143
0.0
294
     0
295
     0
296
     0
110
1188.75
120
2060.0
130
0.0
111
1.0
121
0.0
131
0.0
112
0.0
122
1.0
132
0.0
297
     0
302
LEADER{
290
     1
291
     1
 10
1188.75
 20
1960.002995057446
 30
0.0
 11
1.0
 21
0.0
 31
0.0
 90
        0
 40
5.399999999999999
304
LEADER_LINE{
 10
1188.75
 20
2060.0
 30
0.0
 91
        0
305
}
303
}
301
}
340
62
 90
   279552
170
     1
 91
-1056964608
341
56
171
    -2
290
     1
291
     1
 41
0.36
 42
2.0
172
     2
343
50
173
     6
 95
        6
174
     1
175
     0
 92
-1056964608
292
     0
 93
-1056964608
 10
1.0
 20
1.0
 30
1.0
 43
0.0
176
     0
293
     0
294
     0
178
     0
179
     1
 45
15.0
1001
ACAD_MLEADERVER
1070
     2
  0
MULTILEADER
  5
133A
330
67
100
AcDbEntity
  8
寸法
 92
      500
310
F4010000170000000C00000016000000000000C00C00000033000000000000000C00000013000000993A00000C00000033000000000000000C00000010000000050000000C00000016000000000000C00C00000012000000FF7F00000C00000013000000010000000C00000014000000010000005400000007000000030000
310
000000000000EB9440300AA81CFC7BA04000000000000000000000000000639540300AA81CFC71A04000000000000000000000000000EB9440300AA81CFC67A04000000000000000000C00000013000000891300003C00000006000000020000000000000000EB9440300AA81CFC71A0400000000000000000000000000083
310
9340300AA81CFC71A04000000000000000000C00000013000000112700003C00000006000000020000000000000000839340300AA81CFC71A040000000000000000066666666666D9340300AA81CFC71A04000000000000000000C00000016000000000000C00C00000012000000FF7F00000C00000017000000000000000C
310
000000130000009A3A00003C0000000600000002000000FFFFFFFFFF2B9340300AA81CFC71A040000000000000000065666666666D9340300AA81CFC71A04000000000000000000C00000016000000000000C00C00000012000000FF7F00000C00000017000000FFFFFFFF0C0000003300000000000000
100
AcDbMLeader
300
CONTEXT_DATA{
 40
15.0
 10
1210.65
 20
2104.992406131023
 30
0.0
 41
30.0
140
30.0
145
16.35
174
     6
175
     6
176
     2
177
     0
290
     1
304

 11
0.0
 21
0.0
 31
1.0
340
50
 12
1227.0
 22
2134.992406131023
 32
0.0
 13
1.0
 23
0.0
 33
0.0
 42
0.0
 43
0.0
 44
0.0
 45
1.0
170
     1
 90
-1073741824
171
     3
172
     5
 91
-1073741824
141
0.0
 92
        0
291
     0
292
     0
173
     0
293
     0
142
0.0
143
0.0
294
     0
295
     0
296
     0
110
1368.75
120
2104.992406131023
130
0.0
111
1.0
121
0.0
131
0.0
112
0.0
122
1.0
132
0.0
297
     0
302
LEADER{
290
     1
291
     1
 10
1248.75
 20
2104.992406131023
 30
0.0
 11
-1.0
 21
0.0
 31
0.0
 90
        0
 40
5.399999999999999
304
LEADER_LINE{
 10
1368.75
 20
2104.992406131023
 30
0.0
 91
        0
305
}
303
}
301
}
340
62
 90
   279552
170
     1
 91
-1056964608
341
56
171
    -2
290
     1
291
     1
 41
0.36
 42
2.0
172
     2
343
50
173
     6
 95
        6
174
     1
175
     2
 92
-1056964608
292
     0
 93
-1056964608
 10
1.0
 20
1.0
 30
1.0
 43
0.0
176
     0
293
     0
294
     0
178
     0
179
     3
 45
15.0
1001
ACAD_MLEADERVER
1070
     2
  0
MULTILEADER
  5
133B
330
67
100
AcDbEntity
  8
寸法
 92
      500
310
F4010000170000000C00000016000000000000C00C00000033000000000000000C00000013000000993A00000C00000033000000000000000C00000010000000050000000C00000016000000000000C00C00000012000000FF7F00000C00000013000000010000000C00000014000000010000005400000007000000030000
310
0000000000000B9340300AA81CFC7BA04000000000000000000000000000839340300AA81CFC71A040000000000000000000000000000B9340300AA81CFC67A04000000000000000000C00000013000000891300003C000000060000000200000000000000000B9340300AA81CFC71A04000000000000000000000000000A3
310
9140300AA81CFC71A04000000000000000000C00000013000000112700003C00000006000000020000000000000000A39140300AA81CFC71A040000000000000000066666666668D9140300AA81CFC71A04000000000000000000C00000016000000000000C00C00000012000000FF7F00000C00000017000000000000000C
310
000000130000009A3A00003C0000000600000002000000FFFFFFFFFF4B9140300AA81CFC71A040000000000000000065666666668D9140300AA81CFC71A04000000000000000000C00000016000000000000C00C00000012000000FF7F00000C00000017000000FFFFFFFF0C0000003300000000000000
100
AcDbMLeader
300
CONTEXT_DATA{
 40
15.0
 10
1090.65
 20
2104.992406131023
 30
0.0
 41
30.0
140
30.0
145
16.35
174
     6
175
     6
176
     2
177
     0
290
     1
304

 11
0.0
 21
0.0
 31
1.0
340
50
 12
1107.0
 22
2134.992406131023
 32
0.0
 13
1.0
 23
0.0
 33
0.0
 42
0.0
 43
0.0
 44
0.0
 45
1.0
170
     1
 90
-1073741824
171
     3
172
     5
 91
-1073741824
141
0.0
 92
        0
291
     0
292
     0
173
     0
293
     0
142
0.0
143
0.0
294
     0
295
     0
296
     0
110
1248.75
120
2104.992406131023
130
0.0
111
1.0
121
0.0
131
0.0
112
0.0
122
1.0
132
0.0
297
     0
302
LEADER{
290
     1
291
     1
 10
1128.75
 20
2104.992406131023
 30
0.0
 11
-1.0
 21
0.0
 31
0.0
 90
        0
 40
5.399999999999999
304
LEADER_LINE{
 10
1248.75
 20
2104.992406131023
 30
0.0
 91
        0
305
}
303
}
301
}
340
62
 90
   279552
170
     1
 91
-1056964608
341
56
171
    -2
290
     1
291
     1
 41
0.36
 42
2.0
172
     2
343
50
173
     6
 95
        6
174
     1
175
     2
 92
-1056964608
292
     0
 93
-1056964608
 10
1.0
 20
1.0
 30
1.0
 43
0.0
176
     0
293
     0
294
     0
178
     0
179
     3
 45
15.0
1001
ACAD_MLEADERVER
1070
     2
  0
MULTILEADER
  5
133C
330
67
100
AcDbEntity
  8
寸法
 92
      500
310
F4010000170000000C00000016000000000000C00C00000033000000000000000C00000013000000993A00000C00000033000000000000000C00000010000000050000000C00000016000000000000C00C00000012000000FF7F00000C00000013000000010000000C00000014000000010000005400000007000000030000
310
0000000000002B9140300AA81CFC7BA04000000000000000000000000000A39140300AA81CFC71A040000000000000000000000000002B9140300AA81CFC67A04000000000000000000C00000013000000891300003C000000060000000200000000000000002B9140300AA81CFC71A0400000000000000000000000000086
310
8F40300AA81CFC71A04000000000000000000C00000013000000112700003C00000006000000020000000000000000868F40300AA81CFC71A0400000000000000000CDCCCCCCCC5A8F40300AA81CFC71A04000000000000000000C00000016000000000000C00C00000012000000FF7F00000C00000017000000000000000C
310
000000130000009A3A00003C00000006000000020000000000000000D88E40300AA81CFC71A0400000000000000000CDCCCCCCCC5A8F40300AA81CFC71A04000000000000000000C00000016000000000000C00C00000012000000FF7F00000C00000017000000FFFFFFFF0C0000003300000000000000
100
AcDbMLeader
300
CONTEXT_DATA{
 40
15.0
 10
970.65
 20
2104.992406131023
 30
0.0
 41
30.0
140
30.0
145
16.35
174
     6
175
     6
176
     2
177
     0
290
     1
304

 11
0.0
 21
0.0
 31
1.0
340
50
 12
987.0
 22
2134.992406131023
 32
0.0
 13
1.0
 23
0.0
 33
0.0
 42
0.0
 43
0.0
 44
0.0
 45
1.0
170
     1
 90
-1073741824
171
     3
172
     5
 91
-1073741824
141
0.0
 92
        0
291
     0
292
     0
173
     0
293
     0
142
0.0
143
0.0
294
     0
295
     0
296
     0
110
1128.75
120
2104.992406131023
130
0.0
111
1.0
121
0.0
131
0.0
112
0.0
122
1.0
132
0.0
297
     0
302
LEADER{
290
     1
291
     1
 10
1008.75
 20
2104.992406131023
 30
0.0
 11
-1.0
 21
0.0
 31
0.0
 90
        0
 40
5.399999999999999
304
LEADER_LINE{
 10
1128.75
 20
2104.992406131023
 30
0.0
 91
        0
305
}
303
}
301
}
340
62
 90
   279552
170
     1
 91
-1056964608
341
56
171
    -2
290
     1
291
     1
 41
0.36
 42
2.0
172
     2
343
50
173
     6
 95
        6
174
     1
175
     2
 92
-1056964608
292
     0
 93
-1056964608
 10
1.0
 20
1.0
 30
1.0
 43
0.0
176
     0
293
     0
294
     0
178
     0
179
     3
 45
15.0
1001
ACAD_MLEADERVER
1070
     2
  0
MULTILEADER
  5
133D
330
67
100
AcDbEntity
  8
寸法
 92
     1064
310
280400001A0000000C00000016000000000000C00C00000033000000000000000C00000013000000993A0000BC000000260000001FC6361DB0268740A4DBED331974A040000000000000000000000000000000000000000000000000000000000000F03F000000000000F03F00000000000000000000000000000000C60300
310
0001000000010000000000000000003E40000000000000F03F0000000000000000000000000000F03F0000000000000000000000000000000000000000000000000000000001000000320000002DFF33FF200030FFB430B730C330AF30000000000000000000000000BC000000260000007C3A0863C7838840A4DBED331974
310
A040000000000000000000000000000000000000000000000000000000000000F03F000000000000F03F0000000000000000000000000000000034002D003400000003000000010000000000000000003E40000000000000F03F0000000000000000000000000000F03F000000000000000000000000000000000000000000
310
000000000000000100000000000000000000007400780074002E00730068007800000000000000BC000000260000007C3A0863C7538B40A4DBED331974A040000000000000000000000000000000000000000000000000000000000000F03F000000000000F03F000000000000000000000000000000002C67000001000000
310
010000000000000000003E40000000000000F03F0000000000000000000000000000F03F0000000000000000000000000000000000000000000000000000000001000000320000002DFF33FF200030FFB430B730C330AF300000000000000000000000000C00000033000000000000000C00000010000000050000000C0000
310
0016000000000000C00C00000012000000FF7F00000C00000013000000010000000C00000014000000010000005400000007000000030000000000000000968E40300AA81CFC7BA04000000000000000000000000000868F40300AA81CFC71A04000000000000000000000000000968E40300AA81CFC67A040000000000000
310
00000C00000013000000891300003C00000006000000020000000000000000968E40300AA81CFC71A0400000000000000000F00B4E7A244D8D40300AA81CFC71A04000000000000000000C00000013000000112700003C0000000600000002000000F00B4E7A244D8D40300AA81CFC71A0400000000000000000BDD81A47F1
310
218D40300AA81CFC71A04000000000000000000C00000016000000000000C00C00000012000000FF7F00000C00000017000000000000000C000000130000009A3A00003C0000000600000002000000C25165D7986D8740300AA81CFC71A0400000000000000000BDD81A47F1218D40300AA81CFC71A0400000000000000000
310
0C00000016000000000000C00C00000012000000FF7F00000C00000017000000FFFFFFFF0C0000003300000000000000
100
AcDbMLeader
300
CONTEXT_DATA{
 40
15.0
 10
733.3496295848441
 20
2104.992406131023
 30
0.0
 41
30.0
140
30.0
145
16.35
174
     6
175
     6
176
     2
177
     0
290
     1
304
{\fMS PGothic|b0|i0|c128|p50;φ}4-4{\fMS PGothic|b0|i0|c128|p50;本}
 11
0.0
 21
0.0
 31
1.0
340
50
 12
915.8928114030258
 22
2140.992406131023
 32
0.0
 13
1.0
 23
0.0
 33
0.0
 42
0.0
 43
0.0
 44
0.0
 45
1.0
170
     1
 90
-1073741824
171
     3
172
     5
 91
-1073741824
141
0.0
 92
        0
291
     0
292
     0
173
     0
293
     0
142
0.0
143
0.0
294
     0
295
     0
296
     0
110
1008.75
120
2104.992406131023
130
0.0
111
1.0
121
0.0
131
0.0
112
0.0
122
1.0
132
0.0
297
     0
302
LEADER{
290
     1
291
     1
 10
937.6428114030259
 20
2104.992406131023
 30
0.0
 11
-1.0
 21
0.0
 31
0.0
 90
        0
 40
5.399999999999999
304
LEADER_LINE{
 10
1008.75
 20
2104.992406131023
 30
0.0
 91
        0
305
}
303
}
301
}
340
62
 90
   279552
170
     1
 91
-1056964608
341
56
171
    -2
290
     1
291
     1
 41
0.36
 42
2.0
172
     2
343
50
173
     6
 95
        6
174
     1
175
     2
 92
-1056964608
292
     0
 93
-1056964608
 10
1.0
 20
1.0
 30
1.0
 43
0.0
176
     0
293
     0
294
     0
178
     0
179
     3
 45
15.0
1001
ACAD_MLEADERVER
1070
     2
  0
MULTILEADER
  5
139E
102
{ACAD_XDICTIONARY
360
139F
102
}
102
{ACAD_REACTORS
330
13A0
102
}
330
67
100
AcDbEntity
  8
寸法
 92
     1064
310
280400001A0000000C00000016000000000000C00C00000033000000000000000C00000013000000993A0000BC000000260000001B8668C61BD2A240D9FCEE5539C69C40000000000000000000000000000000000000000000000000000000000000F03F000000000000F03F00000000000000000000000000000000C60300
310
0001000000010000000000000000003E40000000000000F03F0000000000000000000000000000F03F0000000000000000000000000000000000000000000000000000000001000000320000002DFF33FF200030FFB430B730C330AF30000000000000000000000000BC0000002600000033E3DC976129A340D9FCEE5539C6
310
9C40000000000000000000000000000000000000000000000000000000000000F03F000000000000F03F0000000000000000000000000000000034002D003800000003000000010000000000000000003E40000000000000F03F0000000000000000000000000000F03F000000000000000000000000000000000000000000
310
000000000000000100000000000000000000007400780074002E00730068007800000000000000BC0000002600000033E3DC9761DDA340D9FCEE5539C69C40000000000000000000000000000000000000000000000000000000000000F03F000000000000F03F000000000000000000000000000000002C67000001000000
310
010000000000000000003E40000000000000F03F0000000000000000000000000000F03F0000000000000000000000000000000000000000000000000000000001000000320000002DFF33FF200030FFB430B730C330AF300000680000000000000000000C00000033000000000000000C00000010000000050000000C0000
310
0016000000000000C00C00000012000000FF7F00000C00000013000000010000000C00000014000000010000005400000007000000030000003D7B0E679EECA040205771EC1F079E4000000000000000000000000000B8A040E863267328449E4000000000000000007631CAFAABF3A04006E60E0D8E2C9E40000000000000
310
00000C00000013000000891300003C00000006000000020000005956EC3025F0A040931EC0FCD6199E4000000000000000000429F4F455B8A240F0596327FFC19C4000000000000000000C00000013000000112700003C00000006000000020000000429F4F455B8A240F0596327FFC19C400000000000000000D1F5C0C122
310
C3A240F0596327FFC19C4000000000000000000C00000016000000000000C00C00000012000000FF7F00000C00000017000000000000000C000000130000009A3A00003C0000000600000002000000D1F5C0C122C3A240F0596327FFC19C4000000000000000009057AEDD3830A440F0596327FFC19C400000000000000000
310
0C00000016000000000000C00C00000012000000FF7F00000C00000017000000FFFFFFFF0C0000003300000000000000
100
AcDbMLeader
300
CONTEXT_DATA{
 40
15.0
 10
2401.567884473807
 20
1840.499173691143
 30
0.0
 41
30.0
140
30.0
145
16.35
174
     6
175
     6
176
     0
177
     0
290
     1
304
{\fMS PGothic|b0|i0|c128|p50;φ}4-8{\fMS PGothic|b0|i0|c128|p50;本}
 11
0.0
 21
0.0
 31
1.0
340
50
 12
2417.917884473807
 22
1876.499173691143
 32
0.0
 13
1.0
 23
0.0
 33
0.0
 42
0.0
 43
0.0
 44
0.0
 45
1.0
170
     1
 90
-1073741824
171
     1
172
     5
 91
-1073741824
141
0.0
 92
        0
291
     0
292
     0
173
     0
293
     0
142
0.0
143
0.0
294
     0
295
     0
296
     0
110
2140.0
120
1937.039501762245
130
0.0
111
1.0
121
0.0
131
0.0
112
0.0
122
1.0
132
0.0
297
     0
302
LEADER{
290
     1
291
     1
 10
2396.167884473807
 20
1840.499173691143
 30
0.0
 11
1.0
 21
0.0
 31
0.0
 90
        0
 40
5.399999999999999
304
LEADER_LINE{
 10
2140.0
 20
1937.039501762245
 30
0.0
 91
        0
305
}
303
}
301
}
340
62
 90
   279552
170
     1
 91
-1056964608
341
56
171
    -2
290
     1
291
     1
 41
0.36
 42
2.0
172
     2
343
50
173
     6
 95
        6
174
     1
175
     0
 92
-1056964608
292
     0
 93
-1056964608
 10
1.0
 20
1.0
 30
1.0
 43
0.0
176
     0
293
     0
294
     0
178
     0
179
     1
 45
15.0
1001
ACAD_MLEADERVER
1070
     2
  0
MULTILEADER
  5
13A1
102
{ACAD_XDICTIONARY
360
13A2
102
}
102
{ACAD_REACTORS
330
13A3
102
}
330
67
100
AcDbEntity
  8
寸法
 92
      500
310
F4010000170000000C00000016000000000000C00C00000033000000000000000C00000013000000993A00000C00000033000000000000000C00000010000000050000000C00000016000000000000C00C00000012000000FF7F00000C00000013000000010000000C00000014000000010000005400000007000000030000
310
007469938DDC35A240A580A2BA33CF9D400000000000000000000000000016A2405022763FD5369E40000000000000000090A00EBEF144A240A72E837E78E99D4000000000000000000C00000013000000891300003C00000006000000020000000205D125673DA240A6D7921C56DC9D4000000000000000000429F4F455B8
310
A240F0596327FFC19C4000000000000000000C00000013000000112700003C00000006000000020000000429F4F455B8A240F0596327FFC19C400000000000000000D1F5C0C122C3A240F0596327FFC19C4000000000000000000C00000016000000000000C00C00000012000000FF7F00000C00000017000000000000000C
310
000000130000009A3A00003C0000000600000002000000D1F5C0C122C3A240F0596327FFC19C4000000000000000000429F4F4D5E3A240F0596327FFC19C4000000000000000000C00000016000000000000C00C00000012000000FF7F00000C00000017000000FFFFFFFF0C0000003300000000000000
100
AcDbMLeader
300
CONTEXT_DATA{
 40
15.0
 10
2401.567884473807
 20
1840.499173691143
 30
0.0
 41
30.0
140
30.0
145
16.35
174
     6
175
     6
176
     0
177
     0
290
     1
304

 11
0.0
 21
0.0
 31
1.0
340
50
 12
2417.917884473807
 22
1870.499173691143
 32
0.0
 13
1.0
 23
0.0
 33
0.0
 42
0.0
 43
0.0
 44
0.0
 45
1.0
170
     1
 90
-1073741824
171
     1
172
     5
 91
-1073741824
141
0.0
 92
        0
291
     0
292
     0
173
     0
293
     0
142
0.0
143
0.0
294
     0
295
     0
296
     0
110
2315.0
120
1933.708249898762
130
0.0
111
1.0
121
0.0
131
0.0
112
0.0
122
1.0
132
0.0
297
     0
302
LEADER{
290
     1
291
     1
 10
2396.167884473807
 20
1840.499173691143
 30
0.0
 11
1.0
 21
0.0
 31
0.0
 90
        0
 40
5.399999999999999
304
LEADER_LINE{
 10
2315.0
 20
1933.708249898762
 30
0.0
 91
        0
305
}
303
}
301
}
340
62
 90
   279552
170
     1
 91
-1056964608
341
56
171
    -2
290
     1
291
     1
 41
0.36
 42
2.0
172
     2
343
50
173
     6
 95
        6
174
     1
175
     0
 92
-1056964608
292
     0
 93
-1056964608
 10
1.0
 20
1.0
 30
1.0
 43
0.0
176
     0
293
     0
294
     0
178
     0
179
     1
 45
15.0
1001
ACAD_MLEADERVER
1070
     2
  0
MULTILEADER
  5
13A4
330
67
100
AcDbEntity
  8
寸法
 92
     1064
310
280400001A0000000C00000016000000000000C00C00000033000000000000000C00000013000000993A0000BC00000026000000FF2374ECF2B69A40B9C0DC59DB679F40000000000000000000000000000000000000000000000000000000000000F03F000000000000F03F00000000000000000000000000000000C60300
310
0001000000010000000000000000003E40000000000000F03F0000000000000000000000000000F03F0000000000000000000000000000000000000000000000000000000001000000320000002DFF33FF200030FFB430B730C330AF30000000000000000000000000BC000000260000002DDE5C8F7E659B40B9C0DC59DB67
310
9F40000000000000000000000000000000000000000000000000000000000000F03F000000000000F03F0000000000000000000000000000000034002D003500000003000000010000000000000000003E40000000000000F03F0000000000000000000000000000F03F000000000000000000000000000000000000000000
310
000000000000000100000000000000000000007400780074002E00730068007800000000000000BC000000260000002DDE5C8F7ECD9C40B9C0DC59DB679F40000000000000000000000000000000000000000000000000000000000000F03F000000000000F03F000000000000000000000000000000002C67000001000000
310
010000000000000000003E40000000000000F03F0000000000000000000000000000F03F0000000000000000000000000000000000000000000000000000000001000000320000002DFF33FF200030FFB430B730C330AF300000680000000000000000000C00000033000000000000000C00000010000000050000000C0000
310
0016000000000000C00C00000012000000FF7F00000C00000013000000010000000C00000014000000010000005400000007000000030000004D96724FD8629F40A0E80EC9B7A3A04000000000000000000000000000C29F40508F42159EC9A04000000000000000003F54BE6E92809F402CFC92035696A040000000000000
310
00000C00000013000000891300003C00000006000000020000004675185FB5719F4066F250E6069DA0400000000000000000E8C6FF1A2DCA9D40D01D512BA1639F4000000000000000000C00000013000000112700003C0000000600000002000000E8C6FF1A2DCA9D40D01D512BA1639F4000000000000000004E2D668193
310
B49D40D01D512BA1639F4000000000000000000C00000016000000000000C00C00000012000000FF7F00000C00000017000000000000000C000000130000009A3A00003C0000000600000002000000D0698B4967DA9A40D01D512BA1639F4000000000000000004E2D668193B49D40D01D512BA1639F400000000000000000
310
0C00000016000000000000C00C00000012000000FF7F00000C00000017000000FFFFFFFF0C0000003300000000000000
100
AcDbMLeader
300
CONTEXT_DATA{
 40
15.0
 10
1702.250866487821
 20
2008.907391803212
 30
0.0
 41
30.0
140
30.0
145
16.35
174
     6
175
     6
176
     2
177
     0
290
     1
304
{\fMS PGothic|b0|i0|c128|p50;φ}4-5{\fMS PGothic|b0|i0|c128|p50;本}
 11
0.0
 21
0.0
 31
1.0
340
50
 12
1884.794048306002
 22
2044.907391803212
 32
0.0
 13
1.0
 23
0.0
 33
0.0
 42
0.0
 43
0.0
 44
0.0
 45
1.0
170
     1
 90
-1073741824
171
     3
172
     5
 91
-1073741824
141
0.0
 92
        0
291
     0
292
     0
173
     0
293
     0
142
0.0
143
0.0
294
     0
295
     0
296
     0
110
2032.5
120
2187.5
130
0.0
111
1.0
121
0.0
131
0.0
112
0.0
122
1.0
132
0.0
297
     0
302
LEADER{
290
     1
291
     1
 10
1906.544048306003
 20
2008.907391803212
 30
0.0
 11
-1.0
 21
0.0
 31
0.0
 90
        0
 40
5.399999999999999
304
LEADER_LINE{
 10
2032.5
 20
2148.808755950922
 30
0.0
 91
        0
305
}
303
}
301
}
340
62
 90
   279552
170
     1
 91
-1056964608
341
56
171
    -2
290
     1
291
     1
 41
0.36
 42
2.0
172
     2
343
50
173
     6
 95
        6
174
     1
175
     2
 92
-1056964608
292
     0
 93
-1056964608
 10
1.0
 20
1.0
 30
1.0
 43
0.0
176
     0
293
     0
294
     0
178
     0
179
     3
 45
15.0
1001
ACAD_MLEADERVER
1070
     2
  0
MULTILEADER
  5
13A5
330
67
100
AcDbEntity
  8
寸法
 92
      500
310
F4010000170000000C00000016000000000000C00C00000033000000000000000C00000013000000993A00000C00000033000000000000000C00000010000000050000000C00000016000000000000C00C00000012000000FF7F00000C00000013000000010000000C00000014000000010000005400000007000000030000
310
0041A4C6B464D69E4023C4C41AC8B8A04000000000000000000000000000229F40F8828D8B6FE8A0400000000000000000B393C11664F99E40777365D618AFA04000000000000000000C00000013000000891300003C0000000600000002000000FA1BC465E4E79E40CD1B9578F0B3A0400000000000000000E8C6FF1A2DCA
310
9D40D01D512BA1639F4000000000000000000C00000013000000112700003C0000000600000002000000E8C6FF1A2DCA9D40D01D512BA1639F4000000000000000004E2D668193B49D40D01D512BA1639F4000000000000000000C00000016000000000000C00C00000012000000FF7F00000C00000017000000000000000C
310
000000130000009A3A00003C0000000600000002000000E7C6FF1A2D739D40D01D512BA1639F4000000000000000004D2D668193B49D40D01D512BA1639F4000000000000000000C00000016000000000000C00C00000012000000FF7F00000C00000017000000FFFFFFFF0C0000003300000000000000
100
AcDbMLeader
300
CONTEXT_DATA{
 40
15.0
 10
1868.444048306002
 20
2008.907391803212
 30
0.0
 41
30.0
140
30.0
145
16.35
174
     6
175
     6
176
     2
177
     0
290
     1
304

 11
0.0
 21
0.0
 31
1.0
340
50
 12
1884.794048306002
 22
2038.907391803212
 32
0.0
 13
1.0
 23
0.0
 33
0.0
 42
0.0
 43
0.0
 44
0.0
 45
1.0
170
     1
 90
-1073741824
171
     3
172
     5
 91
-1073741824
141
0.0
 92
        0
291
     0
292
     0
173
     0
293
     0
142
0.0
143
0.0
294
     0
295
     0
296
     0
110
1992.5
120
2187.5
130
0.0
111
1.0
121
0.0
131
0.0
112
0.0
122
1.0
132
0.0
297
     0
302
LEADER{
290
     1
291
     1
 10
1906.544048306003
 20
2008.907391803212
 30
0.0
 11
-1.0
 21
0.0
 31
0.0
 90
        0
 40
5.399999999999999
304
LEADER_LINE{
 10
1992.5
 20
2164.217861578214
 30
0.0
 91
        0
305
}
303
}
301
}
340
62
 90
   279552
170
     1
 91
-1056964608
341
56
171
    -2
290
     1
291
     1
 41
0.36
 42
2.0
172
     2
343
50
173
     6
 95
        6
174
     1
175
     2
 92
-1056964608
292
     0
 93
-1056964608
 10
1.0
 20
1.0
 30
1.0
 43
0.0
176
     0
293
     0
294
     0
178
     0
179
     3
 45
15.0
1001
ACAD_MLEADERVER
1070
     2
  0
MULTILEADER
  5
13A6
102
{ACAD_XDICTIONARY
360
13A7
102
}
102
{ACAD_REACTORS
330
13A8
102
}
330
67
100
AcDbEntity
  8
寸法
 92
      500
310
F4010000170000000C00000016000000000000C00C00000033000000000000000C00000013000000993A00000C00000033000000000000000C00000010000000050000000C00000016000000000000C00C00000012000000FF7F00000C00000013000000010000000C00000014000000010000005400000007000000030000
310
00A71395D166719E40FEA089BA17CFA04000000000000000000100000000AA9E401CCFB7BEEF04A1400000000000000000FE06510063979E403623B236D3C8A04000000000000000000C00000013000000891300003C0000000600000002000000530DF3E864849E401AE29D78F5CBA0400000000000000000E8C6FF1A2DCA
310
9D40D01D512BA1639F4000000000000000000C00000013000000112700003C0000000600000002000000E8C6FF1A2DCA9D40D01D512BA1639F4000000000000000004E2D668193B49D40D01D512BA1639F4000000000000000000C00000016000000000000C00C00000012000000FF7F00000C00000017000000000000000C
310
000000130000009A3A00003C0000000600000002000000E7C6FF1A2D739D40D01D512BA1639F4000000000000000004D2D668193B49D40D01D512BA1639F4000000000000000000C00000016000000000000C00C00000012000000FF7F00000C00000017000000FFFFFFFF0C0000003300000000000000
100
AcDbMLeader
300
CONTEXT_DATA{
 40
15.0
 10
1868.444048306002
 20
2008.907391803212
 30
0.0
 41
30.0
140
30.0
145
16.35
174
     6
175
     6
176
     2
177
     0
290
     1
304

 11
0.0
 21
0.0
 31
1.0
340
50
 12
1884.794048306002
 22
2038.907391803212
 32
0.0
 13
1.0
 23
0.0
 33
0.0
 42
0.0
 43
0.0
 44
0.0
 45
1.0
170
     1
 90
-1073741824
171
     3
172
     5
 91
-1073741824
141
0.0
 92
        0
291
     0
292
     0
173
     0
293
     0
142
0.0
143
0.0
294
     0
295
     0
296
     0
110
1962.5
120
2178.468251937897
130
0.0
111
1.0
121
0.0
131
0.0
112
0.0
122
1.0
132
0.0
297
     0
302
LEADER{
290
     1
291
     1
 10
1906.544048306003
 20
2008.907391803212
 30
0.0
 11
-1.0
 21
0.0
 31
0.0
 90
        0
 40
5.399999999999999
304
LEADER_LINE{
 10
1962.5
 20
2178.468251937897
 30
0.0
 91
        0
305
}
303
}
301
}
340
62
 90
   279552
170
     1
 91
-1056964608
341
56
171
    -2
290
     1
291
     1
 41
0.36
 42
2.0
172
     2
343
50
173
     6
 95
        6
174
     1
175
     2
 92
-1056964608
292
     0
 93
-1056964608
 10
1.0
 20
1.0
 30
1.0
 43
0.0
176
     0
293
     0
294
     0
178
     0
179
     3
 45
15.0
1001
ACAD_MLEADERVER
1070
     2
  0
MULTILEADER
  5
13A9
102
{ACAD_XDICTIONARY
360
13AA
102
}
102
{ACAD_REACTORS
330
13AB
102
}
330
67
100
AcDbEntity
  8
寸法
 92
     1064
310
280400001A0000000C00000016000000000000C00C00000033000000000000000C00000013000000993A0000BC000000260000003BAB73EE82E7AB40198E01D6C98D9440000000000000000000000000000000000000000000000000000000000000F03F000000000000F03F00000000000000000000000000000000C60300
310
0001000000010000000000000000003E40000000000000F03F0000000000000000000000000000F03F0000000000000000000000000000000000000000000000000000000001000000320000002DFF33FF200030FFB430B730C330AF30000000000000000000000000BC000000260000005308E8BFC83EAC40198E01D6C98D
310
9440000000000000000000000000000000000000000000000000000000000000F03F000000000000F03F0000000000000000000000000000000034002D003800000003000000010000000000000000003E40000000000000F03F0000000000000000000000000000F03F000000000000000000000000000000000000000000
310
000000000000000100000000000000000000007400780074002E00730068007800000000000000BC000000260000005308E8BFC8F2AC40198E01D6C98D9440000000000000000000000000000000000000000000000000000000000000F03F000000000000F03F000000000000000000000000000000002C67000001000000
310
010000000000000000003E40000000000000F03F0000000000000000000000000000F03F0000000000000000000000000000000000000000000000000000000001000000320000002DFF33FF200030FFB430B730C330AF300000680000000000000000000C00000033000000000000000C00000010000000050000000C0000
310
0016000000000000C00C00000012000000FF7F00000C00000013000000010000000C0000001400000001000000540000000700000003000000870AECD4E020A840742FE717B6B9964000000000000000000000000080EAA74038F575423AF09640000000000000000068B43484C726A8406EC49C35EEDF9640000000000000
310
00000C00000013000000891300003C0000000600000002000000775F902CD423A840F1F9C126D2CC96400000000000000000244EFF1CBDCDAB4030EB75A78F89944000000000000000000C00000013000000112700003C0000000600000002000000244EFF1CBDCDAB4030EB75A78F8994400000000000000000F11ACCE989
310
D8AB4030EB75A78F89944000000000000000000C00000016000000000000C00C00000012000000FF7F00000C00000017000000000000000C000000130000009A3A00003C0000000600000002000000F11ACCE989D8AB4030EB75A78F8994400000000000000000B07CB905A045AD4030EB75A78F8994400000000000000000
310
0C00000016000000000000C00C00000012000000FF7F00000C00000017000000FFFFFFFF0C0000003300000000000000
100
AcDbMLeader
300
CONTEXT_DATA{
 40
15.0
 10
3564.269361856736
 20
1314.390287249069
 30
0.0
 41
30.0
140
30.0
145
16.35
174
     6
175
     6
176
     0
177
     0
290
     1
304
{\fMS PGothic|b0|i0|c128|p50;φ}4-8{\fMS PGothic|b0|i0|c128|p50;本}
 11
0.0
 21
0.0
 31
1.0
340
50
 12
3580.619361856736
 22
1350.390287249069
 32
0.0
 13
1.0
 23
0.0
 33
0.0
 42
0.0
 43
0.0
 44
0.0
 45
1.0
170
     1
 90
-1073741824
171
     1
172
     5
 91
-1073741824
141
0.0
 92
        0
291
     0
292
     0
173
     0
293
     0
142
0.0
143
0.0
294
     0
295
     0
296
     0
110
3061.25
120
1468.056894152729
130
0.0
111
1.0
121
0.0
131
0.0
112
0.0
122
1.0
132
0.0
297
     0
302
LEADER{
290
     1
291
     1
 10
3558.869361856736
 20
1314.390287249069
 30
0.0
 11
1.0
 21
0.0
 31
0.0
 90
        0
 40
5.399999999999999
304
LEADER_LINE{
 10
3061.25
 20
1468.056894152729
 30
0.0
 91
        0
305
}
303
}
301
}
340
62
 90
   279552
170
     1
 91
-1056964608
341
56
171
    -2
290
     1
291
     1
 41
0.36
 42
2.0
172
     2
343
50
173
     6
 95
        6
174
     1
175
     0
 92
-1056964608
292
     0
 93
-1056964608
 10
1.0
 20
1.0
 30
1.0
 43
0.0
176
     0
293
     0
294
     0
178
     0
179
     1
 45
15.0
1001
ACAD_MLEADERVER
1070
     2
  0
MULTILEADER
  5
13AF
102
{ACAD_XDICTIONARY
360
13B0
102
}
102
{ACAD_REACTORS
330
13B1
102
}
330
67
100
AcDbEntity
  8
寸法
 92
      500
310
F4010000170000000C00000016000000000000C00C00000033000000000000000C00000013000000993A00000C00000033000000000000000C00000010000000050000000C00000016000000000000C00C00000012000000FF7F00000C00000013000000010000000C00000014000000010000005400000007000000030000
310
00E39531EDE333AB406AE268347A759640000000000000000001000000801EAB40A835ADC95CE7964000000000000000009C7F63B33345AB403E949A148289964000000000000000000C00000013000000891300003C0000000600000002000000C08A4AD08B3CAB4054BB81247E7F96400000000000000000244EFF1CBDCD
310
AB4030EB75A78F89944000000000000000000C00000013000000112700003C0000000600000002000000244EFF1CBDCDAB4030EB75A78F8994400000000000000000F11ACCE989D8AB4030EB75A78F89944000000000000000000C00000016000000000000C00C00000012000000FF7F00000C00000017000000000000000C
310
000000130000009A3A00003C0000000600000002000000F11ACCE989D8AB4030EB75A78F8994400000000000000000244EFF1C3DF9AB4030EB75A78F89944000000000000000000C00000016000000000000C00C00000012000000FF7F00000C00000017000000FFFFFFFF0C0000003300000000000000
100
AcDbMLeader
300
CONTEXT_DATA{
 40
15.0
 10
3564.269361856736
 20
1314.390287249069
 30
0.0
 41
30.0
140
30.0
145
16.35
174
     6
175
     6
176
     0
177
     0
290
     1
304

 11
0.0
 21
0.0
 31
1.0
340
50
 12
3580.619361856736
 22
1344.390287249069
 32
0.0
 13
1.0
 23
0.0
 33
0.0
 42
0.0
 43
0.0
 44
0.0
 45
1.0
170
     1
 90
-1073741824
171
     1
172
     5
 91
-1073741824
141
0.0
 92
        0
291
     0
292
     0
173
     0
293
     0
142
0.0
143
0.0
294
     0
295
     0
296
     0
110
3471.25
120
1465.840613085174
130
0.0
111
1.0
121
0.0
131
0.0
112
0.0
122
1.0
132
0.0
297
     0
302
LEADER{
290
     1
291
     1
 10
3558.869361856736
 20
1314.390287249069
 30
0.0
 11
1.0
 21
0.0
 31
0.0
 90
        0
 40
5.399999999999999
304
LEADER_LINE{
 10
3471.250000000001
 20
1465.840613085174
 30
0.0
 91
        0
305
}
303
}
301
}
340
62
 90
   279552
170
     1
 91
-1056964608
341
56
171
    -2
290
     1
291
     1
 41
0.36
 42
2.0
172
     2
343
50
173
     6
 95
        6
174
     1
175
     0
 92
-1056964608
292
     0
 93
-1056964608
 10
1.0
 20
1.0
 30
1.0
 43
0.0
176
     0
293
     0
294
     0
178
     0
179
     1
 45
15.0
1001
ACAD_MLEADERVER
1070
     2
  0
MULTILEADER
  5
13B2
102
{ACAD_XDICTIONARY
360
13B3
102
}
102
{ACAD_REACTORS
330
13B4
102
}
330
67
100
AcDbEntity
  8
寸法
 92
     1064
310
280400001A0000000C00000016000000000000C00C00000033000000000000000C00000013000000993A0000BC00000026000000BF3A40435EBAA540D1D9930348A49540000000000000000000000000000000000000000000000000000000000000F03F000000000000F03F00000000000000000000000000000000C60300
310
0001000000010000000000000000003E40000000000000F03F0000000000000000000000000000F03F0000000000000000000000000000000000000000000000000000000001000000320000002DFF33FF200030FFB430B730C330AF30000000000000000000000000BC00000026000000D797B414A411A640D1D9930348A4
310
9540000000000000000000000000000000000000000000000000000000000000F03F000000000000F03F0000000000000000000000000000000034002D003300000003000000010000000000000000003E40000000000000F03F0000000000000000000000000000F03F000000000000000000000000000000000000000000
310
000000000000000100000000000000000000007400780074002E00730068007800000000000000BC00000026000000D797B414A4C5A640D1D9930348A49540000000000000000000000000000000000000000000000000000000000000F03F000000000000F03F000000000000000000000000000000002C67000001000000
310
010000000000000000003E40000000000000F03F0000000000000000000000000000F03F0000000000000000000000000000000000000000000000000000000001000000320000002DFF33FF200030FFB430B730C330AF300000680000000000000000000C00000033000000000000000C00000010000000050000000C0000
310
0016000000000000C00C00000012000000FF7F00000C00000013000000010000000C0000001400000001000000540000000700000003000000F2A189604CBFA7402053A88FF79E974000000000000000000ECC73101EE4A7406D9CEFD9CDFF974000000000000000005A9BB6EBFDD0A740DB341B9E518C9740000000000000
310
00000C00000013000000891300003C0000000600000002000000A61E202625C8A740FDC3E196A49597400000000000000000340C865AFB43A740E83608D50DA0954000000000000000000C00000013000000112700003C0000000600000002000000340C865AFB43A740E83608D50DA095400000000000000000673FB98D2E
310
39A740E83608D50DA0954000000000000000000C00000016000000000000C00C00000012000000FF7F00000C00000017000000000000000C000000130000009A3A00003C0000000600000002000000A8DDCB7118CCA540E83608D50DA095400000000000000000673FB98D2E39A740E83608D50DA095400000000000000000
310
0C00000016000000000000C00C00000012000000FF7F00000C00000017000000FFFFFFFF0C0000003300000000000000
100
AcDbMLeader
300
CONTEXT_DATA{
 40
15.0
 10
2773.697743197258
 20
1384.013507965423
 30
0.0
 41
30.0
140
30.0
145
16.35
174
     6
175
     6
176
     2
177
     0
290
     1
304
{\fMS PGothic|b0|i0|c128|p50;φ}4-3{\fMS PGothic|b0|i0|c128|p50;本}
 11
0.0
 21
0.0
 31
1.0
340
50
 12
2956.240925015439
 22
1420.013507965423
 32
0.0
 13
1.0
 23
0.0
 33
0.0
 42
0.0
 43
0.0
 44
0.0
 45
1.0
170
     1
 90
-1073741824
171
     3
172
     5
 91
-1073741824
141
0.0
 92
        0
291
     0
292
     0
173
     0
293
     0
142
0.0
143
0.0
294
     0
295
     0
296
     0
110
3058.058719271335
120
1535.951026672289
130
0.0
111
1.0
121
0.0
131
0.0
112
0.0
122
1.0
132
0.0
297
     0
302
LEADER{
290
     1
291
     1
 10
2977.99092501544
 20
1384.013507965423
 30
0.0
 11
-1.0
 21
0.0
 31
0.0
 90
        0
 40
5.399999999999999
304
LEADER_LINE{
 10
3058.058719271335
 20
1535.951026672289
 30
0.0
 91
        0
305
}
303
}
301
}
340
62
 90
   279552
170
     1
 91
-1056964608
341
56
171
    -2
290
     1
291
     1
 41
0.36
 42
2.0
172
     2
343
50
173
     6
 95
        6
174
     1
175
     2
 92
-1056964608
292
     0
 93
-1056964608
 10
1.0
 20
1.0
 30
1.0
 43
0.0
176
     0
293
     0
294
     0
178
     0
179
     3
 45
15.0
1001
ACAD_MLEADERVER
1070
     2
  0
MULTILEADER
  5
13B5
102
{ACAD_XDICTIONARY
360
13B6
102
}
102
{ACAD_REACTORS
330
13B7
102
}
330
67
100
AcDbEntity
  8
寸法
 92
      500
310
F4010000170000000C00000016000000000000C00C00000033000000000000000C00000013000000993A00000C00000033000000000000000C00000010000000050000000C00000016000000000000C00C00000012000000FF7F00000C00000013000000010000000C00000014000000010000005400000007000000030000
310
005819050559A7A740CEEB2B86DF0996400000000000000000841E953280E2A740ED4C4EE5382696400000000000000000891BDB7024AFA740C193683609E5954000000000000000000C00000013000000891300003C0000000600000002000000701AF0BA3EABA740C83F4A5E74F795400000000000000000340C865AFB43
310
A740E83608D50DA0954000000000000000000C00000013000000112700003C0000000600000002000000340C865AFB43A740E83608D50DA095400000000000000000673FB98D2E39A740E83608D50DA0954000000000000000000C00000016000000000000C00C00000012000000FF7F00000C00000017000000000000000C
310
000000130000009A3A00003C0000000600000002000000340C865A7B18A740E83608D50DA095400000000000000000673FB98D2E39A740E83608D50DA0954000000000000000000C00000016000000000000C00C00000012000000FF7F00000C00000017000000FFFFFFFF0C0000003300000000000000
100
AcDbMLeader
300
CONTEXT_DATA{
 40
15.0
 10
2939.89092501544
 20
1384.013507965423
 30
0.0
 41
30.0
140
30.0
145
16.35
174
     6
175
     6
176
     2
177
     0
290
     1
304

 11
0.0
 21
0.0
 31
1.0
340
50
 12
2956.240925015439
 22
1414.013507965423
 32
0.0
 13
1.0
 23
0.0
 33
0.0
 42
0.0
 43
0.0
 44
0.0
 45
1.0
170
     1
 90
-1073741824
171
     3
172
     5
 91
-1073741824
141
0.0
 92
        0
291
     0
292
     0
173
     0
293
     0
142
0.0
143
0.0
294
     0
295
     0
296
     0
110
3057.250385913825
120
1417.555562232442
130
0.0
111
1.0
121
0.0
131
0.0
112
0.0
122
1.0
132
0.0
297
     0
302
LEADER{
290
     1
291
     1
 10
2977.99092501544
 20
1384.013507965423
 30
0.0
 11
-1.0
 21
0.0
 31
0.0
 90
        0
 40
5.399999999999999
304
LEADER_LINE{
 10
3057.250385913825
 20
1417.555562232442
 30
0.0
 91
        0
305
}
303
}
301
}
340
62
 90
   279552
170
     1
 91
-1056964608
341
56
171
    -2
290
     1
291
     1
 41
0.36
 42
2.0
172
     2
343
50
173
     6
 95
        6
174
     1
175
     2
 92
-1056964608
292
     0
 93
-1056964608
 10
1.0
 20
1.0
 30
1.0
 43
0.0
176
     0
293
     0
294
     0
178
     0
179
     3
 45
15.0
1001
ACAD_MLEADERVER
1070
     2
  0
MULTILEADER
  5
13B8
330
67
100
AcDbEntity
  8
寸法
 92
     1064
310
280400001A0000000C00000016000000000000C00C00000033000000000000000C00000013000000993A0000BC000000260000003BAB73EE82E7AB40C23117271FDF8A40000000000000000000000000000000000000000000000000000000000000F03F000000000000F03F00000000000000000000000000000000C60300
310
0001000000010000000000000000003E40000000000000F03F0000000000000000000000000000F03F0000000000000000000000000000000000000000000000000000000001000000320000002DFF33FF200030FFB430B730C330AF30000000000000000000000000BC000000260000005308E8BFC83EAC40C23117271FDF
310
8A40000000000000000000000000000000000000000000000000000000000000F03F000000000000F03F0000000000000000000000000000000034002D003800000003000000010000000000000000003E40000000000000F03F0000000000000000000000000000F03F000000000000000000000000000000000000000000
310
000000000000000100000000000000000000007400780074002E00730068007800000000000000BC000000260000005308E8BFC8F2AC40C23117271FDF8A40000000000000000000000000000000000000000000000000000000000000F03F000000000000F03F000000000000000000000000000000002C67000001000000
310
010000000000000000003E40000000000000F03F0000000000000000000000000000F03F0000000000000000000000000000000000000000000000000000000001000000320000002DFF33FF200030FFB430B730C330AF300000680000000000000000000C00000033000000000000000C00000010000000050000000C0000
310
0016000000000000C00C00000012000000FF7F00000C00000013000000010000000C0000001400000001000000540000000700000003000000870AECD4E020A8407974E2AAF7368F4000000000000000000000000080EAA7400100000000A48F40000000000000000068B43484C726A8406D9E4DE667838F40000000000000
310
00000C00000013000000891300003C0000000600000002000000775F902CD423A840730998C82F5D8F400000000000000000244EFF1CBDCDAB40F1EBFFC9AAD68A4000000000000000000C00000013000000112700003C0000000600000002000000244EFF1CBDCDAB40F1EBFFC9AAD68A400000000000000000F11ACCE989
310
D8AB40F1EBFFC9AAD68A4000000000000000000C00000016000000000000C00C00000012000000FF7F00000C00000017000000000000000C000000130000009A3A00003C0000000600000002000000F11ACCE989D8AB40F1EBFFC9AAD68A400000000000000000B07CB905A045AD40F1EBFFC9AAD68A400000000000000000
310
0C00000016000000000000C00C00000012000000FF7F00000C00000017000000FFFFFFFF0C0000003300000000000000
100
AcDbMLeader
300
CONTEXT_DATA{
 40
15.0
 10
3564.269361856736
 20
858.8333930963401
 30
0.0
 41
30.0
140
30.0
145
16.35
174
     6
175
     6
176
     0
177
     0
290
     1
304
{\fMS PGothic|b0|i0|c128|p50;φ}4-8{\fMS PGothic|b0|i0|c128|p50;本}
 11
0.0
 21
0.0
 31
1.0
340
50
 12
3580.619361856736
 22
894.83339309634
 32
0.0
 13
1.0
 23
0.0
 33
0.0
 42
0.0
 43
0.0
 44
0.0
 45
1.0
170
     1
 90
-1073741824
171
     1
172
     5
 91
-1073741824
141
0.0
 92
        0
291
     0
292
     0
173
     0
293
     0
142
0.0
143
0.0
294
     0
295
     0
296
     0
110
3061.25
120
1012.5
130
0.0
111
1.0
121
0.0
131
0.0
112
0.0
122
1.0
132
0.0
297
     0
302
LEADER{
290
     1
291
     1
 10
3558.869361856736
 20
858.8333930963401
 30
0.0
 11
1.0
 21
0.0
 31
0.0
 90
        0
 40
5.399999999999999
304
LEADER_LINE{
 10
3061.25
 20
1012.5
 30
0.0
 91
        0
305
}
303
}
301
}
340
62
 90
   279552
170
     1
 91
-1056964608
341
56
171
    -2
290
     1
291
     1
 41
0.36
 42
2.0
172
     2
343
50
173
     6
 95
        6
174
     1
175
     0
 92
-1056964608
292
     0
 93
-1056964608
 10
1.0
 20
1.0
 30
1.0
 43
0.0
176
     0
293
     0
294
     0
178
     0
179
     1
 45
15.0
1001
ACAD_MLEADERVER
1070
     2
  0
MULTILEADER
  5
13BB
330
67
100
AcDbEntity
  8
寸法
 92
      500
310
F4010000170000000C00000016000000000000C00C00000033000000000000000C00000013000000993A00000C00000033000000000000000C00000010000000050000000C00000016000000000000C00C00000012000000FF7F00000C00000013000000010000000C00000014000000010000005400000007000000030000
310
00E39531EDE333AB4065DAE5E37FAE8E40000000000000000001000000801EAB40E1806E0E45928F4000000000000000009C7F63B33345AB400E3E49A48FD68E4000000000000000000C00000013000000891300003C0000000600000002000000C08A4AD08B3CAB40398C17C487C28E400000000000000000244EFF1CBDCD
310
AB40F1EBFFC9AAD68A4000000000000000000C00000013000000112700003C0000000600000002000000244EFF1CBDCDAB40F1EBFFC9AAD68A400000000000000000F11ACCE989D8AB40F1EBFFC9AAD68A4000000000000000000C00000016000000000000C00C00000012000000FF7F00000C00000017000000000000000C
310
000000130000009A3A00003C0000000600000002000000F11ACCE989D8AB40F1EBFFC9AAD68A400000000000000000244EFF1C3DF9AB40F1EBFFC9AAD68A4000000000000000000C00000016000000000000C00C00000012000000FF7F00000C00000017000000FFFFFFFF0C0000003300000000000000
100
AcDbMLeader
300
CONTEXT_DATA{
 40
15.0
 10
3564.269361856736
 20
858.8333930963401
 30
0.0
 41
30.0
140
30.0
145
16.35
174
     6
175
     6
176
     0
177
     0
290
     1
304

 11
0.0
 21
0.0
 31
1.0
340
50
 12
3580.619361856736
 22
888.8333930963399
 32
0.0
 13
1.0
 23
0.0
 33
0.0
 42
0.0
 43
0.0
 44
0.0
 45
1.0
170
     1
 90
-1073741824
171
     1
172
     5
 91
-1073741824
141
0.0
 92
        0
291
     0
292
     0
173
     0
293
     0
142
0.0
143
0.0
294
     0
295
     0
296
     0
110
3471.25
120
1010.283718932445
130
0.0
111
1.0
121
0.0
131
0.0
112
0.0
122
1.0
132
0.0
297
     0
302
LEADER{
290
     1
291
     1
 10
3558.869361856736
 20
858.8333930963401
 30
0.0
 11
1.0
 21
0.0
 31
0.0
 90
        0
 40
5.399999999999999
304
LEADER_LINE{
 10
3471.250000000001
 20
1010.283718932445
 30
0.0
 91
        0
305
}
303
}
301
}
340
62
 90
   279552
170
     1
 91
-1056964608
341
56
171
    -2
290
     1
291
     1
 41
0.36
 42
2.0
172
     2
343
50
173
     6
 95
        6
174
     1
175
     0
 92
-1056964608
292
     0
 93
-1056964608
 10
1.0
 20
1.0
 30
1.0
 43
0.0
176
     0
293
     0
294
     0
178
     0
179
     1
 45
15.0
1001
ACAD_MLEADERVER
1070
     2
  0
MULTILEADER
  5
13BE
330
67
100
AcDbEntity
  8
寸法
 92
     1064
310
280400001A0000000C00000016000000000000C00C00000033000000000000000C00000013000000993A0000BC000000260000004F37B1904AD2A54031729D2A99588D40000000000000000000000000000000000000000000000000000000000000F03F000000000000F03F00000000000000000000000000000000C60300
310
0001000000010000000000000000003E40000000000000F03F0000000000000000000000000000F03F0000000000000000000000000000000000000000000000000000000001000000320000002DFF33FF200030FFB430B730C330AF30000000000000000000000000BC00000026000000679425629029A64031729D2A9958
310
8D40000000000000000000000000000000000000000000000000000000000000F03F000000000000F03F0000000000000000000000000000000034002D003200000003000000010000000000000000003E40000000000000F03F0000000000000000000000000000F03F000000000000000000000000000000000000000000
310
000000000000000100000000000000000000007400780074002E00730068007800000000000000BC000000260000006794256290DDA64031729D2A99588D40000000000000000000000000000000000000000000000000000000000000F03F000000000000F03F000000000000000000000000000000002C67000001000000
310
010000000000000000003E40000000000000F03F0000000000000000000000000000F03F0000000000000000000000000000000000000000000000000000000001000000320000002DFF33FF200030FFB430B730C330AF300000680000000000000000000C00000033000000000000000C00000010000000050000000C0000
310
0016000000000000C00C00000012000000FF7F00000C00000013000000010000000C00000014000000010000005400000007000000030000005933870F14BDA7401505648A512290400000000000000000B263AF07A6E3A7405C522FBA638090400000000000000000240B19026BCEA7401D82248B620E9040000000000000
310
00000C00000013000000891300003C00000006000000020000003E1FD088BFC5A7409943C40A5A1890400000000000000000C408F7A7E75BA740602C86CD24508D4000000000000000000C00000013000000112700003C0000000600000002000000C408F7A7E75BA740602C86CD24508D400000000000000000F73B2ADB1A
310
51A740602C86CD24508D4000000000000000000C00000016000000000000C00C00000012000000FF7F00000C00000017000000000000000C000000130000009A3A00003C000000060000000200000038DA3CBF04E4A540602C86CD24508D400000000000000000F73B2ADB1A51A740602C86CD24508D400000000000000000
310
0C00000016000000000000C00C00000012000000FF7F00000C00000017000000FFFFFFFF0C0000003300000000000000
100
AcDbMLeader
300
CONTEXT_DATA{
 40
15.0
 10
2785.659271527899
 20
938.0179701311389
 30
0.0
 41
30.0
140
30.0
145
16.35
174
     6
175
     6
176
     2
177
     0
290
     1
304
{\fMS PGothic|b0|i0|c128|p50;φ}4-2{\fMS PGothic|b0|i0|c128|p50;本}
 11
0.0
 21
0.0
 31
1.0
340
50
 12
2968.202453346081
 22
974.017970131139
 32
0.0
 13
1.0
 23
0.0
 33
0.0
 42
0.0
 43
0.0
 44
0.0
 45
1.0
170
     1
 90
-1073741824
171
     3
172
     5
 91
-1073741824
141
0.0
 92
        0
291
     0
292
     0
173
     0
293
     0
142
0.0
143
0.0
294
     0
295
     0
296
     0
110
3057.25
120
967.5000000000002
130
0.0
111
1.0
121
0.0
131
0.0
112
0.0
122
1.0
132
0.0
297
     0
302
LEADER{
290
     1
291
     1
 10
2989.952453346081
 20
938.0179701311389
 30
0.0
 11
-1.0
 21
0.0
 31
0.0
 90
        0
 40
5.399999999999999
304
LEADER_LINE{
 10
3057.824277382775
 20
1056.09738992634
 30
0.0
 91
        0
305
}
303
}
301
}
340
62
 90
   279552
170
     1
 91
-1056964608
341
56
171
    -2
290
     1
291
     1
 41
0.36
 42
2.0
172
     2
343
50
173
     6
 95
        6
174
     1
175
     2
 92
-1056964608
292
     0
 93
-1056964608
 10
1.0
 20
1.0
 30
1.0
 43
0.0
176
     0
293
     0
294
     0
178
     0
179
     3
 45
15.0
1001
ACAD_MLEADERVER
1070
     2
  0
MULTILEADER
  5
13D9
102
{ACAD_XDICTIONARY
360
13DD
102
}
102
{ACAD_REACTORS
330
13DE
102
}
330
67
100
AcDbEntity
  8
寸法
 92
      500
310
F4010000170000000C00000016000000000000C00C00000033000000000000000C00000013000000993A00000C00000033000000000000000C00000010000000050000000C00000016000000000000C00C00000012000000FF7F00000C00000013000000010000000C00000014000000010000005400000007000000030000
310
0096C10E9232C8A740DA80127B877899400000000000000000841E953280E2A740ED4C4EE538E69940000000000000000006CC184B68DBA740B69B11A3656D994000000000000000000C00000013000000891300003C0000000600000002000000CEC6936ECDD1A740480E128FF67299400000000000000000340C865AFB43
310
A740E83608D50DA0954000000000000000000C00000013000000112700003C0000000600000002000000340C865AFB43A740E83608D50DA095400000000000000000673FB98D2E39A740E83608D50DA0954000000000000000000C00000016000000000000C00C00000012000000FF7F00000C00000017000000000000000C
310
000000130000009A3A00003C0000000600000002000000340C865A7B18A740E83608D50DA095400000000000000000673FB98D2E39A740E83608D50DA0954000000000000000000C00000016000000000000C00C00000012000000FF7F00000C00000017000000FFFFFFFF0C0000003300000000000000
100
AcDbMLeader
300
CONTEXT_DATA{
 40
15.0
 10
2939.89092501544
 20
1384.013507965423
 30
0.0
 41
30.0
140
30.0
145
16.35
174
     6
175
     6
176
     2
177
     0
290
     1
304

 11
0.0
 21
0.0
 31
1.0
340
50
 12
2956.240925015439
 22
1414.013507965423
 32
0.0
 13
1.0
 23
0.0
 33
0.0
 42
0.0
 43
0.0
 44
0.0
 45
1.0
170
     1
 90
-1073741824
171
     3
172
     5
 91
-1073741824
141
0.0
 92
        0
291
     0
292
     0
173
     0
293
     0
142
0.0
143
0.0
294
     0
295
     0
296
     0
110
3057.250385913825
120
1657.555562232442
130
0.0
111
1.0
121
0.0
131
0.0
112
0.0
122
1.0
132
0.0
297
     0
302
LEADER{
290
     1
291
     1
 10
2977.99092501544
 20
1384.013507965423
 30
0.0
 11
-1.0
 21
0.0
 31
0.0
 90
        0
 40
5.399999999999999
304
LEADER_LINE{
 10
3057.250385913825
 20
1657.555562232442
 30
0.0
 91
        0
305
}
303
}
301
}
340
62
 90
   279552
170
     1
 91
-1056964608
341
56
171
    -2
290
     1
291
     1
 41
0.36
 42
2.0
172
     2
343
50
173
     6
 95
        6
174
     1
175
     2
 92
-1056964608
292
     0
 93
-1056964608
 10
1.0
 20
1.0
 30
1.0
 43
0.0
176
     0
293
     0
294
     0
178
     0
179
     3
 45
15.0
1001
ACAD_MLEADERVER
1070
     2
  0
MULTILEADER
  5
13DF
102
{ACAD_XDICTIONARY
360
13E0
102
}
102
{ACAD_REACTORS
330
13E1
102
}
330
67
100
AcDbEntity
  8
寸法
 92
      500
310
F4010000170000000C00000016000000000000C00C00000033000000000000000C00000013000000993A00000C00000033000000000000000C00000010000000050000000C00000016000000000000C00C00000012000000FF7F00000C00000013000000010000000C00000014000000010000005400000007000000030000
310
006C04629987A7A7403495128255008E400000000000000000FFFFFFFF7FE2A74002000000003C8E400000000000000000BCC0D7178EAFA74050C3E3A20EB78D4000000000000000000C00000013000000891300003C000000060000000200000094E29CD88AABA740422C7B12B2DB8D400000000000000000C408F7A7E75B
310
A740602C86CD24508D4000000000000000000C00000013000000112700003C0000000600000002000000C408F7A7E75BA740602C86CD24508D400000000000000000F73B2ADB1A51A740602C86CD24508D4000000000000000000C00000016000000000000C00C00000012000000FF7F00000C00000017000000000000000C
310
000000130000009A3A00003C0000000600000002000000C408F7A76730A740602C86CD24508D400000000000000000F73B2ADB1A51A740602C86CD24508D4000000000000000000C00000016000000000000C00C00000012000000FF7F00000C00000017000000FFFFFFFF0C0000003300000000000000
100
AcDbMLeader
300
CONTEXT_DATA{
 40
15.0
 10
2951.852453346081
 20
938.0179701311389
 30
0.0
 41
30.0
140
30.0
145
16.35
174
     6
175
     6
176
     2
177
     0
290
     1
304

 11
0.0
 21
0.0
 31
1.0
340
50
 12
2968.202453346081
 22
968.017970131139
 32
0.0
 13
1.0
 23
0.0
 33
0.0
 42
0.0
 43
0.0
 44
0.0
 45
1.0
170
     1
 90
-1073741824
171
     3
172
     5
 91
-1073741824
141
0.0
 92
        0
291
     0
292
     0
173
     0
293
     0
142
0.0
143
0.0
294
     0
295
     0
296
     0
110
3057.25
120
967.5000000000002
130
0.0
111
1.0
121
0.0
131
0.0
112
0.0
122
1.0
132
0.0
297
     0
302
LEADER{
290
     1
291
     1
 10
2989.952453346081
 20
938.0179701311389
 30
0.0
 11
-1.0
 21
0.0
 31
0.0
 90
        0
 40
5.399999999999999
304
LEADER_LINE{
 10
3057.25
 20
967.5000000000002
 30
0.0
 91
        0
305
}
303
}
301
}
340
62
 90
   279552
170
     1
 91
-1056964608
341
56
171
    -2
290
     1
291
     1
 41
0.36
 42
2.0
172
     2
343
50
173
     6
 95
        6
174
     1
175
     2
 92
-1056964608
292
     0
 93
-1056964608
 10
1.0
 20
1.0
 30
1.0
 43
0.0
176
     0
293
     0
294
     0
178
     0
179
     3
 45
15.0
1001
ACAD_MLEADERVER
1070
     2
  0
ENDSEC
  0
SECTION
  2
OBJECTS
  0
DICTIONARY
  5
C
330
0
100
AcDbDictionary
281
     1
  3
ACAD_CIP_PREVIOUS_PRODUCT_INFO
350
14E
  3
ACAD_COLOR
350
5E
  3
ACAD_GROUP
350
D
  3
ACAD_LAYOUT
350
5D
  3
ACAD_MATERIAL
350
10
  3
ACAD_MLEADERSTYLE
350
61
  3
ACAD_MLINESTYLE
350
5A
  3
ACAD_PLOTSETTINGS
350
5C
  3
ACAD_PLOTSTYLENAME
350
E
  3
ACAD_SCALELIST
350
3D
  3
ACAD_TABLESTYLE
350
5F
  3
ACAD_VISUALSTYLE
350
29
  3
ACDB_RECOMPOSE_DATA
350
1414
  3
AcDbVariableDictionary
350
8E
  0
DICTIONARY
  5
A1
330
2
100
AcDbDictionary
280
     1
281
     1
  3
ACAD_LAYERSTATES
360
A2
  0
DICTIONARY
  5
9C
330
67
100
AcDbDictionary
280
     1
281
     1
  3
ACAD_SORTENTS
360
9D
  0
DICTIONARY
  5
33F
330
330
100
AcDbDictionary
280
     1
281
     1
  3
ACAD_DIMASSOC
360
34B
  0
DICTIONARY
  5
359
330
34C
100
AcDbDictionary
280
     1
281
     1
  3
ACAD_DIMASSOC
360
363
  0
DICTIONARY
  5
493
330
484
100
AcDbDictionary
280
     1
281
     1
  3
ACAD_DIMASSOC
360
49F
  0
DICTIONARY
  5
4AF
330
4A0
100
AcDbDictionary
280
     1
281
     1
  3
ACAD_DIMASSOC
360
4BB
  0
DICTIONARY
  5
97D
330
970
100
AcDbDictionary
280
     1
281
     1
  3
ACAD_DIMASSOC
360
987
  0
DICTIONARY
  5
1328
330
1326
100
AcDbDictionary
280
     1
281
     1
  3
ACAD_DIMASSOC
360
1329
  0
DICTIONARY
  5
1338
330
1337
100
AcDbDictionary
280
     1
281
     1
  3
ACAD_DIMASSOC
360
1339
  0
DICTIONARY
  5
139F
330
139E
100
AcDbDictionary
280
     1
281
     1
  3
ACAD_DIMASSOC
360
13A0
  0
DICTIONARY
  5
13A2
330
13A1
100
AcDbDictionary
280
     1
281
     1
  3
ACAD_DIMASSOC
360
13A3
  0
DICTIONARY
  5
13A7
330
13A6
100
AcDbDictionary
280
     1
281
     1
  3
ACAD_DIMASSOC
360
13A8
  0
DICTIONARY
  5
13AA
330
13A9
100
AcDbDictionary
280
     1
281
     1
  3
ACAD_DIMASSOC
360
13AB
  0
DICTIONARY
  5
13B0
330
13AF
100
AcDbDictionary
280
     1
281
     1
  3
ACAD_DIMASSOC
360
13B1
  0
DICTIONARY
  5
13B3
330
13B2
100
AcDbDictionary
280
     1
281
     1
  3
ACAD_DIMASSOC
360
13B4
  0
DICTIONARY
  5
13B6
330
13B5
100
AcDbDictionary
280
     1
281
     1
  3
ACAD_DIMASSOC
360
13B7
  0
DICTIONARY
  5
13DD
330
13D9
100
AcDbDictionary
280
     1
281
     1
  3
ACAD_DIMASSOC
360
13DE
  0
DICTIONARY
  5
13E0
330
13DF
100
AcDbDictionary
280
     1
281
     1
  3
ACAD_DIMASSOC
360
13E1
  0
XRECORD
  5
14E
102
{ACAD_REACTORS
330
C
102
}
330
C
100
AcDbXrecord
280
     1
300
ACDLT
300
2012
300

  0
DICTIONARY
  5
5E
102
{ACAD_REACTORS
330
C
102
}
330
C
100
AcDbDictionary
281
     1
  0
DICTIONARY
  5
D
102
{ACAD_REACTORS
330
C
102
}
330
C
100
AcDbDictionary
281
     1
  0
DICTIONARY
  5
5D
102
{ACAD_REACTORS
330
C
102
}
330
C
100
AcDbDictionary
281
     1
  3
Model
350
6A
  3
レイアウト1
350
66
  3
レイアウト2
350
6E
  0
DICTIONARY
  5
10
102
{ACAD_REACTORS
330
C
102
}
330
C
100
AcDbDictionary
281
     1
  3
ByBlock
350
19
  3
ByLayer
350
11
  3
Global
350
21
  0
DICTIONARY
  5
61
102
{ACAD_REACTORS
330
C
102
}
330
C
100
AcDbDictionary
281
     1
  3
Standard
350
62
  0
DICTIONARY
  5
5A
102
{ACAD_REACTORS
330
C
102
}
330
C
100
AcDbDictionary
281
     1
  3
Standard
350
5B
  0
DICTIONARY
  5
5C
102
{ACAD_REACTORS
330
C
102
}
330
C
100
AcDbDictionary
281
     1
  0
ACDBDICTIONARYWDFLT
  5
E
102
{ACAD_REACTORS
330
C
102
}
330
C
100
AcDbDictionary
281
     1
  3
Normal
350
F
100
AcDbDictionaryWithDefault
340
F
  0
DICTIONARY
  5
3D
102
{ACAD_REACTORS
330
C
102
}
330
C
100
AcDbDictionary
281
     1
  3
A0
350
3E
  3
A1
350
3F
  3
A2
350
40
  3
A3
350
41
  3
A4
350
42
  3
A5
350
43
  3
A6
350
44
  3
A7
350
45
  3
A8
350
46
  3
A9
350
47
  3
B0
350
48
  3
B1
350
49
  3
B2
350
4A
  3
B3
350
4B
  3
B4
350
4C
  3
B5
350
4D
  3
B6
350
4E
  0
DICTIONARY
  5
5F
102
{ACAD_REACTORS
330
C
102
}
330
C
100
AcDbDictionary
281
     1
  3
Standard
350
60
  0
DICTIONARY
  5
29
102
{ACAD_REACTORS
330
C
102
}
330
C
100
AcDbDictionary
281
     1
  3
2dWireframe
350
2F
  3
3D Hidden
350
31
  3
3dWireframe
350
30
  3
Basic
350
2E
  3
Brighten
350
35
  3
ColorChange
350
39
  3
Conceptual
350
32
  3
Dim
350
34
  3
EdgeColorOff
350
3C
  3
Facepattern
350
38
  3
Flat
350
2A
  3
FlatWithEdges
350
2B
  3
Gouraud
350
2C
  3
GouraudWithEdges
350
2D
  3
Hidden
350
142
  3
JitterOff
350
3A
  3
Linepattern
350
37
  3
OverhangOff
350
3B
  3
Realistic
350
33
  3
Shaded
350
147
  3
Shaded with edges
350
146
  3
Shades of Gray
350
143
  3
Sketchy
350
144
  3
Thicken
350
36
  3
Wireframe
350
141
  3
X-Ray
350
145
  0
XRECORD
  5
1414
102
{ACAD_REACTORS
330
C
102
}
330
C
100
AcDbXrecord
280
     1
 90
        1
330
60
330
330
330
484
330
4A0
330
5B8
330
604
330
65A
330
676
330
6EA
330
70F
330
72B
330
78D
330
7A9
330
7FE
330
9F9
  0
DICTIONARY
  5
8E
102
{ACAD_REACTORS
330
C
102
}
330
C
100
AcDbDictionary
281
     1
  3
CANNOSCALE
350
91
  3
CMLEADERSTYLE
350
90
  3
CTABLESTYLE
350
8F
  3
MLEADERSCALE
350
831
  3
XCLIPFRAME
350
1412
  0
DICTIONARY
  5
A2
102
{ACAD_REACTORS
330
A1
102
}
330
A1
100
AcDbDictionary
281
     1
  0
SORTENTSTABLE
  5
9D
102
{ACAD_REACTORS
330
9C
102
}
330
9C
100
AcDbSortentsTable
330
67
331
C6
  5
C6
331
2A7
  5
970
331
2A3
  5
847
331
CE0
  5
110B
331
3F9
  5
D82
331
CDC
  5
E6B
331
110E
  5
1128
331
4A0
  5
E03
331
12AE
  5
1317
331
11F4
  5
11F6
331
E6A
  5
2A0
331
1267
  5
126A
331
12AA
  5
12AB
331
11F0
  5
11F2
331
1145
  5
1159
331
1141
  5
1155
331
12A6
  5
12A7
331
11EC
  5
11EE
331
12A2
  5
12A3
331
26F
  5
676
331
26B
  5
5B8
331
F0D
  5
330
331
E66
  5
298
331
9A
  5
9A
331
180
  5
20D
331
125F
  5
1266
331
129E
  5
129F
331
1135
  5
1151
331
129A
  5
129D
331
1178
  5
11EB
331
1131
  5
1149
331
124B
  5
1260
331
1174
  5
1176
331
1170
  5
1172
331
25B
  5
484
331
17C
  5
1E6
331
484
  5
DCC
331
174
  5
1DC
331
46C
  5
DCA
331
2EA
  5
CDB
331
1247
  5
1253
331
112D
  5
1145
331
970
  5
E67
331
1243
  5
124F
331
116C
  5
116E
331
1129
  5
1141
331
120F
  5
124C
331
1324
  5
131C
331
128A
  5
1297
331
1168
  5
1169
331
1125
  5
113D
331
120B
  5
120E
331
1160
  5
1165
331
131C
  5
131E
331
127A
  5
127B
331
24F
  5
3F9
331
D1
  5
D1
331
454
  5
D85
331
2D2
  5
CDA
331
CD
  5
CD
331
395
  5
CE0
331
E36
  5
1111
331
C9
  5
C9
331
958
  5
E66
331
E32
  5
110D
331
7A9
  5
E4B
331
6EA
  5
E34
331
1207
  5
120A
331
1119
  5
111F
331
1276
  5
1277
331
1115
  5
1121
331
1111
  5
1120
331
1154
  5
1160
331
126A
  5
126D
331
1150
  5
115C
331
C5
  5
C5
331
2A6
  5
958
331
2A2
  5
83A
331
78D
  5
E38
331
CDB
  5
E6A
331
11F7
  5
11FA
331
110D
  5
1126
331
12AD
  5
12AE
331
11F3
  5
11F5
331
1266
  5
1269
331
12A9
  5
12AA
331
11EF
  5
11F1
331
1144
  5
1158
331
1140
  5
1154
331
12A5
  5
12A6
331
11EB
  5
11ED
331
12A1
  5
12A2
331
676
  5
E33
331
26E
  5
659
331
F0C
  5
2EA
331
DCA
  5
1D8
331
65A
  5
E32
331
125E
  5
1265
331
129D
  5
129E
331
1134
  5
1150
331
1299
  5
129A
331
1177
  5
1179
331
1130
  5
1148
331
124A
  5
125F
331
1173
  5
1175
331
17F
  5
20C
331
17B
  5
1E5
331
177
  5
1DF
331
173
  5
1DB
331
EA4
  5
2D2
331
1246
  5
1252
331
116F
  5
1171
331
112C
  5
1144
331
1242
  5
124E
331
116B
  5
116D
331
1128
  5
1140
331
120E
  5
1220
331
1323
  5
131A
331
1167
  5
116A
331
1124
  5
113C
331
131F
  5
1321
331
120A
  5
120D
331
1279
  5
127A
331
24E
  5
39E
331
D4
  5
D4
331
D0
  5
D0
331
398
  5
D38
331
CC
  5
CC
331
E35
  5
1110
331
C8
  5
C8
331
E31
  5
110C
331
1206
  5
1209
331
115F
  5
1164
331
1118
  5
1129
331
1317
  5
1323
331
1275
  5
1276
331
1114
  5
112B
331
1157
  5
1163
331
11FA
  5
1208
331
1153
  5
115F
331
126D
  5
398
331
1110
  5
1132
331
1269
  5
126C
331
C4
  5
C4
331
236
  5
27B
331
847
  5
E65
331
2A1
  5
7FE
331
CDA
  5
E69
331
E6C
  5
2A1
331
11F6
  5
11F8
331
110C
  5
1124
331
102B
  5
78D
331
E68
  5
29A
331
12AC
  5
12AD
331
11F2
  5
11F4
331
1147
  5
115B
331
1143
  5
1157
331
12A8
  5
12A9
331
11EE
  5
11F0
331
12A4
  5
12A5
331
1261
  5
1268
331
12A0
  5
12A1
331
275
  5
747
331
34C
  5
CDD
331
26D
  5
604
331
E64
  5
295
331
113F
  5
1153
331
125D
  5
1264
331
1133
  5
114B
331
1298
  5
1299
331
1176
  5
1178
331
1249
  5
125E
331
1172
  5
1174
331
25D
  5
4A0
331
17E
  5
209
331
17A
  5
1E0
331
330
  5
CDC
331
176
  5
1DE
331
251
  5
46C
331
172
  5
1DA
331
112F
  5
1147
331
1245
  5
1251
331
116E
  5
1170
331
112B
  5
1143
331
E38
  5
111D
331
1241
  5
124D
331
1326
  5
132A
331
116A
  5
116C
331
1127
  5
113F
331
120D
  5
121F
331
1166
  5
1168
331
1123
  5
1135
331
1209
  5
120C
331
131E
  5
131F
331
1162
  5
1167
331
131A
  5
1326
331
1278
  5
1279
331
D3
  5
D3
331
CF
  5
CF
331
CB
  5
CB
331
E34
  5
110F
331
D81
  5
1D7
331
241
  5
27F
331
E30
  5
1D9
331
2A8
  5
9F9
331
1117
  5
1125
331
1274
  5
1275
331
1032
  5
7A9
331
1113
  5
1127
331
1156
  5
1162
331
11F9
  5
1207
331
1152
  5
115E
331
126C
  5
34C
331
1268
  5
126B
331
C7
  5
C7
331
235
  5
27A
331
CDD
  5
110A
331
110F
  5
112A
331
11F5
  5
11F7
331
110B
  5
1122
331
1146
  5
115A
331
12AB
  5
12AC
331
11F1
  5
11F3
331
1107
  5
111E
331
1142
  5
1156
331
12A7
  5
12A8
331
11ED
  5
11EF
331
12A3
  5
12A4
331
1260
  5
1267
331
274
  5
72B
331
270
  5
6EA
331
83A
  5
E64
331
9B
  5
9B
331
9F9
  5
E68
331
747
  5
E37
331
181
  5
20E
331
113E
  5
1152
331
129F
  5
12A0
331
1179
  5
11EC
331
124C
  5
1263
331
1175
  5
1177
331
1297
  5
1298
331
1132
  5
114A
331
1248
  5
125D
331
1171
  5
1173
331
25C
  5
411
331
17D
  5
200
331
604
  5
E31
331
EDE
  5
395
331
72B
  5
E36
331
175
  5
1DD
331
250
  5
454
331
112E
  5
1146
331
1244
  5
1250
331
116D
  5
116F
331
112A
  5
1142
331
1126
  5
113E
331
1169
  5
116B
331
1321
  5
1319
331
120C
  5
120F
331
1122
  5
1134
331
1208
  5
120B
331
127B
  5
1296
331
1161
  5
1166
331
1319
  5
1324
331
39E
  5
D81
331
D2
  5
D2
331
7FE
  5
E4C
331
70F
  5
E35
331
CE
  5
CE
331
E37
  5
111C
331
5B8
  5
E30
331
CA
  5
CA
331
E33
  5
110E
331
240
  5
27D
331
411
  5
D83
331
1277
  5
1278
331
D38
  5
1D6
331
1116
  5
1133
331
1112
  5
1123
331
1155
  5
1161
331
11F8
  5
1206
331
126B
  5
1274
331
1151
  5
115D
  0
DIMASSOC
  5
34B
102
{ACAD_REACTORS
330
33F
102
}
330
33F
100
AcDbDimAssoc
330
330
 90
        3
 70
     0
 71
     0
  1
AcDbOsnapPointRef
 72
    13
331
177
 73
     2
 91
        0
 40
0.0
 10
0.0
 20
0.0
 30
2.000000000000000E+50
 75
     0
  1
AcDbOsnapPointRef
 72
    13
331
175
 73
     2
 91
        0
 40
0.0
 10
0.0
 20
0.0
 30
2.000000000000000E+50
 75
     0
  0
DIMASSOC
  5
363
102
{ACAD_REACTORS
330
359
102
}
330
359
100
AcDbDimAssoc
330
34C
 90
        1
 70
     0
 71
     0
  1
AcDbOsnapPointRef
 72
     1
331
177
 73
     2
 91
        0
 40
1.0
 10
0.0
 20
0.0
 30
2.000000000000000E+50
 75
     0
  0
DIMASSOC
  5
49F
102
{ACAD_REACTORS
330
493
102
}
330
493
100
AcDbDimAssoc
330
484
 90
        1
 70
     0
 71
     0
  1
AcDbOsnapPointRef
 72
     1
331
26D
 73
     2
 91
        0
 40
1.0
 10
0.0
 20
0.0
 30
2.000000000000000E+50
 75
     0
  0
DIMASSOC
  5
4BB
102
{ACAD_REACTORS
330
4AF
102
}
330
4AF
100
AcDbDimAssoc
330
4A0
 90
        1
 70
     0
 71
     0
  1
AcDbOsnapPointRef
 72
    13
331
26E
 73
     2
 91
        0
 40
0.0
 10
0.0
 20
0.0
 30
2.000000000000000E+50
 75
     0
  0
DIMASSOC
  5
987
102
{ACAD_REACTORS
330
97D
102
}
330
97D
100
AcDbDimAssoc
330
970
 90
        2
 70
     0
 71
     0
  1
AcDbOsnapPointRef
 72
     1
331
2A6
 73
     2
 91
        2
 40
1.0
 10
0.0
 20
0.0
 30
2.000000000000000E+50
 75
     0
  0
DIMASSOC
  5
1329
102
{ACAD_REACTORS
330
1328
102
}
330
1328
100
AcDbDimAssoc
330
1326
 90
        1
 70
     0
 71
     0
  1
AcDbOsnapPointRef
 72
     1
331
1319
 73
     2
 91
        1
 40
1.0
 10
0.0
 20
0.0
 30
2.000000000000000E+50
 75
     0
  0
DIMASSOC
  5
1339
102
{ACAD_REACTORS
330
1338
102
}
330
1338
100
AcDbDimAssoc
330
1337
 90
        1
 70
     0
 71
     0
  1
AcDbOsnapPointRef
 72
     1
331
1335
 73
     2
 91
        1
 40
1.0
 10
0.0
 20
0.0
 30
2.000000000000000E+50
 75
     0
  0
DIMASSOC
  5
13A0
102
{ACAD_REACTORS
330
139F
102
}
330
139F
100
AcDbDimAssoc
330
139E
 90
        1
 70
     0
 71
     0
  1
AcDbOsnapPointRef
 72
    10
331
127A
 73
     2
 91
        0
 40
0.7940159258951879
 10
0.0
 20
0.0
 30
0.0
 75
     0
  0
DIMASSOC
  5
13A3
102
{ACAD_REACTORS
330
13A2
102
}
330
13A2
100
AcDbDimAssoc
330
13A1
 90
        1
 70
     0
 71
     0
  1
AcDbOsnapPointRef
 72
    10
331
127B
 73
     2
 91
        0
 40
0.8416052382306588
 10
0.0
 20
0.0
 30
0.0
 75
     0
  0
DIMASSOC
  5
13A8
102
{ACAD_REACTORS
330
13A7
102
}
330
13A7
100
AcDbDimAssoc
330
13A6
 90
        1
 70
     0
 71
     0
  1
AcDbOsnapPointRef
 72
    10
331
126B
 73
     2
 91
        4
 40
0.4829589659205593
 10
0.0
 20
0.0
 30
0.0
 75
     0
  0
DIMASSOC
  5
13AB
102
{ACAD_REACTORS
330
13AA
102
}
330
13AA
100
AcDbDimAssoc
330
13A9
 90
        1
 70
     0
 71
     0
  1
AcDbOsnapPointRef
 72
    10
331
1297
 73
     2
 91
        0
 40
0.7571966883232268
 10
0.0
 20
0.0
 30
0.0
 75
     0
  0
DIMASSOC
  5
13B1
102
{ACAD_REACTORS
330
13B0
102
}
330
13B0
100
AcDbDimAssoc
330
13AF
 90
        1
 70
     0
 71
     0
  1
AcDbOsnapPointRef
 72
    10
331
1298
 73
     2
 91
        0
 40
0.7654051367215759
 10
0.0
 20
0.0
 30
0.0
 75
     0
  0
DIMASSOC
  5
13B4
102
{ACAD_REACTORS
330
13B3
102
}
330
13B3
100
AcDbDimAssoc
330
13B2
 90
        1
 70
     0
 71
     0
  1
AcDbOsnapPointRef
 72
     9
331
129E
 73
     2
 91
        0
 40
4.074086110336244
 10
0.0
 20
0.0
 30
0.0
 75
     0
  0
DIMASSOC
  5
13B7
102
{ACAD_REACTORS
330
13B6
102
}
330
13B6
100
AcDbDimAssoc
330
13B5
 90
        1
 70
     0
 71
     0
  1
AcDbOsnapPointRef
 72
     5
331
129F
 73
     2
 91
        0
 40
3.141592653589793
 10
0.0
 20
0.0
 30
0.0
 75
     0
  0
DIMASSOC
  5
13DE
102
{ACAD_REACTORS
330
13DD
102
}
330
13DD
100
AcDbDimAssoc
330
13D9
 90
        1
 70
     0
 71
     0
  1
AcDbOsnapPointRef
 72
     5
331
129D
 73
     2
 91
        0
 40
3.141592653589793
 10
0.0
 20
0.0
 30
0.0
 75
     0
  0
DIMASSOC
  5
13E1
102
{ACAD_REACTORS
330
13E0
102
}
330
13E0
100
AcDbDimAssoc
330
13DF
 90
        1
 70
     0
 71
     0
  1
AcDbOsnapPointRef
 72
     5
331
12A5
 73
     2
 91
        0
 40
3.141592653589793
 10
0.0
 20
0.0
 30
0.0
 75
     0
  0
LAYOUT
  5
6A
102
{ACAD_XDICTIONARY
360
A7
102
}
102
{ACAD_REACTORS
330
5D
102
}
330
5D
100
AcDbPlotSettings
  1

  2
EPSON LP-S2000
  4
A4
  6

 40
5.873749732971191
 41
5.873748779296875
 42
5.873733520507812
 43
5.873748779296875
 44
209.9733276367187
 45
297.0106506347656
 46
1.278988826145763
 47
0.0
 48
150.0
 49
150.0
140
4305.0
141
3000.0
142
1.0
143
14.56549840101683
 70
 11956
 72
     1
 73
     1
 74
     4
  7

 75
     0
147
0.0686553918354204
 76
     0
 77
     2
 78
   300
148
-150.0
149
-150.0
100
AcDbLayout
  1
Model
 70
     1
 71
     0
 10
0.0
 20
0.0
 11
12.0
 21
9.0
 12
0.0
 22
0.0
 32
0.0
 14
0.0
 24
0.0
 34
0.0
 15
0.0
 25
0.0
 35
0.0
146
0.0
 13
0.0
 23
0.0
 33
0.0
 16
1.0
 26
0.0
 36
0.0
 17
0.0
 27
1.0
 37
0.0
 76
     0
330
67
331
52
1001
ACAD_PSEXT
1000
EPSON LP-S2000
1000
EPSON LP-S2000
1000
USB002
1000

1070
     0
  0
LAYOUT
  5
66
102
{ACAD_REACTORS
330
5D
102
}
330
5D
100
AcDbPlotSettings
  1

  2
Microsoft XPS Document Writer
  4

  6

 40
0.0
 41
0.0
 42
0.0
 43
0.0
 44
0.0
 45
0.0
 46
0.0
 47
0.0
 48
0.0
 49
0.0
140
0.0
141
0.0
142
1.0
143
1.0
 70
   688
 72
     0
 73
     0
 74
     5
  7

 75
    16
147
1.0
 76
     0
 77
     2
 78
   300
148
0.0
149
0.0
100
AcDbLayout
  1
レイアウト1
 70
     1
 71
     1
 10
0.0
 20
0.0
 11
420.0
 21
297.0
 12
0.0
 22
0.0
 32
0.0
 14
1.000000000000000E+20
 24
1.000000000000000E+20
 34
1.000000000000000E+20
 15
-1.000000000000000E+20
 25
-1.000000000000000E+20
 35
-1.000000000000000E+20
146
0.0
 13
0.0
 23
0.0
 33
0.0
 16
1.0
 26
0.0
 36
0.0
 17
0.0
 27
1.0
 37
0.0
 76
     0
330
63
  0
LAYOUT
  5
6E
102
{ACAD_REACTORS
330
5D
102
}
330
5D
100
AcDbPlotSettings
  1

  2
Microsoft XPS Document Writer
  4

  6

 40
0.0
 41
0.0
 42
0.0
 43
0.0
 44
0.0
 45
0.0
 46
0.0
 47
0.0
 48
0.0
 49
0.0
140
0.0
141
0.0
142
1.0
143
1.0
 70
   688
 72
     0
 73
     0
 74
     5
  7

 75
    16
147
1.0
 76
     0
 77
     2
 78
   300
148
0.0
149
0.0
100
AcDbLayout
  1
レイアウト2
 70
     1
 71
     2
 10
0.0
 20
0.0
 11
12.0
 21
9.0
 12
0.0
 22
0.0
 32
0.0
 14
0.0
 24
0.0
 34
0.0
 15
0.0
 25
0.0
 35
0.0
146
0.0
 13
0.0
 23
0.0
 33
0.0
 16
1.0
 26
0.0
 36
0.0
 17
0.0
 27
1.0
 37
0.0
 76
     0
330
6B
  0
MATERIAL
  5
19
102
{ACAD_XDICTIONARY
360
1A
102
}
102
{ACAD_REACTORS
330
10
102
}
330
10
100
AcDbMaterial
  1
ByBlock
 72
     0
 43
0.0208333333333333
 43
0.0
 43
0.0
 43
0.0
 43
0.0
 43
0.0208333333333333
 43
0.0
 43
0.0
 43
0.0
 43
0.0
 43
1.0
 43
0.0
 43
0.0
 43
0.0
 43
0.0
 43
1.0
 77
     0
 47
0.0208333333333333
 47
0.0
 47
0.0
 47
0.0
 47
0.0
 47
0.0208333333333333
 47
0.0
 47
0.0
 47
0.0
 47
0.0
 47
1.0
 47
0.0
 47
0.0
 47
0.0
 47
0.0
 47
1.0
171
     0
 49
0.0208333333333333
 49
0.0
 49
0.0
 49
0.0
 49
0.0
 49
0.0208333333333333
 49
0.0
 49
0.0
 49
0.0
 49
0.0
 49
1.0
 49
0.0
 49
0.0
 49
0.0
 49
0.0
 49
1.0
175
     0
142
0.0208333333333333
142
0.0
142
0.0
142
0.0
142
0.0
142
0.0208333333333333
142
0.0
142
0.0
142
0.0
142
0.0
142
1.0
142
0.0
142
0.0
142
0.0
142
0.0
142
1.0
179
     0
144
0.0208333333333333
144
0.0
144
0.0
144
0.0
144
0.0
144
0.0208333333333333
144
0.0
144
0.0
144
0.0
144
0.0
144
1.0
144
0.0
144
0.0
144
0.0
144
0.0
144
1.0
147
0.0208333333333333
147
0.0
147
0.0
147
0.0
147
0.0
147
0.0208333333333333
147
0.0
147
0.0
147
0.0
147
0.0
147
1.0
147
0.0
147
0.0
147
0.0
147
0.0
147
1.0
  0
MATERIAL
  5
11
102
{ACAD_XDICTIONARY
360
12
102
}
102
{ACAD_REACTORS
330
10
102
}
330
10
100
AcDbMaterial
  1
ByLayer
 72
     0
 43
0.0208333333333333
 43
0.0
 43
0.0
 43
0.0
 43
0.0
 43
0.0208333333333333
 43
0.0
 43
0.0
 43
0.0
 43
0.0
 43
1.0
 43
0.0
 43
0.0
 43
0.0
 43
0.0
 43
1.0
 77
     0
 47
0.0208333333333333
 47
0.0
 47
0.0
 47
0.0
 47
0.0
 47
0.0208333333333333
 47
0.0
 47
0.0
 47
0.0
 47
0.0
 47
1.0
 47
0.0
 47
0.0
 47
0.0
 47
0.0
 47
1.0
171
     0
 49
0.0208333333333333
 49
0.0
 49
0.0
 49
0.0
 49
0.0
 49
0.0208333333333333
 49
0.0
 49
0.0
 49
0.0
 49
0.0
 49
1.0
 49
0.0
 49
0.0
 49
0.0
 49
0.0
 49
1.0
175
     0
142
0.0208333333333333
142
0.0
142
0.0
142
0.0
142
0.0
142
0.0208333333333333
142
0.0
142
0.0
142
0.0
142
0.0
142
1.0
142
0.0
142
0.0
142
0.0
142
0.0
142
1.0
179
     0
144
0.0208333333333333
144
0.0
144
0.0
144
0.0
144
0.0
144
0.0208333333333333
144
0.0
144
0.0
144
0.0
144
0.0
144
1.0
144
0.0
144
0.0
144
0.0
144
0.0
144
1.0
147
0.0208333333333333
147
0.0
147
0.0
147
0.0
147
0.0
147
0.0208333333333333
147
0.0
147
0.0
147
0.0
147
0.0
147
1.0
147
0.0
147
0.0
147
0.0
147
0.0
147
1.0
  0
MATERIAL
  5
21
102
{ACAD_XDICTIONARY
360
22
102
}
102
{ACAD_REACTORS
330
10
102
}
330
10
100
AcDbMaterial
  1
Global
 72
     0
 43
0.0208333333333333
 43
0.0
 43
0.0
 43
0.0
 43
0.0
 43
0.0208333333333333
 43
0.0
 43
0.0
 43
0.0
 43
0.0
 43
1.0
 43
0.0
 43
0.0
 43
0.0
 43
0.0
 43
1.0
 77
     0
 47
0.0208333333333333
 47
0.0
 47
0.0
 47
0.0
 47
0.0
 47
0.0208333333333333
 47
0.0
 47
0.0
 47
0.0
 47
0.0
 47
1.0
 47
0.0
 47
0.0
 47
0.0
 47
0.0
 47
1.0
171
     0
 49
0.0208333333333333
 49
0.0
 49
0.0
 49
0.0
 49
0.0
 49
0.0208333333333333
 49
0.0
 49
0.0
 49
0.0
 49
0.0
 49
1.0
 49
0.0
 49
0.0
 49
0.0
 49
0.0
 49
1.0
175
     0
142
0.0208333333333333
142
0.0
142
0.0
142
0.0
142
0.0
142
0.0208333333333333
142
0.0
142
0.0
142
0.0
142
0.0
142
1.0
142
0.0
142
0.0
142
0.0
142
0.0
142
1.0
179
     0
144
0.0208333333333333
144
0.0
144
0.0
144
0.0
144
0.0
144
0.0208333333333333
144
0.0
144
0.0
144
0.0
144
0.0
144
1.0
144
0.0
144
0.0
144
0.0
144
0.0
144
1.0
147
0.0208333333333333
147
0.0
147
0.0
147
0.0
147
0.0
147
0.0208333333333333
147
0.0
147
0.0
147
0.0
147
0.0
147
1.0
147
0.0
147
0.0
147
0.0
147
0.0
147
1.0
  0
MLEADERSTYLE
  5
62
102
{ACAD_REACTORS
330
61
330
1326
330
132B
330
132E
330
132F
330
1330
330
1337
330
133A
330
133B
330
133C
330
133D
330
139E
330
13A1
330
13A4
330
13A5
330
13A6
330
13A9
330
13AF
330
13B2
330
13B5
330
13B8
330
13BB
330
13BE
330
13D9
330
13DF
102
}
330
61
100
AcDbMLeaderStyle
170
     2
171
     1
172
     0
 90
        2
 40
0.0
 41
0.0
173
     1
 91
-1056964608
340
56
 92
       -2
290
     1
 42
1.09
291
     1
 43
0.36
  3
Standard
 44
2.0
300

342
50
174
     6
178
     6
175
     1
176
     0
 93
-1056964608
 45
2.0
292
     0
297
     0
 46
0.18
 94
-1056964608
 47
1.0
 49
1.0
140
1.0
293
     1
141
0.0
294
     1
177
     0
142
15.0
295
     0
296
     0
143
1.125
1001
ACAD_MLEADERVER
1070
     2
  0
MLINESTYLE
  5
5B
102
{ACAD_REACTORS
330
5A
102
}
330
5A
100
AcDbMlineStyle
  2
STANDARD
 70
     0
  3

 62
   256
 51
90.0
 52
90.0
 71
     2
 49
0.5
 62
   256
  6
BYLAYER
 49
-0.5
 62
   256
  6
BYLAYER
  0
ACDBPLACEHOLDER
  5
F
102
{ACAD_REACTORS
330
E
102
}
330
E
  0
SCALE
  5
3E
102
{ACAD_REACTORS
330
3D
102
}
330
3D
100
AcDbScale
 70
     0
300
1:1
140
1.0
141
1.0
290
     1
  0
SCALE
  5
3F
102
{ACAD_REACTORS
330
3D
102
}
330
3D
100
AcDbScale
 70
     0
300
1:2
140
1.0
141
2.0
290
     0
  0
SCALE
  5
40
102
{ACAD_REACTORS
330
3D
102
}
330
3D
100
AcDbScale
 70
     0
300
1:4
140
1.0
141
4.0
290
     0
  0
SCALE
  5
41
102
{ACAD_REACTORS
330
3D
102
}
330
3D
100
AcDbScale
 70
     0
300
1:5
140
1.0
141
5.0
290
     0
  0
SCALE
  5
42
102
{ACAD_REACTORS
330
3D
102
}
330
3D
100
AcDbScale
 70
     0
300
1:8
140
1.0
141
8.0
290
     0
  0
SCALE
  5
43
102
{ACAD_REACTORS
330
3D
102
}
330
3D
100
AcDbScale
 70
     0
300
1:10
140
1.0
141
10.0
290
     0
  0
SCALE
  5
44
102
{ACAD_REACTORS
330
3D
102
}
330
3D
100
AcDbScale
 70
     0
300
1:16
140
1.0
141
16.0
290
     0
  0
SCALE
  5
45
102
{ACAD_REACTORS
330
3D
102
}
330
3D
100
AcDbScale
 70
     0
300
1:20
140
1.0
141
20.0
290
     0
  0
SCALE
  5
46
102
{ACAD_REACTORS
330
3D
102
}
330
3D
100
AcDbScale
 70
     0
300
1:30
140
1.0
141
30.0
290
     0
  0
SCALE
  5
47
102
{ACAD_REACTORS
330
3D
102
}
330
3D
100
AcDbScale
 70
     0
300
1:40
140
1.0
141
40.0
290
     0
  0
SCALE
  5
48
102
{ACAD_REACTORS
330
3D
102
}
330
3D
100
AcDbScale
 70
     0
300
1:50
140
1.0
141
50.0
290
     0
  0
SCALE
  5
49
102
{ACAD_REACTORS
330
3D
102
}
330
3D
100
AcDbScale
 70
     0
300
1:100
140
1.0
141
100.0
290
     0
  0
SCALE
  5
4A
102
{ACAD_REACTORS
330
3D
102
}
330
3D
100
AcDbScale
 70
     0
300
2:1
140
2.0
141
1.0
290
     0
  0
SCALE
  5
4B
102
{ACAD_REACTORS
330
3D
102
}
330
3D
100
AcDbScale
 70
     0
300
4:1
140
4.0
141
1.0
290
     0
  0
SCALE
  5
4C
102
{ACAD_REACTORS
330
3D
102
}
330
3D
100
AcDbScale
 70
     0
300
8:1
140
8.0
141
1.0
290
     0
  0
SCALE
  5
4D
102
{ACAD_REACTORS
330
3D
102
}
330
3D
100
AcDbScale
 70
     0
300
10:1
140
10.0
141
1.0
290
     0
  0
SCALE
  5
4E
102
{ACAD_REACTORS
330
3D
102
}
330
3D
100
AcDbScale
 70
     0
300
100:1
140
100.0
141
1.0
290
     0
  0
TABLESTYLE
  5
60
102
{ACAD_XDICTIONARY
360
ED
102
}
102
{ACAD_REACTORS
330
5F
102
}
330
5F
100
AcDbTableStyle
  3
Standard
 70
     0
 71
     0
 40
1.5
 41
1.5
280
     0
281
     0
  7
Standard
140
4.5
170
     2
 62
     0
 63
     7
283
     0
 90
      512
 91
        0
  1

274
    -2
284
     1
 64
     0
275
    -2
285
     1
 65
     0
276
    -2
286
     1
 66
     0
277
    -2
287
     1
 67
     0
278
    -2
288
     1
 68
     0
279
    -2
289
     1
 69
     0
  7
Standard
140
6.0
170
     5
 62
     0
 63
     7
283
     0
 90
      512
 91
        0
  1

274
    -2
284
     1
 64
     0
275
    -2
285
     1
 65
     0
276
    -2
286
     1
 66
     0
277
    -2
287
     1
 67
     0
278
    -2
288
     1
 68
     0
279
    -2
289
     1
 69
     0
  7
Standard
140
4.5
170
     5
 62
     0
 63
     7
283
     0
 90
      512
 91
        0
  1

274
    -2
284
     1
 64
     0
275
    -2
285
     1
 65
     0
276
    -2
286
     1
 66
     0
277
    -2
287
     1
 67
     0
278
    -2
288
     1
 68
     0
279
    -2
289
     1
 69
     0
  0
VISUALSTYLE
  5
2F
102
{ACAD_XDICTIONARY
360
141F
102
}
102
{ACAD_REACTORS
330
29
102
}
330
29
100
AcDbVisualStyle
  2
2dWireframe
 70
     4
 71
     0
 72
     2
 73
     0
 90
        0
 40
-0.6
 41
-30.0
 62
     5
 63
     7
421
 16777215
 74
     1
 91
        4
 64
     7
 65
   257
 75
     1
175
     1
 42
1.0
 92
        0
 66
   257
 43
1.0
 76
     1
 77
     6
 78
     2
 67
     7
 79
     5
170
     0
171
     0
290
     0
174
     0
 93
        1
 44
0.0
173
     0
291
     0
 45
0.0
1001
ACAD
1000
AcDbSavedByObjectVersion
1070
     0
  0
VISUALSTYLE
  5
31
102
{ACAD_XDICTIONARY
360
1423
102
}
102
{ACAD_REACTORS
330
29
102
}
330
29
100
AcDbVisualStyle
  2
3D Hidden
 70
     6
 71
     1
 72
     2
 73
     2
 90
        0
 40
-0.6
 41
-30.0
 62
     5
 63
     7
421
 16777215
 74
     2
 91
        2
 64
     7
 65
   257
 75
     2
175
     1
 42
179.0
 92
        0
 66
   257
 43
1.0
 76
     1
 77
     6
 78
     2
 67
     7
 79
     3
170
     0
171
     0
290
     0
174
     0
 93
        1
 44
0.0
173
     0
291
     0
 45
0.0
1001
ACAD
1000
AcDbSavedByObjectVersion
1070
     0
  0
VISUALSTYLE
  5
30
102
{ACAD_XDICTIONARY
360
1421
102
}
102
{ACAD_REACTORS
330
29
102
}
330
29
100
AcDbVisualStyle
  2
3dWireframe
 70
     5
 71
     0
 72
     2
 73
     0
 90
        0
 40
-0.6
 41
-30.0
 62
     5
 63
     7
421
 16777215
 74
     1
 91
        4
 64
     7
 65
   257
 75
     1
175
     1
 42
1.0
 92
        0
 66
   257
 43
1.0
 76
     1
 77
     6
 78
     2
 67
     7
 79
     5
170
     0
171
     0
290
     0
174
     0
 93
        1
 44
0.0
173
     0
291
     0
 45
0.0
1001
ACAD
1000
AcDbSavedByObjectVersion
1070
     0
  0
VISUALSTYLE
  5
2E
102
{ACAD_XDICTIONARY
360
141D
102
}
102
{ACAD_REACTORS
330
29
102
}
330
29
100
AcDbVisualStyle
  2
Basic
 70
     7
 71
     1
 72
     0
 73
     1
 90
        0
 40
-0.6
 41
-30.0
 62
     5
 63
     7
421
 16777215
 74
     0
 91
        4
 64
     7
 65
   257
 75
     1
175
     1
 42
1.0
 92
        8
 66
     7
 43
1.0
 76
     1
 77
     6
 78
     2
 67
     7
 79
     5
170
     0
171
     0
290
     0
174
     0
 93
        1
 44
0.0
173
     0
291
     1
 45
0.0
1001
ACAD
1000
AcDbSavedByObjectVersion
1070
     0
  0
VISUALSTYLE
  5
35
102
{ACAD_XDICTIONARY
360
142B
102
}
102
{ACAD_REACTORS
330
29
102
}
330
29
100
AcDbVisualStyle
  2
Brighten
 70
    12
 71
     2
 72
     2
 73
     0
 90
        0
 40
-0.6
 41
-30.0
 62
     5
 63
     7
421
 16777215
 74
     1
 91
        4
 64
     7
 65
   257
 75
     1
175
     1
 42
1.0
 92
        8
 66
     7
 43
1.0
 76
     1
 77
     6
 78
     2
 67
     7
 79
     5
170
     0
171
     0
290
     0
174
     0
 93
        1
 44
50.0
173
     0
291
     1
 45
0.0
1001
ACAD
1000
AcDbSavedByObjectVersion
1070
     0
  0
VISUALSTYLE
  5
39
102
{ACAD_XDICTIONARY
360
1433
102
}
102
{ACAD_REACTORS
330
29
102
}
330
29
100
AcDbVisualStyle
  2
ColorChange
 70
    16
 71
     2
 72
     2
 73
     3
 90
        0
 40
-0.6
 41
-30.0
 62
     5
 63
     8
421
  8421504
 74
     1
 91
        4
 64
     7
 65
   257
 75
     1
175
     1
 42
1.0
 92
        8
 66
     8
424
  8421504
 43
1.0
 76
     1
 77
     6
 78
     2
 67
     7
 79
     5
170
     0
171
     0
290
     0
174
     0
 93
        1
 44
0.0
173
     0
291
     1
 45
0.0
1001
ACAD
1000
AcDbSavedByObjectVersion
1070
     0
  0
VISUALSTYLE
  5
32
102
{ACAD_XDICTIONARY
360
1425
102
}
102
{ACAD_REACTORS
330
29
102
}
330
29
100
AcDbVisualStyle
  2
Conceptual
 70
     9
 71
     3
 72
     2
 73
     0
 90
        0
 40
-0.6
 41
-30.0
 62
     5
 63
     7
421
 16777215
 74
     2
 91
        2
 64
     7
 65
   257
 75
     1
175
     1
 42
179.0
 92
        8
 66
     7
 43
1.0
 76
     1
 77
     6
 78
     2
 67
     7
 79
     3
170
     0
171
     0
290
     0
174
     0
 93
        1
 44
0.0
173
     0
291
     0
 45
0.0
1001
ACAD
1000
AcDbSavedByObjectVersion
1070
     0
  0
VISUALSTYLE
  5
34
102
{ACAD_XDICTIONARY
360
1429
102
}
102
{ACAD_REACTORS
330
29
102
}
330
29
100
AcDbVisualStyle
  2
Dim
 70
    11
 71
     2
 72
     2
 73
     0
 90
        0
 40
-0.6
 41
-30.0
 62
     5
 63
     7
421
 16777215
 74
     1
 91
        4
 64
     7
 65
   257
 75
     1
175
     1
 42
1.0
 92
        8
 66
     7
 43
1.0
 76
     1
 77
     6
 78
     2
 67
     7
 79
     5
170
     0
171
     0
290
     0
174
     0
 93
        1
 44
-50.0
173
     0
291
     1
 45
0.0
1001
ACAD
1000
AcDbSavedByObjectVersion
1070
     0
  0
VISUALSTYLE
  5
3C
102
{ACAD_XDICTIONARY
360
1439
102
}
102
{ACAD_REACTORS
330
29
102
}
330
29
100
AcDbVisualStyle
  2
EdgeColorOff
 70
    22
 71
     2
 72
     2
 73
     0
 90
        0
 40
-0.6
 41
-30.0
 62
     5
 63
     7
421
 16777215
 74
     1
 91
        4
 64
     7
 65
   257
 75
     1
175
     1
 42
1.0
 92
        8
 66
     7
 43
1.0
 76
     1
 77
     6
 78
     2
 67
     7
 79
     5
170
     0
171
     0
290
     0
174
     0
 93
        1
 44
0.0
173
     0
291
     1
 45
0.0
1001
ACAD
1000
AcDbSavedByObjectVersion
1070
     0
  0
VISUALSTYLE
  5
38
102
{ACAD_XDICTIONARY
360
1431
102
}
102
{ACAD_REACTORS
330
29
102
}
330
29
100
AcDbVisualStyle
  2
Facepattern
 70
    15
 71
     2
 72
     2
 73
     0
 90
        0
 40
-0.6
 41
-30.0
 62
     5
 63
     7
421
 16777215
 74
     1
 91
        4
 64
     7
 65
   257
 75
     1
175
     1
 42
1.0
 92
        8
 66
     7
 43
1.0
 76
     1
 77
     6
 78
     2
 67
     7
 79
     5
170
     0
171
     0
290
     0
174
     0
 93
        1
 44
0.0
173
     0
291
     1
 45
0.0
1001
ACAD
1000
AcDbSavedByObjectVersion
1070
     0
  0
VISUALSTYLE
  5
2A
102
{ACAD_XDICTIONARY
360
1415
102
}
102
{ACAD_REACTORS
330
29
102
}
330
29
100
AcDbVisualStyle
  2
Flat
 70
     0
 71
     2
 72
     1
 73
     1
 90
        2
 40
-0.6
 41
30.0
 62
     5
 63
     7
421
 16777215
 74
     0
 91
        4
 64
     7
 65
   257
 75
     1
175
     1
 42
1.0
 92
        8
 66
     7
 43
1.0
 76
     1
 77
     6
 78
     2
 67
     7
 79
     5
170
     0
171
     0
290
     0
174
     0
 93
       13
 44
0.0
173
     0
291
     1
 45
0.0
1001
ACAD
1000
AcDbSavedByObjectVersion
1070
     0
  0
VISUALSTYLE
  5
2B
102
{ACAD_XDICTIONARY
360
1417
102
}
102
{ACAD_REACTORS
330
29
102
}
330
29
100
AcDbVisualStyle
  2
FlatWithEdges
 70
     1
 71
     2
 72
     1
 73
     1
 90
        2
 40
-0.6
 41
30.0
 62
     5
 63
     7
421
 16777215
 74
     1
 91
        4
 64
     7
 65
   257
 75
     1
175
     1
 42
1.0
 92
        0
 66
   257
 43
1.0
 76
     1
 77
     6
 78
     2
 67
     7
 79
     5
170
     0
171
     0
290
     0
174
     0
 93
       13
 44
0.0
173
     0
291
     1
 45
0.0
1001
ACAD
1000
AcDbSavedByObjectVersion
1070
     0
  0
VISUALSTYLE
  5
2C
102
{ACAD_XDICTIONARY
360
1419
102
}
102
{ACAD_REACTORS
330
29
102
}
330
29
100
AcDbVisualStyle
  2
Gouraud
 70
     2
 71
     2
 72
     2
 73
     1
 90
        2
 40
-0.6
 41
30.0
 62
     5
 63
     7
421
 16777215
 74
     0
 91
        4
 64
     7
 65
   257
 75
     1
175
     1
 42
1.0
 92
        0
 66
     7
 43
1.0
 76
     1
 77
     6
 78
     2
 67
     7
 79
     5
170
     0
171
     0
290
     0
174
     0
 93
       13
 44
0.0
173
     0
291
     1
 45
0.0
1001
ACAD
1000
AcDbSavedByObjectVersion
1070
     0
  0
VISUALSTYLE
  5
2D
102
{ACAD_XDICTIONARY
360
141B
102
}
102
{ACAD_REACTORS
330
29
102
}
330
29
100
AcDbVisualStyle
  2
GouraudWithEdges
 70
     3
 71
     2
 72
     2
 73
     1
 90
        2
 40
-0.6
 41
30.0
 62
     5
 63
     7
421
 16777215
 74
     1
 91
        4
 64
     7
 65
   257
 75
     1
175
     1
 42
1.0
 92
        0
 66
   257
 43
1.0
 76
     1
 77
     6
 78
     2
 67
     7
 79
     5
170
     0
171
     0
290
     0
174
     0
 93
       13
 44
0.0
173
     0
291
     1
 45
0.0
1001
ACAD
1000
AcDbSavedByObjectVersion
1070
     0
  0
VISUALSTYLE
  5
142
102
{ACAD_XDICTIONARY
360
143D
102
}
102
{ACAD_REACTORS
330
29
102
}
330
29
100
AcDbVisualStyle
  2
Hidden
 70
     6
 71
     1
 72
     2
 73
     2
 90
        0
 40
-0.6
 41
-30.0
 62
     5
 63
     7
421
 16777215
 74
     2
 91
        2
 64
     7
 65
   257
 75
     2
175
     1
 42
40.0
 92
        0
 66
   257
 43
1.0
 76
     1
 77
     6
 78
     2
 67
     7
 79
     3
170
     0
171
     0
290
     0
174
     0
 93
        1
 44
0.0
173
     0
291
     0
 45
0.0
1001
ACAD
1000
AcDbSavedByObjectVersion
1070
     0
  0
VISUALSTYLE
  5
3A
102
{ACAD_XDICTIONARY
360
1435
102
}
102
{ACAD_REACTORS
330
29
102
}
330
29
100
AcDbVisualStyle
  2
JitterOff
 70
    20
 71
     2
 72
     2
 73
     0
 90
        0
 40
-0.6
 41
-30.0
 62
     5
 63
     7
421
 16777215
 74
     1
 91
        4
 64
     7
 65
   257
 75
     1
175
     1
 42
1.0
 92
       10
 66
     7
 43
1.0
 76
     1
 77
     6
 78
     2
 67
     7
 79
     5
170
     0
171
     0
290
     0
174
     0
 93
        1
 44
0.0
173
     0
291
     1
 45
0.0
1001
ACAD
1000
AcDbSavedByObjectVersion
1070
     0
  0
VISUALSTYLE
  5
37
102
{ACAD_XDICTIONARY
360
142F
102
}
102
{ACAD_REACTORS
330
29
102
}
330
29
100
AcDbVisualStyle
  2
Linepattern
 70
    14
 71
     2
 72
     2
 73
     0
 90
        0
 40
-0.6
 41
-30.0
 62
     5
 63
     7
421
 16777215
 74
     1
 91
        4
 64
     7
 65
   257
 75
     7
175
     7
 42
1.0
 92
        8
 66
     7
 43
1.0
 76
     1
 77
     6
 78
     2
 67
     7
 79
     5
170
     0
171
     0
290
     0
174
     0
 93
        1
 44
0.0
173
     0
291
     1
 45
0.0
1001
ACAD
1000
AcDbSavedByObjectVersion
1070
     0
  0
VISUALSTYLE
  5
3B
102
{ACAD_XDICTIONARY
360
1437
102
}
102
{ACAD_REACTORS
330
29
102
}
330
29
100
AcDbVisualStyle
  2
OverhangOff
 70
    21
 71
     2
 72
     2
 73
     0
 90
        0
 40
-0.6
 41
-30.0
 62
     5
 63
     7
421
 16777215
 74
     1
 91
        4
 64
     7
 65
   257
 75
     1
175
     1
 42
1.0
 92
        9
 66
     7
 43
1.0
 76
     1
 77
     6
 78
     2
 67
     7
 79
     5
170
     0
171
     0
290
     0
174
     0
 93
        1
 44
0.0
173
     0
291
     1
 45
0.0
1001
ACAD
1000
AcDbSavedByObjectVersion
1070
     0
  0
VISUALSTYLE
  5
33
102
{ACAD_XDICTIONARY
360
1427
102
}
102
{ACAD_REACTORS
330
29
102
}
330
29
100
AcDbVisualStyle
  2
Realistic
 70
     8
 71
     2
 72
     2
 73
     0
 90
        0
 40
-0.6
 41
-30.0
 62
     5
 63
     7
421
 16777215
 74
     1
 91
        0
 64
     7
 65
   257
 75
     1
175
     1
 42
1.0
 92
        8
 66
     8
424
  7895160
 43
1.0
 76
     1
 77
     6
 78
     2
 67
     7
 79
     5
170
     0
171
     0
290
     0
174
     0
 93
       13
 44
0.0
173
     0
291
     0
 45
0.0
1001
ACAD
1000
AcDbSavedByObjectVersion
1070
     0
  0
VISUALSTYLE
  5
147
102
{ACAD_XDICTIONARY
360
1447
102
}
102
{ACAD_REACTORS
330
29
102
}
330
29
100
AcDbVisualStyle
  2
Shaded
 70
    27
 71
     2
 72
     2
 73
     1
 90
        2
 40
-0.6
 41
30.0
 62
     5
 63
     7
421
 16777215
 74
     0
 91
        4
 64
     7
 65
   257
 75
     1
175
     1
 42
1.0
 92
        8
 66
   257
 43
1.0
 76
     1
 77
     6
 78
     2
 67
     8
425
  7895160
 79
     3
170
     0
171
     0
290
     0
174
     0
 93
        5
 44
0.0
173
     0
291
     0
 45
0.0
1001
ACAD
1000
AcDbSavedByObjectVersion
1070
     0
  0
VISUALSTYLE
  5
146
102
{ACAD_XDICTIONARY
360
1445
102
}
102
{ACAD_REACTORS
330
29
102
}
330
29
100
AcDbVisualStyle
  2
Shaded with edges
 70
    26
 71
     2
 72
     2
 73
     1
 90
        2
 40
-0.6
 41
30.0
 62
     5
 63
     7
421
 16777215
 74
     1
 91
       10
 64
     7
 65
   257
 75
     2
175
     1
 42
1.0
 92
        8
 66
   257
 43
1.0
 76
     1
 77
     6
 78
     2
 67
     7
 79
     3
170
     0
171
     0
290
     0
174
     0
 93
        5
 44
0.0
173
     0
291
     0
 45
0.0
1001
ACAD
1000
AcDbSavedByObjectVersion
1070
     0
  0
VISUALSTYLE
  5
143
102
{ACAD_XDICTIONARY
360
143F
102
}
102
{ACAD_REACTORS
330
29
102
}
330
29
100
AcDbVisualStyle
  2
Shades of Gray
 70
    23
 71
     2
 72
     2
 73
     3
 90
        0
 40
-0.6
 41
-30.0
 62
     5
 63
     7
421
 16777215
 74
     2
 91
        2
 64
     7
 65
     7
 75
     1
175
     1
 42
40.0
 92
        8
 66
     7
 43
1.0
 76
     1
 77
     6
 78
     2
 67
     7
 79
     3
170
     0
171
     0
290
     0
174
     0
 93
        1
 44
0.0
173
     0
291
     0
 45
0.0
1001
ACAD
1000
AcDbSavedByObjectVersion
1070
     0
  0
VISUALSTYLE
  5
144
102
{ACAD_XDICTIONARY
360
1441
102
}
102
{ACAD_REACTORS
330
29
102
}
330
29
100
AcDbVisualStyle
  2
Sketchy
 70
    24
 71
     1
 72
     2
 73
     2
 90
        0
 40
-0.6
 41
-30.0
 62
     5
 63
     7
421
 16777215
 74
     2
 91
        2
 64
     7
 65
     7
 75
     1
175
     1
 42
40.0
 92
       11
 66
     7
 43
1.0
 76
     1
 77
     6
 78
     2
 67
     7
 79
     6
170
     0
171
     0
290
     0
174
     0
 93
        1
 44
0.0
173
     0
291
     0
 45
0.0
1001
ACAD
1000
AcDbSavedByObjectVersion
1070
     0
  0
VISUALSTYLE
  5
36
102
{ACAD_XDICTIONARY
360
142D
102
}
102
{ACAD_REACTORS
330
29
102
}
330
29
100
AcDbVisualStyle
  2
Thicken
 70
    13
 71
     2
 72
     2
 73
     0
 90
        0
 40
-0.6
 41
-30.0
 62
     5
 63
     7
421
 16777215
 74
     1
 91
        4
 64
     7
 65
   257
 75
     1
175
     1
 42
1.0
 92
       12
 66
     7
 43
1.0
 76
     1
 77
     6
 78
     2
 67
     7
 79
     5
170
     0
171
     0
290
     0
174
     0
 93
        1
 44
0.0
173
     0
291
     1
 45
0.0
1001
ACAD
1000
AcDbSavedByObjectVersion
1070
     0
  0
VISUALSTYLE
  5
141
102
{ACAD_XDICTIONARY
360
143B
102
}
102
{ACAD_REACTORS
330
29
102
}
330
29
100
AcDbVisualStyle
  2
Wireframe
 70
     5
 71
     0
 72
     2
 73
     0
 90
        0
 40
-0.6
 41
-30.0
 62
     5
 63
     7
421
 16777215
 74
     1
 91
        4
 64
     7
 65
   257
 75
     1
175
     1
 42
1.0
 92
        0
 66
   257
 43
1.0
 76
     1
 77
     6
 78
     2
 67
     7
 79
     3
170
     0
171
     0
290
     0
174
     0
 93
        1
 44
0.0
173
     0
291
     0
 45
0.0
1001
ACAD
1000
AcDbSavedByObjectVersion
1070
     0
  0
VISUALSTYLE
  5
145
102
{ACAD_XDICTIONARY
360
1443
102
}
102
{ACAD_REACTORS
330
29
102
}
330
29
100
AcDbVisualStyle
  2
X-Ray
 70
    25
 71
     2
 72
     2
 73
     1
 90
        1
 40
0.5
 41
-30.0
 62
     5
 63
     7
421
 16777215
 74
     1
 91
        0
 64
     7
 65
   257
 75
     1
175
     1
 42
1.0
 92
        8
 66
     7
 43
1.0
 76
     1
 77
     6
 78
     2
 67
     7
 79
     3
170
     0
171
     0
290
     0
174
     0
 93
       13
 44
0.0
173
     0
291
     0
 45
0.0
1001
ACAD
1000
AcDbSavedByObjectVersion
1070
     0
  0
DICTIONARYVAR
  5
91
102
{ACAD_REACTORS
330
8E
102
}
330
8E
100
DictionaryVariables
280
     0
  1
1:1
  0
DICTIONARYVAR
  5
90
102
{ACAD_REACTORS
330
8E
102
}
330
8E
100
DictionaryVariables
280
     0
  1
STANDARD
  0
DICTIONARYVAR
  5
8F
102
{ACAD_REACTORS
330
8E
102
}
330
8E
100
DictionaryVariables
280
     0
  1
STANDARD
  0
DICTIONARYVAR
  5
831
102
{ACAD_REACTORS
330
8E
102
}
330
8E
100
DictionaryVariables
280
     0
  1
15.000000
  0
DICTIONARYVAR
  5
1412
102
{ACAD_REACTORS
330
8E
102
}
330
8E
100
DictionaryVariables
280
     0
  1
2
  0
DICTIONARY
  5
A7
330
6A
100
AcDbDictionary
280
     1
281
     1
  3
ADSK_XREC_LAYOUTTHUMBNAIL
360
A8
  0
DICTIONARY
  5
1A
330
19
100
AcDbDictionary
280
     1
281
     1
  3
BUMPTILE
360
1C
  3
DIFFUSETILE
360
1B
  3
OPACITYTILE
360
1F
  3
REFLECTIONTILE
360
1E
  3
REFRACTIONTILE
360
20
  3
SPECULARTILE
360
1D
  0
DICTIONARY
  5
12
330
11
100
AcDbDictionary
280
     1
281
     1
  3
BUMPTILE
360
14
  3
DIFFUSETILE
360
13
  3
OPACITYTILE
360
17
  3
REFLECTIONTILE
360
16
  3
REFRACTIONTILE
360
18
  3
SPECULARTILE
360
15
  0
DICTIONARY
  5
22
330
21
100
AcDbDictionary
280
     1
281
     1
  3
BUMPTILE
360
24
  3
DIFFUSETILE
360
23
  3
OPACITYTILE
360
27
  3
REFLECTIONTILE
360
26
  3
REFRACTIONTILE
360
28
  3
SPECULARTILE
360
25
  0
DICTIONARY
  5
ED
330
60
100
AcDbDictionary
280
     1
281
     1
  3
ACAD_ROUNDTRIP_2008_TABLESTYLE_CELLSTYLEMAP
360
1413
  0
DICTIONARY
  5
141F
330
2F
100
AcDbDictionary
280
     1
281
     1
  3
ACAD_XREC_ROUNDTRIP
360
1420
  0
DICTIONARY
  5
1423
330
31
100
AcDbDictionary
280
     1
281
     1
  3
ACAD_XREC_ROUNDTRIP
360
1424
  0
DICTIONARY
  5
1421
330
30
100
AcDbDictionary
280
     1
281
     1
  3
ACAD_XREC_ROUNDTRIP
360
1422
  0
DICTIONARY
  5
141D
330
2E
100
AcDbDictionary
280
     1
281
     1
  3
ACAD_XREC_ROUNDTRIP
360
141E
  0
DICTIONARY
  5
142B
330
35
100
AcDbDictionary
280
     1
281
     1
  3
ACAD_XREC_ROUNDTRIP
360
142C
  0
DICTIONARY
  5
1433
330
39
100
AcDbDictionary
280
     1
281
     1
  3
ACAD_XREC_ROUNDTRIP
360
1434
  0
DICTIONARY
  5
1425
330
32
100
AcDbDictionary
280
     1
281
     1
  3
ACAD_XREC_ROUNDTRIP
360
1426
  0
DICTIONARY
  5
1429
330
34
100
AcDbDictionary
280
     1
281
     1
  3
ACAD_XREC_ROUNDTRIP
360
142A
  0
DICTIONARY
  5
1439
330
3C
100
AcDbDictionary
280
     1
281
     1
  3
ACAD_XREC_ROUNDTRIP
360
143A
  0
DICTIONARY
  5
1431
330
38
100
AcDbDictionary
280
     1
281
     1
  3
ACAD_XREC_ROUNDTRIP
360
1432
  0
DICTIONARY
  5
1415
330
2A
100
AcDbDictionary
280
     1
281
     1
  3
ACAD_XREC_ROUNDTRIP
360
1416
  0
DICTIONARY
  5
1417
330
2B
100
AcDbDictionary
280
     1
281
     1
  3
ACAD_XREC_ROUNDTRIP
360
1418
  0
DICTIONARY
  5
1419
330
2C
100
AcDbDictionary
280
     1
281
     1
  3
ACAD_XREC_ROUNDTRIP
360
141A
  0
DICTIONARY
  5
141B
330
2D
100
AcDbDictionary
280
     1
281
     1
  3
ACAD_XREC_ROUNDTRIP
360
141C
  0
DICTIONARY
  5
143D
330
142
100
AcDbDictionary
280
     1
281
     1
  3
ACAD_XREC_ROUNDTRIP
360
143E
  0
DICTIONARY
  5
1435
330
3A
100
AcDbDictionary
280
     1
281
     1
  3
ACAD_XREC_ROUNDTRIP
360
1436
  0
DICTIONARY
  5
142F
330
37
100
AcDbDictionary
280
     1
281
     1
  3
ACAD_XREC_ROUNDTRIP
360
1430
  0
DICTIONARY
  5
1437
330
3B
100
AcDbDictionary
280
     1
281
     1
  3
ACAD_XREC_ROUNDTRIP
360
1438
  0
DICTIONARY
  5
1427
330
33
100
AcDbDictionary
280
     1
281
     1
  3
ACAD_XREC_ROUNDTRIP
360
1428
  0
DICTIONARY
  5
1447
330
147
100
AcDbDictionary
280
     1
281
     1
  3
ACAD_XREC_ROUNDTRIP
360
1448
  0
DICTIONARY
  5
1445
330
146
100
AcDbDictionary
280
     1
281
     1
  3
ACAD_XREC_ROUNDTRIP
360
1446
  0
DICTIONARY
  5
143F
330
143
100
AcDbDictionary
280
     1
281
     1
  3
ACAD_XREC_ROUNDTRIP
360
1440
  0
DICTIONARY
  5
1441
330
144
100
AcDbDictionary
280
     1
281
     1
  3
ACAD_XREC_ROUNDTRIP
360
1442
  0
DICTIONARY
  5
142D
330
36
100
AcDbDictionary
280
     1
281
     1
  3
ACAD_XREC_ROUNDTRIP
360
142E
  0
DICTIONARY
  5
143B
330
141
100
AcDbDictionary
280
     1
281
     1
  3
ACAD_XREC_ROUNDTRIP
360
143C
  0
DICTIONARY
  5
1443
330
145
100
AcDbDictionary
280
     1
281
     1
  3
ACAD_XREC_ROUNDTRIP
360
1444
  0
XRECORD
  5
A8
102
{ACAD_REACTORS
330
A7
102
}
330
A7
100
AcDbXrecord
280
     1
310
28000000000100006F0000000100080000000000006F0000000000000000000000010000000000003028210000000000C8C8C8000000000000000000000000000000000000000000000000000000000000000000330000006600000099000000CC000000FF00000000330000333300006633000099330000CC330000FF3300
310
0000660000336600006666000099660000CC660000FF66000000990000339900006699000099990000CC990000FF99000000CC000033CC000066CC000099CC0000CCCC0000FFCC000000FF000033FF000066FF000099FF0000CCFF0000FFFF000000003300330033006600330099003300CC003300FF003300003333003333
310
33006633330099333300CC333300FF33330000663300336633006666330099663300CC663300FF66330000993300339933006699330099993300CC993300FF99330000CC330033CC330066CC330099CC3300CCCC3300FFCC330000FF330033FF330066FF330099FF3300CCFF3300FFFF330000006600330066006600660099
310
006600CC006600FF00660000336600333366006633660099336600CC336600FF33660000666600336666006666660099666600CC666600FF66660000996600339966006699660099996600CC996600FF99660000CC660033CC660066CC660099CC6600CCCC6600FFCC660000FF660033FF660066FF660099FF6600CCFF6600
310
FFFF660000009900330099006600990099009900CC009900FF00990000339900333399006633990099339900CC339900FF33990000669900336699006666990099669900CC669900FF66990000999900339999006699990099999900CC999900FF99990000CC990033CC990066CC990099CC9900CCCC9900FFCC990000FF99
310
0033FF990066FF990099FF9900CCFF9900FFFF99000000CC003300CC006600CC009900CC00CC00CC00FF00CC000033CC003333CC006633CC009933CC00CC33CC00FF33CC000066CC003366CC006666CC009966CC00CC66CC00FF66CC000099CC003399CC006699CC009999CC00CC99CC00FF99CC0000CCCC0033CCCC0066CC
310
CC0099CCCC00CCCCCC00FFCCCC0000FFCC0033FFCC0066FFCC0099FFCC00CCFFCC00FFFFCC000000FF003300FF006600FF009900FF00CC00FF00FF00FF000033FF003333FF006633FF009933FF00CC33FF00FF33FF000066FF003366FF006666FF009966FF00CC66FF00FF66FF000099FF003399FF006699FF009999FF00CC
310
99FF00FF99FF0000CCFF0033CCFF0066CCFF0099CCFF00CCCCFF00FFCCFF0000FFFF0033FFFF0066FFFF0099FFFF00CCFFFF00FFFFFF00000000000D0D0D001A1A1A00282828003535350043434300505050005D5D5D006B6B6B00787878008686860093939300A1A1A100AEAEAE00BBBBBB00C9C9C900D6D6D600E4E4E400
310
F1F1F100FFFFFF000000000000000000000000000000000000000000000000000000000000000000000000000000000000000000000000000000000000000000000000000000000000000000000000000000000000000000000000000000000000000000000000000000000000000000000000000000000000000000000000
310
00000000000000000000000000000000000000000000000000000000000000000000000000000000000000000000000000000000000000000000000000000000000000000000000000000000000000000000000000000000000000000000000000000000000000000000000000000000000000000000000000000000000000
310
00000000000000000000000000000000000000000000000000000000000000000000000000000000000000000000000000000000000000000000000000000000000000000000000000000000000000000000000000000000000000000000000000000000000000000000000000000000000000000000000000000000000000
310
00000000000000000000000000000000000000000000000000000000000000000000000000000000000000000000000000000000000000000000000000000000000000000000000000000000000000000000000000000000000000000000000000000000000000000000000000000000000000000000000000000000000000
310
00000000000000000000000000000000000000000000000000000000000000000000000000000000000000000000000000000000000000000000000000000000000000000000000000000000000000000000000000000000000000000000000000000000000000000000000000000000000000000000000000000000000000
310
00000000000000000000000000000000000000000000000000000000000000000000000000000000000000000000000000000000000000000000000000000000000000000000000000000000000000000000000000000000000000000000000000000000000000000000000000000000000000000000000000000000000000
310
000000000000000000000000000000000000000000000000000000000000000000000000000000000000000000000000000000000000000000000000000000000000000000000000000000000000000000000000000000000000000000000000000000000000000000002D2D2D2D2D2D2D2D2D2D2D2D2D2D2D2D2D2D2D2D2D
310
2D2D2D2D2D2D2D2D2D2D2D2D2D2D2D2D2D2D2D2D2D2D2D2D2D2D2D2D2D2D2D2D2D2D2D2D2D2D2D2D2D2D2D2D2D2D2D2D2D2D2D2D2D2D2D2D2D2D2D2D2D2D2D2D2D2D2D2D2D2D2D2D2D2D2D2D2D2D2D2D2D2D2D2D2D2D2D2D2D2D2D2D2D2D2D2D2D2D2D2D2D2D2D2D2D2D2D2D2D2D2D2D2D2D2D2D2D2D2D0000000000000000
310
0000000000000000000000000000000000000000000000000000000000000000000000000000000000000000000000000000000000000000000000000000000000000000000000000000000000000000000000000000000000000000000000000000000000000000000000002D000000000000000000000000000000000000
310
0000000000000000000000000000000000000000000000000000000000000000000000000000000000000000000000000000000000000000000000000000000000000000000000000000000000000000000000000000000000000000000000000000000000000000000000000000000000000000000000002D000000000000
310
00000000000000000000000000000000000000000000000000000000000000000000000000000000000000000000000000000000000000000000000000000000000000000000000000000000000000000000000000000000000000000000000000000000000000000000000000002D00000000000000000000000000000000
310
00000000000000000000000000000000000000000000000000000000000000000000000000000000000000000000000000000000000000000000000000000000000000000000000000000000000000000000000000000000000000000000000000000000000000000000000000000000000000000000000000002D00000000
310
000000000000000000000000000000000000000000000000000000000000000000000000000000000000000000000000000000000000000000000000000000000000000000000000000000000000000000000000000000000000000000000000000000000000000000000000000000002D0000000000000000000000000000
310
000000000000000000000000000000000000000000000000000000000000000000000000000000000000000000000000000000000000000000000000000000000000000000000000000000000000000000000000000000000000000000000000000000000000000000000000000000000000000000000000000000002D0000
310
0000000000000000000000000000000000000000000000000000000000000000000000000000000000000000000000000000000000000000000000000000000000000000000000000000000000000000000000000000000000000000000000000000000000000000000000000000000000002D000000000000000000000000
310
0000000000000000000000000000000000000000000000000000000000000000000000000000000000000000000000000000000000000000000000000000000000000000000000000000000000000000000000000000000000000000000000000000000000000000000000000000000000000000000000000000000000002D
310
00000000000000000000000000000000000000000000000000000000000000000000000000000000000000000000000000000000000000000000000000000000000000000000000000000000000000000000000000000000000000000000000000000000000000000000000000000000000000002D000000000F0F0F0F0F0F
310
0F0F0F0F0F0F0F0F0F0F0F0F0F0F0F0F0F0F0F0F0F0F0F0F0F0F0F0F0F0F0F0F0F0F0F0F0F0F0F0F0F0F0F0F0F0F0F0F0F0F0F0F0F0F0F0F0F0F0F0F0F0F0F0F0F0F0F0F0F0F0F0F0F0F0F0F0F0F0F0F0F0F0F0F0F0F0F0F0F0F0F0F0F0F0F0F0F0F0F0F0F0F0F0F0F0F0F0F0F0F0F0F0F0F0F0F0F0F0F0F0F0F0F0F000000
310
002D00000000000000000000000000000000000000000000000000000000000000000000000000000000000000000000000000000000000000000000000000000000000000000000000000000000000000000000000000000000000000000000000000000000000000000000000000000000000000002D000000000F000000
310
00000000000000000000000000000000000000000000000000000000000000000000000000000000000000000000000000000000000000000000000000000000000000000000000000000000000000000000000000000F00000000000000000000000F0F0F0F0F0F0F0F0F0F0F0F0F0F0F0000000000000000000000000F00
310
0000002D00000000000000000000000000000000000000000000000000000000000000000000000000000000000000000000000000000000000000000000000000000000000000000000000000000000000000000000000000000000000000000000000000000000000000000000000000000000000000002D000000000F00
310
000000000000000000000000000000000000000000000000000000000000000000000000000000000000000000000000000000000000000000000000000000000000000000000000000000000000000000000000000000000F0F0F0F0F0F0F0F0F0F0F0F0F0F0F0F0F0F0F0F0F0F0F0F0F0F0F0F0F0F0F0F0F0F0F0F0F0F0F
310
0F000000002D00000000000000000000000000000000000000000000000000000000000000000000000000000000000000000000000000000000000000000000000000000000000000000000000000000000000000000000000000000000000000000000000000000000000000000000000000000000000000002D00000000
310
0F00000000000000000000000000000000000000000000000000F5F500000000000000000000F5F500000000000000000000000000000000000000000000000000000000000000000000000000000000000000000000000000000F0000000000000000000000000000000000000000000000000F0000000000000F000F0F0F
310
0F000F000000002D00000000000000000000000000000000000000000000000000000000000000000000000000000000000000000000000000000000000000000000000000000000000000000000000000000000000000000000000000000000000000000000000000000000000000000000000000000000000000002D0000
310
00000F00000000000000000000000000000000000000000000000000F5F5F5F5F5F5F5F5F5F5F5F5F5F50000F500000000000000000000000000000000000000000000000000000000000000000000000000000000000000000000000F0000000000000000000000000000000000000000000000000F0000000000000F0000
310
000000000F000000002D00000000000000000000000000000000000000000000000000000000000000000000000000000000000000000000000000000000000000000000000000000000000000000000000000000000000000000000000000000000000000000000000000000000000000000000000000000000000000002D
310
000000000F00000000000000000000000000000000000000000000000000F500000000F5F5F5F500000000F50000F500000000000000000000000000000000000000000000000000000000000000000000000000000000000000000000000F0F0F0F0F0F0F0F0F0F0F0F0F0F0F0F0F0F0F0F0F0F0F0F0F0F0F0F0F0F0F0F0F
310
0F0F0F0F0F0F0F000000002D00000000000000000000000000000000000000000000000000000000000000000000000000000000000000000000000000000000000000000000000000000000000000000000000000000000000000000000000000000000000000000000000000000000000000000000000000000000000000
310
002D000000000F00000000000000000000000000000000000000000000000000F500000000F5F5F50000000000F50000F500000000000000000000000000000000000000000000000000000000000000000000000000000000000000000000000F00000000000F0F0F0F0F0F0F0F0F0F0F0F0F0000000000000F000F0F0F0F
310
000F000F0F0F0F000F000000002D0000000000000000000000000000000000000000000000000000000000000000000000000000000000000000000000000000000000000000000000000000000000000000000000000000000000000000000000000000000000000000000000000000000000000000000000000000000000
310
0000002D000000000F00000000000000000000000000000000000000000000000000C3C3C3C3C3C3C3C3C3C3C3C3C3F5F5F5F5F5F50000000000000000000000000000000000000000000000000000000000000000000000000000000000000000000F0F0F0F0F0F0F0F0F0F0F0F0F0F0F0F0F0F0F0F0F0F0F0F0F0F0F0F0F
310
0F0F0F0F0F0F0F0F0F0F0F000000002D000000000000000000000000000000000000000000000000000000000000000000000000000000000000000000000000000000000000000000000000000000000000000000000000000000000000000000000000000000000000000000000000000000000000000000000000000000
310
00000000002D000000000F000000000000000000000000000000000000000000000000F5F5F5F5F5F5F5F5F5F5F5F5F5F5F5F5F5F5F5F50000000000000000000000000000000000000000000000000000000000000000000000000000000000000000000F0F0F0F0F0F000F000000000F0F0F0F0F0F0F0F0F0F0F0F0F0F0F
310
0F0F0F0F0F0F0F00000000000F000000002D00000000000000000000000000000000000000000000000000000000000000000000000000000000000000000000000000000000000000000000000000000000000000000000000000000000000000000000000000000000000000000000000000000000000000000000000000
310
000000000000002D000000000F0000000000000000000000000000000000000000000000000000000000000000000000000000000000F500000000000000000000000000000000000000000000000000000000000000000000000000000000000000000000000F0F0F0F0F0F000F000000000F0F0F0F0F0F0F0F0F0F0F0F0F
310
0F0F0F0F0F0F0F0F0F00000000000F000000002D0000000000000000000000000000000000000000000000000000000000000000000000000000000000000000000000000000000000000000000000000000000000000000000000000000000000000000000000000000000000000000000000000000000000000000000000
310
0000000000000000002D000000000F0000000000000000000000000000000000000000000000000000000000000000000000000000000000F500000000000000000000000000000000000000000000000000000000000000000000000000000000000000000000000F0000000000000F000000000000000000000000000000
310
000000000000000000000000000000000F000000002D000000000000000000000000000000000000000000000000000000000000000000000000000000000000000000000000000000000000000000000000000000000000000000000000000000000000000000000000000000000000000000000000000000000000000000
310
00000000000000000000002D000000000F0000000000000000000000000000000000000000000000000000000000000000000000000000000000F500000000000000000000000000000000000000000000000000000000000000000000000000000000000000000000000F0000000000000F00000000000000000000000000
310
0000000000000000000000000000000000000F000000002D00000000000000000000000000000000000000000000000000000000000000000000000000000000000000000000000000000000000000000000000000000000000000000000000000000000000000000000000000000000000000000000000000000000000000
310
000000000000000000000000002D000000000F00000000000000000000000000000000000000000000000000000000000000F5F5F5F5F5F5000000000000000000000000000000000000000000000000000000000000000000000000000000000000000000000000000000000F0F0F0F0F0F0F0F0F0F0F0F0F0F0F0F0F0F0F
310
0F0F0F0F0F0F0F0F0F0F0F0F0F0F0F0F0F0F0F0F0F000000002D0000000000000000000000000000000000000000000000000000000000000000000000000000000000000000000000000000000000000000000000000000000000000000000000000000000000000000000000000000000000000000000000000000000000
310
0000000000000000000000000000002D000000000F00000000000000000000000000000000000000000000000000000000000000F50000000000000000000000000000000000000000000000000000000000000000000000000000000000000000000000000000000000000000000000000000000000000000000000000000
310
000000000000000000000000000000000000000000000F000000002D000000000000000000000000000000000000000000000000000000000000000000000000000000000000000000000000000000000000000000000000000000000000000000000000000000000000000000000000000000000000000000000000000000
310
00000000000000000000000000000000002D000000000F000000000000000000000000000000000000000000000000F5F5F5F5F5F5F5F5F5F5F5F5F5F5F5F5F5F5F500000000000000000000000000000000000000000000000000000000000000000000000000000000000000000000000000000000000000000000000000
310
0000000000000000000000000000000000000000000000000F000000002D00000000000000000000000000000000000000000000000000000000000000000000000000000000000000000000000000000000000000000000000000000000000000000000000000000000000000000000000000000000000000000000000000
310
000000000000000000000000000000000000002D000000000F000000000000000000000000000000000000000000000000F5C3C3C3C3C3C3F5C3C3C3C3C3C3F50000F5000000000000000000000000000000000000000000000000000000000000000000000000000000000000000000000000000000000000000000000000
310
00000000000000000000000000000000000000000000000000000F000000002D0000000000000000000000000000000000000000000000000000000000000000000000000000000000000000000000000000000000000000000000000000000000000000000000000000000000000000000000000000000000000000000000
310
0000000000000000000000000000000000000000002D000000000F0000000000000000000000000000000000F5F50000F5F5F5F5F5C300F5C300F5F5C30000F5C3F50000F500000000000000000000000000000000000000000000000000000000000000000000000000000000000000000000000000000000000000000000
310
000000000000000000000000000000000000000000000000000000000F000000002D000000000000000000000000000000000000000000000000000000000000000000000000000000000000000000000000000000000000000000000000000000000000000000000000000000000000000000000000000000000000000000
310
00000000000000000000000000000000000000000000002D000000000F0000000000000000000000000000000000F5F5F5F5F5F5F5F5F5F5F5F5F5F5F5F5F5F5F5F5F5F50000F50000000000000000000000000000000000000000000000000000000000000000000000000000000000000000000000000000000000000000
310
0000000000000000000000000000000000000000000000000000000000000F000000002D00000000000000000000000000000000000000000000000000000000000000000000000000000000000000000000000000000000000000000000000000000000000000000000000000000000000000000000000000000000000000
310
000000000000000000000000000000000000000000000000002D000000000F000000000000000000000000000000000000000000000000F5C3C3C3C3C3C3F5C3C3C3C3C3C3F50000F5000000000000000000000000000000000000000000000000000000000000000000000000000000000000000000000000000000000000
310
00000000000000000000000000000000000000000000000000000000000000000F000000002D0000000000000000000000000000000000000000000000000000000000000000000000000000000000000000000000000000000000000000000000000000000000000000000000000000000000000000000000000000000000
310
0000000000000000000000000000000000000000000000000000002D000000000F000000000000000000000000000000000000000000000000F5F5C3F5F5C300F500C3F5F500C3F500F5F500000000000000000000000000000000000000000000000000000000000000000000000000000000000000000000000000000000
310
000000000000000000000000000000000000000000000000000000000000000000000F000000002D000000000000000000000000000000000000000000000000000000000000000000000000000000000000000000000000000000000000000000000000000000000000000000000000000000000000000000000000000000
310
00000000000000000000000000000000000000000000000000000000002D000000000F000000000000000000000000000000000000000000000000F5F5C3F5F5C300F500C3F5F500C3F5F5F5F50000000000000000000000000000000000000000000000000000000000000000000000000000000000000000000000000000
310
0000000000000000000000000000000000000000000000000000000000000000000000000F000000002D00000000000000000000000000000000000000000000000000000000000000000000000000000000000000000000000000000000000000000000000000000000000000000000000000000000000000000000000000
310
000000000000000000000000000000000000000000000000000000000000002D000000000F000000000000000000000000000000000000000000000000F5F5C3F5F5C300F500C3F5F500C3F5F5F5F5000000000000000000000000000000000000000000000000000000000000000000000000000000000000000000000000
310
00000000000000000000000000000000F5F50000F5F5000000000000000000000000000000000F000000002D0000000000000000000000000000000000000000000000000000000000000000000000000000000000000000000000000000000000000000000000000000000000000000000000000000000000000000000000
310
0000000000000000000000000000000000000000000000000000000000000000002D000000000F000000000000000000000000000000000000000000000000F5F5C3F5F5C300F500C3F5F500C3F5F5F5F500000000000000000000000000000000000000000000000000000000000000000000000000000000000000000000
310
00000000000000000000000000000000F5F5F5F5F5F5F5F5000000000000000000000000000000000F000000002D000000000000000000000000000000000000000000000000000000000000000000000000000000000000000000000000000000000000000000000000000000000000000000000000000000000000000000
310
00000000000000000000000000000000000000000000000000000000000000000000002D000000000F000000000000000000000000000000000000000000000000F5C3C3C3C3C3C3F5C3C3C3C3C3C3F50000F50000000000000000000000000000000000000000000000000000000000000000000000000000000000000000
310
000000000000000000000000000000F5F5F500F500F5F5F50000000000000000000000000000000000000F000000002D00000000000000000000000000000000000000000000000000000000000000000000000000000000000000000000000000000000000000000000000000000000000000000000000000000000000000
310
000000000000000000000000000000000000000000000000000000000000000000000000002D000000000F000000000000000000000000000000000000000000000000F5F5C30000C300F500C3000000C3F50000F5000000000000000000000000000000000000000000000000000000000000000000000000000000F5F5F5
310
00F5F5F500F5F5F5F5F5F5F5F5F5F5F5F5F5F5F5F5F5F5F500000000000000000000000000000000000000000F000000002D0000000000000000000000000000000000000000000000000000000000000000000000000000000000000000000000000000000000000000000000000000000000000000000000000000000000
310
0000000000000000000000000000000000000000000000000000000000000000000000000000002D000000000F000000000000000000000000000000000000000000000000F5F5C30000C300F500C3000000C3F50000F5000000000000000000000000000000000000000000000000000000000000000000000000000000F5
310
F5F5F5F5F5F5F5F5C30000000000F5F500000000C3C3F500F5F500000000000000000000000000000000000000000F000000002D000000000000000000000000000000000000000000000000000000000000000000000000000000000000000000000000000000000000000000000000000000000000000000000000000000
310
00000000000000000000000000000000000000000000000000000000000000000000000000000000002D000000000F000000000000000000000000000000000000000000000000F5C3C3C3C3C3C3F5C3C3C3C3C3C3F50000F50000000000000000000000000000000000000000000000000000000000000000000000000000
310
0000000000000000F5F5F50000F5F5F5000000000000C3F5F5F5F5F500000000000000000000000000000000000000000F000000002D00000000000000000000000000000000000000000000000000000000000000000000000000000000000000000000000000000000000000000000000000000000000000000000000000
310
000000000000000000000000000000000000000000000000000000000000000000000000000000000000002D000000000F000000000000000000000000000000000000000000000000F5F5C3F5F5C3F5F5F5C3F5F5F5C3F5F5F5F5F50000000000000000000000000000000000000000000000000000000000000000000000
310
0000000000000000000000F5F5F5F5000000000000000000F5F5F5F5F50000000000000000000000000000000000000000000F000000002D0000000000000000000000000000000000000000000000000000000000000000000000000000000000000000000000000000000000000000000000000000000000000000000000
310
0000000000000000000000000000000000000000000000000000000000000000000000000000000000000000002D000000000F000000000000000000000000000000000000000000000000F500000000000000000000000000F500000000000000000000000000000000000000000000000000000000000000000000000000
310
00000000000000000000000000C3F50000000000000000000000C3C3F5F5F5F500000000000000000000000000000000000000000F000000002D000000000000000000000000000000000000000000000000000000000000000000000000000000000000000000000000000000000000000000000000000000000000000000
310
00000000000000000000000000000000000000000000000000000000000000000000000000000000000000000000002D000000000F000000000000000000000000000000000000000000000000F500F500000000000000000000F5F50000000000000000000000000000000000000000000000000000000000000000000000
310
000000000000000000000000000000F5C3F5F5F5F5F5F5F5F5F5F5F5C3F5F5F5F5F500000000000000000000000000000000000000000F000000002D00000000000000000000000000000000000000000000000000000000000000000000000000000000000000000000000000000000000000000000000000000000000000
310
000000000000000000000000000000000000000000000000000000000000000000000000000000000000000000000000002D000000000F000000000000000000000000000000000000000000000000F5F5F5F5F5F5F5F5F5F5F5F5F5F5F5000000000000000000000000000000000000000000000000000000000000000000
310
00000000000000000000000000000000000000000000000000000000000000000000000000000000000000000000000000000000000000000F000000002D0000000000000000000000000000000000000000000000000000000000000000000000000000000000000000000000000000000000000000000000000000000000
310
0000000000000000000000000000000000000000000000000000000000000000000000000000000000000000000000000000002D000000000F000000000000000000000000000000000000000000000000000000000000F5F5F5F5000000000000000000000000000000000000000000000000000000000000000000000000
310
000000000000000000000000000000000000000000F5F5F5F5F5F5F5F5F5F50000000000000000000000000000000000000000000000000000000F000000002D000000000000000000000000000000000000000000000000000000000000000000000000000000000000000000000000000000000000000000000000000000
310
00000000000000000000000000000000000000000000000000000000000000000000000000000000000000000000000000000000002D000000000F000000000000000000000000000000000000000000000000000000000000F5F5F50000000000000000000000000000000000000000000000000000000000000000000000
310
0000000000000000000000000000000000000000000000F5F5F5F5F5F5F5F5F5F50000000000000000000000000000000000000000000000000000000F000000002D00000000000000000000000000000000000000000000000000000000000000000000000000000000000000000000000000000000000000000000000000
310
000000000000000000000000000000000000000000000000000000000000000000000000000000000000000000000000000000000000002D000000000F000000000000000000000000000000000000000000000000000000000000000000000000000000000000000000000000000000000000000000000000000000000000
310
00000000000000000000000000000000000000000000000000000000000000000000000000000000000000000000000000000000000000000000000000000F000000002D0000000000000000000000000000000000000000000000000000000000000000000000000000000000000000000000000000000000000000000000
310
0000000000000000000000000000000000000000000000000000000000000000000000000000000000000000000000000000000000000000002D000000000F00000000000000000000000000000000000000000000000000000000000000000000000000000000000000000000000000000000000000000000000000000000
310
000000000000000000000000000000000000000000000000000000000000000000000000000000000000000000000000000000000000000000000000000000000F000000002D000000000000000000000000000000000000000000000000000000000000000000000000000000000000000000000000000000000000000000
310
00000000000000000000000000000000000000000000000000000000000000000000000000000000000000000000000000000000000000000000002D000000000F0000000000000000000000000000000000000000000000000000F5F5F5F5F5F5F5F5F5F50000000000000000000000000000000000000000000000000000
310
0000000000000000000000000000000000000000000000000000000000000000000000000000000000000000F5F50000F5F5000000000000000000000000000000000F000000002D00000000000000000000000000000000000000000000000000000000000000000000000000000000000000000000000000000000000000
310
000000000000000000000000000000000000000000000000000000000000000000000000000000000000000000000000000000000000000000000000002D000000000F000000000000000000000000000000000000000000000000000000000000000000000000000000000000000000000000000000000000000000000000
310
0000000000000000000000000000000000000000000000000000000000000000000000000000000000000000F5F5F5F5F5F5F5F5000000000000000000000000000000000F000000002D0000000000000000000000000000000000000000000000000000000000000000000000000000000000000000000000000000000000
310
0000000000000000000000000000000000000000000000000000000000000000000000000000000000000000000000000000000000000000000000000000002D000000000F00000000000000000000000000000000000000000000000000000000000000000000000000000000000000000000000000000000000000000000
310
0000000000000000000000000000000000000000000000F5F50000F5F50000000000000000000000000000F5F5F500F500F5F5F50000000000000000000000000000000000000F000000002D000000000000000000000000000000000000000000000000000000000000000000000000000000000000000000000000000000
310
00000000000000000000000000000000000000000000000000000000000000000000000000000000000000000000000000000000000000000000000000000000002D000000000F0000000000000000000000000000000000000000000000000000000000F5F5F5F50000000000000000000000000000000000000000000000
310
00000000000000000000000000000000000000000000000000F5F5F5F5F5F5F500F5F5F5F5F5F5F5F5F5F5F5F5F5F5F5F5F5F5F500000000000000000000000000000000000000000F000000002D00000000000000000000000000000000000000000000000000000000000000000000000000000000000000000000000000
310
000000000000000000000000000000000000000000000000000000000000000000000000000000000000000000000000000000000000000000000000000000000000002D000000000F000000000000000000000000000000000000000000000000000000000000000000000000000000000000000000000000000000000000
310
000000000000000000000000000000000000000000F5F500F5000000F5F5F5F500F5F5F5C30000000000F5F500000000C3C3F500F5F500000000000000000000000000000000000000000F000000002D0000000000000000000000000000000000000000000000000000000000000000000000000000000000000000000000
310
0000000000000000000000000000000000000000000000000000000000000000000000000000000000000000000000000000000000000000000000000000000000000000002D000000000F00000000000000000000000000000000000000000000000000000000000000000000000000000000000000000000000000000000
310
0000000000000000000000000000000000000000000000F5F5F5F5000000000000000000F5F5F50000F5F5F5000000000000C3F50000F5F500000000000000000000000000000000000000000F000000002D000000000000000000000000000000000000000000000000000000000000000000000000000000000000000000
310
00000000000000000000000000000000000000000000000000000000000000000000000000000000000000000000000000000000000000000000000000000000000000000000002D000000000F0000000000000000000000000000000000000000000000000000000000000000000000000000000000000000000000000000
310
00000000000000000000000000000000000000000000000000F5F500F5000000000000000000F5F5F5F5F5000000000000000000F5F50000F50000000000000000000000000000000000000000000F000000002D00000000000000000000000000000000000000000000000000000000000000000000000000000000000000
310
000000000000000000000000000000000000000000000000000000000000000000000000000000000000000000000000000000000000000000000000000000000000000000000000002D000000000F000000000000000000000000000000000000000000000000000000000000000000000000000000000000000000000000
310
00000000000000C3C3C3F5F5F5F5F5F5F5F5F5F5F5F5C3C3C3F5F5F5F5F5F5F50000000000000000F5F5C30000000000000000000000C3F5F5F5F50000000000000000000000000000000000000000000F000000002D0000000000000000000000000000000000000000000000000000000000000000000000000000000000
310
0000000000000000000000000000000000000000000000000000000000000000000000000000000000000000000000000000000000000000000000000000000000000000000000000000002D000000000F00000000000000000000000000000000000000000000000000000000000000000000000000000000000000000000
310
000000000000000000C3C3F5F5F5F5F5F5F5F5F5F5F5F5F5F5C3C3F5F5F5F500F5F50000000000000000F5C3F50000000000000000000000C3C3F5F5F50000000000000000000000000000000000000000000F000000002D000000000000000000000000000000000000000000000000000000000000000000000000000000
310
00000000000000000000000000000000000000000000000000000000000000000000000000000000000000000000000000000000000000000000000000000000000000000000000000000000002D000000000F0000000000000000000000000000000000000000000000000000000000000000000000000000000000000000
310
0000000000000000000000C3C3F5F5F5F5F5F5F5F5F5F5F5F5F5F5C3C30000F50000F5F5000000000000000000F5C30000000000000000000000C3F5F5F5F50000000000000000000000000000000000000000000F000000002D00000000000000000000000000000000000000000000000000000000000000000000000000
310
000000000000000000000000000000000000000000000000000000000000000000000000000000000000000000000000000000000000000000000000000000000000000000000000000000000000002D000000000F000000000000000000000000000000000000000000000000000000000000000000000000000000000000
310
00000000000000000000000000F5F5F5F5F5F5F5F5F5F5F5F5F5F5F5F5F5F5F5F5F5F5F5F500000000000000000000F5C30000000000000000000000C3F50000F50000000000000000000000000000000000000000000F000000002D0000000000000000000000000000000000000000000000000000000000000000000000
310
0000000000000000000000000000000000000000000000000000000000000000000000000000000000000000000000000000000000000000000000000000000000000000000000000000000000000000002D000000000F00000000000000000000000000000000000000000000000000000000000000000000000000000000
310
000000000000000000000000F5F5F5F5F5F5F5F5F5000000000000F5F5F5F5F5F5F5F5F5F5F5F500000000000000000000F5C30000000000000000000000C3F50000F50000000000000000000000000000000000000000000F000000002D000000000000000000000000000000000000000000000000000000000000000000
310
00000000000000000000000000000000000000000000000000000000000000000000000000000000000000000000000000000000000000000000000000000000000000000000000000000000000000000000002D000000000F00000000000000000000000000000000000000000000000000F5000000000000000000000000
310
F500000000000000000000000000000000F5F5F5F5F5F5F500000000F5F5F5F5F5F5F50000F5F5F5F500000000000000000000F5C30000000000000000000000C3C30000F5F500000000000000000000000000000000000000000F000000002D00000000000000000000000000000000000000000000000000000000000000
310
000000000000000000000000000000000000000000000000000000000000000000000000000000000000000000000000000000000000000000000000000000000000000000000000000000000000000000000000002D000000000F00000000000000000000000000000000000000000000000000F5F5F5F5F5F5F5F5F5F5F5
310
F5F5F50000F500000000000000000000000000F5F5F50000F5F50000000000F5F500F5F5F500000000000000000000000000000000F5F5F5F5F5F5F5F5F5F5F5F5F5F5F5F5F5F5F500000000000000000000000000000000000000000F000000002D0000000000000000000000000000000000000000000000000000000000
310
0000000000000000000000000000000000000000000000000000000000000000000000000000000000000000000000000000000000000000000000000000000000000000000000000000000000000000000000000000002D000000000F00000000000000000000000000000000000000000000000000F500000000F5F5F5F5
310
00000000F50000F500000000000000000000000000000000000000000000000000000000000000000000000000000000000000000000000000000000000000000000000000000000000000000000000000000000000000000000000000000F000000002D000000000000000000000000000000000000000000000000000000
310
00000000000000000000000000000000000000000000000000000000000000000000000000000000000000000000000000000000000000000000000000000000000000000000000000000000000000000000000000000000002D000000000F00000000000000000000000000000000000000000000000000F500000000F5F5
310
F50000000000F50000F500000000000000000000000000000000000000000000000000000000000000000000000000000000000000000000000000F5F5F5F5F5F5F5F5F5F50000000000000000000000000000000000000000000000000000000F000000002D00000000000000000000000000000000000000000000000000
310
000000000000000000000000000000000000000000000000000000000000000000000000000000000000000000000000000000000000000000000000000000000000000000000000000000000000000000000000000000000000002D000000000F00000000000000000000000000000000000000000000000000C3C3C3C3C3
310
C3C3C3C3C3C3C3C3F5F5F5F5F5F500000000000000000000000000000000000000000000000000F5F5F500F5F5F5000000000000000000000000000000000000000000000000000000000000000000000000000000000000000000000000000000000F000000002D0000000000000000000000000000000000000000000000
310
0000000000000000000000000000000000000000000000000000000000000000000000000000000000000000000000000000000000000000000000000000000000000000000000000000000000000000000000000000000000000000002D000000000F000000000000000000000000000000000000000000000000F5F5F5F5
310
F5F5F5F5F5F5F5F5F5F5F5F5F5F5F5F5000000000000000000000000000000000000000000000000F5F5F5F5F5F5F5F5000000000000000000000000000000000000000000000000000000000000000000000000000000000000000000000000000000000F000000002D000000000000000000000000000000000000000000
310
00000000000000000000000000000000000000000000000000000000000000000000000000000000000000000000000000000000000000000000000000000000000000000000000000000000000000000000000000000000000000000000002D000000000F0000000000000000000000000000000000000000000000000000
310
000000000000000000000000000000F5000000000000000000000000000000000000000000000000F5F5F5F5F5F5F5F5F5F50000000000000000000000000000000000000000000000000000000000F5F50000000000000000000000000000000000000000000F000000002D00000000000000000000000000000000000000
310
000000000000000000000000000000000000000000000000000000000000000000000000000000000000000000000000000000000000000000000000000000000000000000000000000000000000000000000000000000000000000000000000002D000000000F000000000000000000000000000000000000000000000000
310
0000000000000000000000000000000000F500000000000000000000000000F5F5F5F5F5F5F5F5F5F5F5F5F5F5F5F5F5F5F5F5F5F500000000000000000000000000000000000000000000000000000000F5F50000000000000000000000000000000000000000000F000000002D0000000000000000000000000000000000
310
0000000000000000000000000000000000000000000000000000000000000000000000000000000000000000000000000000000000000000000000000000000000000000000000000000000000000000000000000000000000000000000000000000002D000000000F00000000000000000000000000000000000000000000
310
00000000000000000000000000000000000000F500000000000000000000000000C3C3C3C3C3C3F5F5F5C3C3F5F5C3C3C3C3C30000F50000000000000000000000000000000000000000000000000000000000F5F5F500000000000000000000000000000000000000000F000000002D000000000000000000000000000000
310
00000000000000000000000000000000000000000000000000000000000000000000000000000000000000000000000000000000000000000000000000000000000000000000000000000000000000000000000000000000000000000000000000000000002D000000000F0000000000000000000000000000000000000000
310
0000000000000000000000F5F5F5F5F5F5000000000000000000000000000000000000C3C3C3C3C3C3C3C3C3C3C3C3C3C3C3C3C3C30000F500000000000000000000000000F5F5F5F5F5F5F5F5F5F5F5F5F5F5F5F5F5F5F5F5F5F500000000000000000000000000000000000F000000002D00000000000000000000000000
310
000000000000000000000000000000000000000000000000000000000000000000000000000000000000000000000000000000000000000000000000000000000000000000000000000000000000000000000000000000000000000000000000000000000000002D000000000F000000000000000000000000000000000000
310
00000000000000000000000000F5000000000000000000000000000000F5F5F50000F5F500C3C3C3C3C3C3C3C3C3C3C3C3C3C3C3C3C3C30000F500000000000000000000000000F5C3C3C3C3C3C3C3C3C3C3C3C3C3F50000F50000F5F500000000000000000000000000000000000F000000002D0000000000000000000000
310
0000000000000000000000000000000000000000000000000000000000000000000000000000000000000000000000000000000000000000000000000000000000000000000000000000000000000000000000000000000000000000000000000000000000000000002D000000000F00000000000000000000000000000000
310
0000000000000000F5F5F5F5F5F5F5F5F5F5F5F5F5F5F5F5F5F5F500000000F5F5F5F5F5F5F5F5C3C3C3F5F5F5F5F5F5F5F5F5F5F5F5C3C3C30000F500000000000000000000000000F5C3F5F5F5F5F5F5F5F5F5F5F5C3F5F5F5F5F500F50000000000000000000000000000000000000F000000002D000000000000000000
310
00000000000000000000000000000000000000000000000000000000000000000000000000000000000000000000000000000000000000000000000000000000000000000000000000000000000000000000000000000000000000000000000000000000000000000000002D000000000F0000000000000000000000000000
310
00000000000000000000F5C3C3C3C3C3C3F5C3C3C3C3C3C3F50000F500000000000000F500F50000F5F5C3C3F5F500000000000000F5F5F5C3C3C30000F500000000000000000000000000F5C30000000000000000000000C3F50000F5F500F50000000000000000000000000000000000000F000000002D00000000000000
310
000000000000000000000000000000000000000000000000000000000000000000000000000000000000000000000000000000000000000000000000000000000000000000000000000000000000000000000000000000000000000000000000000000000000000000000000002D000000000F000000000000000000000000
310
0000000000F5F50000F5F5F5F5F5C300F5C300F5F5C30000F5C3F50000F500000000000000000000000000F5F5C3F5F5F5F5F5F5F5F5F5F5F5F5C3C3C30000F500000000000000000000000000F5C30000000000000000000000C3F50000F50000F50000000000000000000000000000000000000F000000002D0000000000
310
0000000000000000000000000000000000000000000000000000000000000000000000000000000000000000000000000000000000000000000000000000000000000000000000000000000000000000000000000000000000000000000000000000000000000000000000000000002D000000000F00000000000000000000
310
00000000000000F5F5F5F5F5F5F5F5F5F5F5F5F5F5F5F5F5F5F5F5F5F50000F500000000000000000000000000F5F5F5F5000000F5F5F5F500F500F5C3C3C30000F500000000000000000000000000F5C30000000000000000000000C3F50000F50000F50000000000000000000000000000000000000F000000002D000000
310
00000000000000000000000000000000000000000000000000000000000000000000000000000000000000000000000000000000000000000000000000000000000000000000000000000000000000000000000000000000000000000000000000000000000000000000000000000000002D000000000F0000000000000000
310
0000000000000000000000F500F50000F5C3C3C3C3C3C3F5C3C3C3C3C3C3F50000F500000000000000000000000000F5F5F5F5000000F5F5F5F500F500F5C3C3C3F5F5F500000000000000000000000000F5C30000000000000000000000C3F5F5F5F5F5F5F50000000000000000000000000000000000000F000000002D00
310
000000000000000000000000000000000000000000000000000000000000000000000000000000000000000000000000000000000000000000000000000000000000000000000000000000000000000000000000000000000000000000000000000000000000000000000000000000000000002D000000000F000000000000
310
000000000000000000000000000000000000F5F5C3F5F5C300F500C3F5F500C3F500F5F500000000000000000000000000F5C3C3F5000000000000F5F5F500F5C3C3C3F5F5F500000000000000000000000000F5C30000000000000000000000C3F5F5F5F5F5F5F50000000000000000000000000000000000000F00000000
310
2D00000000000000000000000000000000000000000000000000000000000000000000000000000000000000000000000000000000000000000000000000000000000000000000000000000000000000000000000000000000000000000000000000000000000000000000000000000000000000002D000000000F00000000
310
0000000000000000000000000000000000000000F5F5C3F5F5C300F500C3F5F500C3F5F5F5F500000000000000000000000000C3C3C3F5000000000000F5F5F500F5C3C3C3F5F5F500000000000000000000000000F5C30000000000000000000000C3F5F5F5F5F5F5F50000000000000000000000000000000000000F0000
310
00002D00000000000000000000000000000000000000000000000000000000000000000000000000000000000000000000000000000000000000000000000000000000000000000000000000000000000000000000000000000000000000000000000000000000000000000000000000000000000000002D000000000F0000
310
00000000000000000000000000000000000000000000F5F5C3F5F5C300F500C3F5F5F5C3F5F5F5F500000000000000000000000000C3C3C3F5000000000000F5F5F500F5C3C3C3F5F5F500000000000000000000000000F5C30000000000000000000000C3F500F5F500F5F50000000000000000000000000000000000000F
310
000000002D00000000000000000000000000000000000000000000000000000000000000000000000000000000000000000000000000000000000000000000000000000000000000000000000000000000000000000000000000000000000000000000000000000000000000000000000000000000000000002D000000000F
310
000000000000000000000000000000000000000000000000F5F5C3F5F5C300F500C3F5F500C3F5F5F5F500000000000000000000000000C3C3C3F5000000000000F5F5F500F5C3C3C30000F500000000000000000000000000F5C30000000000000000000000C3F50000F50000F50000000000000000000000000000000000
310
000F000000002D00000000000000000000000000000000000000000000000000000000000000000000000000000000000000000000000000000000000000000000000000000000000000000000000000000000000000000000000000000000000000000000000000000000000000000000000000000000000000002D000000
310
000F000000000000000000000000000000000000000000000000F5C3C3C3C3C3C3F5C3C3C3C3C3C3F50000F500000000000000000000000000C3C3C3F50000000000000000F500F5C3C3C30000F500000000000000000000000000F5C30000000000000000000000C3F50000F50000F5000000000000000000000000000000
310
0000000F000000002D00000000000000000000000000000000000000000000000000000000000000000000000000000000000000000000000000000000000000000000000000000000000000000000000000000000000000000000000000000000000000000000000000000000000000000000000000000000000000002D00
310
0000000F000000000000000000000000000000000000000000000000F5F5C30000C300F500C3000000C3F50000F500000000000000000000000000C3C3C3F50000000000000000F500F5C3C3C30000F500000000000000000000000000F5C3F5000000000000000000F5C3F50000F5F500F500000000000000000000000000
310
00000000000F000000002D0000000000000000000000000000000000000000000000000000000000000000000000000000000000000000000000000000000000000000000000000000000000000000000000000000000000000000000000000000000000000000000000000000000000000000000000000000000000000000
310
2D000000000F000000000000000000000000000000000000000000000000F5F5C30000C300F500C3000000C3F50000F500000000000000000000000000C3C3C3C3C3C3C3C3C3C3C3C3F5F5F5C3C3C30000F500000000000000000000000000F5C3C3C3C3C3C3C3C3C3C3C3C3C3F5F5F5F5F500F5F500000000000000000000
310
000000000000000F000000002D000000000000000000000000000000000000000000000000000000000000000000000000000000000000000000000000000000000000000000000000000000000000000000000000000000000000000000000000000000000000000000000000000000000000000000000000000000000000
310
00002D000000000F000000000000000000000000000000000000000000000000F5C3C3C3C3C3C3F5C3C3C3C3C3C3F50000F500000000000000000000000000C3C3C3C3C3C3C3C3C3C3C3C3C3C3C3C3C3C30000F500000000000000000000000000F5F5F5F5F5F5F5F5F5F5F5F5F5F5F5F5F5F5F5F5F5F50000000000000000
310
0000000000000000000F000000002D00000000000000000000000000000000000000000000000000000000000000000000000000000000000000000000000000000000000000000000000000000000000000000000000000000000000000000000000000000000000000000000000000000000000000000000000000000000
310
000000002D000000000F000000000000000000000000000000000000000000000000F5F5C3F5F5C3F5F5F5C3F5F5F5C3F5F5F5F5F5000000000000000000000000C3C3C3C3C3C3C3C3C3C3C3C3C3C3C3C3C3C30000F500000000000000000000000000F5F50000000000000000000000F5F50000F5F5000000000000000000
310
00000000000000000000000F000000002D0000000000000000000000000000000000000000000000000000000000000000000000000000000000000000000000000000000000000000000000000000000000000000000000000000000000000000000000000000000000000000000000000000000000000000000000000000
310
0000000000002D000000000F000000000000000000000000000000000000000000000000F500000000000000000000000000F500000000000000000000000000000000F5F5F5F5F5F5F5F5F5F5F5F5F5F5F5F5F5F5F5F5F5F5000000000000000000000000F5F50000000000000000000000F5F500F5F50000000000000000
310
000000000000000000000000000F000000002D000000000000000000000000000000000000000000000000000000000000000000000000000000000000000000000000000000000000000000000000000000000000000000000000000000000000000000000000000000000000000000000000000000000000000000000000
310
00000000000000002D000000000F000000000000000000000000000000000000000000000000F500000000000000000000000000F500000000000000000000000000000000F5F5F5F5F5F5F5F5F5F5F5F5F5F5F5F5F5F500000000000000000000000000000000F5F50000000000000000000000F5F500F5F5000000000000
310
0000000000000000000000000000000F000000002D00000000000000000000000000000000000000000000000000000000000000000000000000000000000000000000000000000000000000000000000000000000000000000000000000000000000000000000000000000000000000000000000000000000000000000000
310
000000000000000000002D000000000F000000000000000000000000000000000000000000000000F5F5F5F5F5F5F5F5F5F5F5F5F5F5F500000000000000000000000000000000F5000000000000F5F5F5F5000000000000F500000000000000000000000000F5F5F5F5F5F5F5F5F5F5F5F5F5F5F5F5F5F5F5F5F500000000
310
00000000000000000000000000000000000F000000002D0000000000000000000000000000000000000000000000000000000000000000000000000000000000000000000000000000000000000000000000000000000000000000000000000000000000000000000000000000000000000000000000000000000000000000
310
0000000000000000000000002D000000000F000000000000000000000000000000000000000000000000000000000000F5F5F5F500000000000000000000000000000000000000000000000000000000F5F5F5F50000000000000000000000000000000000000000F5F5F5F5F5F5F50000F5F5F50000F5F5F5F5F5F5F50000
310
000000000000000000000000000000000000000F000000002D000000000000000000000000000000000000000000000000000000000000000000000000000000000000000000000000000000000000000000000000000000000000000000000000000000000000000000000000000000000000000000000000000000000000
310
00000000000000000000000000002D000000000F000000000000000000000000000000000000000000000000000000000000F5F5F50000000000000000000000000000000000000000000000000000000000000000000000000000000000000000000000000000000000F5F5F5F50000000000F5F5F50000000000F5F5F5F5
310
0000000000000000000000000000000000000000000F000000002D00000000000000000000000000000000000000000000000000000000000000000000000000000000000000000000000000000000000000000000000000000000000000000000000000000000000000000000000000000000000000000000000000000000
310
000000000000000000000000000000002D000000000F0000000000000000000000000000000000000000000000000000000000000000000000000000000000000000000000000000000000000000000000000000000000000000000000000000000000000000000000000000000000F5F5F5F5F5F5F5F5F5F5F5F5F5F5F500
310
00000000000000000000000000000000000000000000000F000000002D0000000000000000000000000000000000000000000000000000000000000000000000000000000000000000000000000000000000000000000000000000000000000000000000000000000000000000000000000000000000000000000000000000
310
0000000000000000000000000000000000002D000000000F0000000000000000000000000000000000000000000000000000000000000000000000000000000000000000000000000000000000000000000000000000000000000000000000000000000000000000000000000000000000F50000000000F5F5F50000000000
310
F50000000000000000000000000000000000000000000000000F000000002D000000000000000000000000000000000000000000000000000000000000000000000000000000000000000000000000000000000000000000000000000000000000000000000000000000000000000000000000000000000000000000000000
310
00000000000000000000000000000000000000002D000000000F0000000000000000000000000000000000000000000000000000000000000000000000000000000000000000000000000000000000000000000000000000000000000000000000000000000000000000000000000000000000000000000000F5F5F5000000
310
0000000000000000000000000000000000000000000000000000000F000000002D00000000000000000000000000000000000000000000000000000000000000000000000000000000000000000000000000000000000000000000000000000000000000000000000000000000000000000000000000000000000000000000
310
000000000000000000000000000000000000000000002D000000000F0000000000000000000000000000000000000000000000000000F5F5F5F5F5F5F5F5F5F50000000000000000000000000000000000000000000000F5F5F5F5F5F5F5F5F5F5000000000000000000000000000000000000000000000000000000000000
310
00000000000000000000000000000000000000000000000000000000000F000000002D0000000000000000000000000000000000000000000000000000000000000000000000000000000000000000000000000000000000000000000000000000000000000000000000000000000000000000000000000000000000000000
310
0000000000000000000000000000000000000000000000002D000000000F0000000000000000000000000000000000000000000000000000F5F5F5F5F5F5F5F5F5F50000000000000000000000000000000000000000000000F5F5F5F5F5F5F5F5F5F500000000000000000000000000000000000000000000000000000000
310
000000000000000000000000000000000000000000000000000000000000000F000000002D000000000000000000000000000000000000000000000000000000000000000000000000000000000000000000000000000000000000000000000000000000000000000000000000000000000000000000000000000000000000
310
00000000000000000000000000000000000000000000000000002D000000000F0000000000000000000000000000000000000000000000000000000000000000000000000000000000000000000000000000000000000000000000000000000000000000000000000000000000000000000000000000000000000000000000
310
0000000000000000000000000000000000000000000000000000000000000000000F000000002D00000000000000000000000000000000000000000000000000000000000000000000000000000000000000000000000000000000000000000000000000000000000000000000000000000000000000000000000000000000
310
000000000000000000000000000000000000000000000000000000002D000000000F0000000000000000000000000000000000000000000000000000000000F5F5F5F500000000000000000000000000000000000000000000000000000000F5F5F5F5F5000000000000000000000000000000000000000000000000000000
310
00F5F5F5F50000000000000000000000000000000000000000000000000000000000000F000000002D0000000000000000000000000000000000000000000000000000000000000000000000000000000000000000000000000000000000000000000000000000000000000000000000000000000000000000000000000000
310
0000000000000000000000000000000000000000000000000000000000002D000000000F0000000000000000000000000000000000000000000000000000000000F5F5F5F500000000000000000000000000000000000000000000000000000000F5F5F5F5F500000000000000000000000000000000000000000000000000
310
000000F5F5F5F50000000000000000000000000000000000000000000000000000000000000F000000002D000000000000000000000000000000000000000000000000000000000000000000000000000000000000000000000000000000000000000000000000000000000000000000000000000000000000000000000000
310
00000000000000000000000000000000000000000000000000000000000000002D000000000F0000000000000000000000000000000000000000000000000000000000000000000000000000000000000000000000000000000000000000000000000000000000000000000000000000000000000000000000000000000000
310
0000000000000000000000000000000000000000000000000000000000000000000000000000000F000000002D00000000000000000000000000000000000000000000000000000000000000000000000000000000000000000000000000000000000000000000000000000000000000000000000000000000000000000000
310
000000000000000000000000000000000000000000000000000000000000000000002D000000000F000000000000000000000000000000000000000000000000000000000000000000000000000000000000000000000000000000000000000000000000000000000000000000000000000000000000000000000000000000
310
00000000000000000000000000000000000000000000000000000000000000000000000000000000000F000000002D0000000000000000000000000000000000000000000000000000000000000000000000000000000000000000000000000000000000000000000000000000000000000000000000000000000000000000
310
0000000000000000000000000000000000000000000000000000000000000000000000002D000000000F00000000000000000000000000000000000000000000000000000000000000000000000000000000000000000000000000000000000000000000000000000000000000000000000000000000000000000000000000
310
000000000000000000000000000000000000000000000000000000000000000000000000000000000000000F000000002D000000000000000000000000000000000000000000000000000000000000000000000000000000000000000000000000000000000000000000000000000000000000000000000000000000000000
310
00000000000000000000000000000000000000000000000000000000000000000000000000002D000000000F0F0F0F0F0F0F0F0F0F0F0F0F0F0F0F0F0F0F0F0F0F0F0F0F0F0F0F0F0F0F0F0F0F0F0F0F0F0F0F0F0F0F0F0F0F0F0F0F0F0F0F0F0F0F0F0F0F0F0F0F0F0F0F0F0F0F0F0F0F0F0F0F0F0F0F0F0F0F0F0F0F0F0F
310
0F0F0F0F0F0F0F0F0F0F0F0F0F0F0F0F0F0F0F0F0F0F0F0F0F0F0F0F0F0F0F0F0F0F0F0F0F0F0F0F0F0F0F0F0F0F000000002D00000000000000000000000000000000000000000000000000000000000000000000000000000000000000000000000000000000000000000000000000000000000000000000000000000000
310
000000000000000000000000000000000000000000000000000000000000000000000000000000002D0000000000000000000000000000000000000000000000000000000000000000000000000000000000000000000000000000000000000000000000000000000000000000000000000000000000000000000000000000
310
000000000000000000000000000000000000000000000000000000000000000000000000000000000000000000000000000000002D0000000000000000000000000000000000000000000000000000000000000000000000000000000000000000000000000000000000000000000000000000000000000000000000000000
310
0000000000000000000000000000000000000000000000000000000000000000000000000000000000002D000000000000000000000000000000000000000000000000000000000000000000000000000000000000000000000000000000000000000000000000000000000000000000000000000000000000000000000000
310
0000000000000000000000000000000000000000000000000000000000000000000000000000000000000000000000000000000000002D000000000000000000000000000000000000000000000000000000000000000000000000000000000000000000000000000000000000000000000000000000000000000000000000
310
00000000000000000000000000000000000000000000000000000000000000000000000000000000000000002D00000000000000000000000000000000000000000000000000000000000000000000000000000000000000000000000000000000000000000000000000000000000000000000000000000000000000000000
310
00000000000000000000000000000000000000000000000000000000000000000000000000000000000000000000000000000000000000002D00000000000000000000000000000000000000000000000000000000000000000000000000000000000000000000000000000000000000000000000000000000000000000000
310
000000000000000000000000000000000000000000000000000000000000000000000000000000000000000000002D0000000000000000000000000000000000000000000000000000000000000000000000000000000000000000000000000000000000000000000000000000000000000000000000000000000000000000
310
000000000000000000000000000000000000000000000000000000000000000000000000000000000000000000000000000000000000000000002D0000000000000000000000000000000000000000000000000000000000000000000000000000000000000000000000000000000000000000000000000000000000000000
310
0000000000000000000000000000000000000000000000000000000000000000000000000000000000000000000000002D2D2D2D2D2D2D2D2D2D2D2D2D2D2D2D2D2D2D2D2D2D2D2D2D2D2D2D2D2D2D2D2D2D2D2D2D2D2D2D2D2D2D2D2D2D2D2D2D2D2D2D2D2D2D2D2D2D2D2D2D2D2D2D2D2D2D2D2D2D2D2D2D2D2D2D2D2D2D
310
2D2D2D2D2D2D2D2D2D2D2D2D2D2D2D2D2D2D2D2D2D2D2D2D2D2D2D2D2D2D2D2D2D2D2D2D2D2D2D2D2D2D2D2D2D2D2D2D2D2D2D2D2D2D2D2D2D2D2D2D2D000000000000000000000000000000000000000000000000000000000000000000000000000000000000000000000000000000000000000000000000000000000000
310
00000000000000000000000000000000000000000000000000000000000000000000000000000000000000000000000000000000000000000000000000000000000000000000000000000000000000000000000000000000000000000000000000000000000000000000000000000000000000000000000000000000000000
310
00000000000000000000000000000000000000000000000000000000000000000000000000000000000000000000000000000000000000000000000000000000000000000000000000000000000000000000000000000000000000000000000000000000000000000000000000000000000000000000000000000000000000
310
00000000000000000000000000000000000000000000000000000000000000000000000000000000000000000000000000000000000000000000000000000000000000000000000000000000000000000000000000000000000000000000000000000000000000000000000000000000000000000000000000000000000000
310
00000000000000000000000000000000000000000000000000000000000000000000000000000000000000000000000000000000000000000000000000000000000000000000000000000000000000000000000000000000000000000000000000000000000000000000000000000000000000000000000000000000000000
310
00000000000000000000000000000000000000000000000000000000000000000000000000000000000000000000000000000000000000000000000000000000000000000000000000000000000000000000000000000000000000000000000000000000000000000000000000000000000000000000000000000000000000
310
00000000000000000000000000000000000000000000000000000000000000000000000000000000000000000000000000000000000000000000000000000000000000000000000000000000000000000000000000000000000000000000000000000000000000000000000000000000000000000000000000000000000000
310
00000000000000000000000000000000000000000000000000000000000000000000000000000000000000000000000000000000000000000000000000000000000000000000000000000000000000000000000000000000000000000000000000000000000000000000000000000000000000000000000000000000000000
310
00000000000000000000000000000000000000000000000000000000000000000000000000000000000000000000000000000000000000000000000000000000000000000000000000000000000000000000000000000000000000000000000000000000000000000000000000000000000000000000000000000000000000
310
00000000000000000000000000000000000000000000000000000000000000000000000000000000000000000000000000000000000000000000000000000000000000000000000000000000000000000000000000000000000000000000000000000000000000000000000000000000000000000000000000000000000000
310
00000000000000000000000000000000000000000000000000000000000000000000000000000000000000000000000000000000000000000000000000000000000000000000000000000000000000000000000000000000000000000000000000000000000000000000000000000000000000000000000000000000000000
310
00000000000000000000000000000000000000000000000000000000000000000000000000000000000000000000000000000000000000000000000000000000000000000000000000000000000000000000000000000000000000000000000000000000000000000000000000000000000000000000000000000000000000
310
00000000000000000000000000000000000000000000000000000000000000000000000000000000000000000000000000000000000000000000000000000000000000000000000000000000000000000000000000000000000000000000000000000000000000000000000000000000000000000000000000000000000000
310
00000000000000000000000000000000000000000000000000000000000000000000000000000000000000000000000000000000000000000000000000000000000000000000000000000000000000000000000000000000000000000000000000000000000000000000000000000000000000000000000000000000000000
310
00000000000000000000000000000000000000000000000000000000000000000000000000000000000000000000000000000000000000000000000000000000000000000000000000000000000000000000000000000000000000000000000000000000000000000000000000000000000000000000000000000000000000
310
00000000000000000000000000000000000000000000000000000000000000000000000000000000000000000000000000000000000000000000000000000000000000000000000000000000000000000000000000000000000000000000000000000000000000000000000000000000000000000000000000000000000000
310
00000000000000000000000000000000000000000000000000000000000000000000000000000000000000000000000000000000000000000000000000000000000000000000000000000000000000000000000000000000000000000000000000000000000000000000000000000000000000000000000000000000000000
310
00000000000000000000000000000000000000000000000000000000000000000000000000000000000000000000000000000000000000000000000000000000000000000000000000000000000000000000000000000000000000000000000000000000000000000000000000000000000000000000000000000000000000
310
00000000000000000000000000000000000000000000000000000000000000000000000000000000000000000000000000000000000000000000000000000000000000000000000000000000000000000000000000000000000000000000000000000000000000000000000000000000000000000000000000000000000000
310
00000000000000000000000000000000
  0
XRECORD
  5
1C
102
{ACAD_REACTORS
330
1A
102
}
330
1A
100
AcDbXrecord
280
     1
270
     1
271
     1
  0
XRECORD
  5
1B
102
{ACAD_REACTORS
330
1A
102
}
330
1A
100
AcDbXrecord
280
     1
270
     1
271
     1
  0
XRECORD
  5
1F
102
{ACAD_REACTORS
330
1A
102
}
330
1A
100
AcDbXrecord
280
     1
270
     1
271
     1
  0
XRECORD
  5
1E
102
{ACAD_REACTORS
330
1A
102
}
330
1A
100
AcDbXrecord
280
     1
270
     1
271
     1
  0
XRECORD
  5
20
102
{ACAD_REACTORS
330
1A
102
}
330
1A
100
AcDbXrecord
280
     1
270
     1
271
     1
  0
XRECORD
  5
1D
102
{ACAD_REACTORS
330
1A
102
}
330
1A
100
AcDbXrecord
280
     1
270
     1
271
     1
  0
XRECORD
  5
14
102
{ACAD_REACTORS
330
12
102
}
330
12
100
AcDbXrecord
280
     1
270
     1
271
     1
  0
XRECORD
  5
13
102
{ACAD_REACTORS
330
12
102
}
330
12
100
AcDbXrecord
280
     1
270
     1
271
     1
  0
XRECORD
  5
17
102
{ACAD_REACTORS
330
12
102
}
330
12
100
AcDbXrecord
280
     1
270
     1
271
     1
  0
XRECORD
  5
16
102
{ACAD_REACTORS
330
12
102
}
330
12
100
AcDbXrecord
280
     1
270
     1
271
     1
  0
XRECORD
  5
18
102
{ACAD_REACTORS
330
12
102
}
330
12
100
AcDbXrecord
280
     1
270
     1
271
     1
  0
XRECORD
  5
15
102
{ACAD_REACTORS
330
12
102
}
330
12
100
AcDbXrecord
280
     1
270
     1
271
     1
  0
XRECORD
  5
24
102
{ACAD_REACTORS
330
22
102
}
330
22
100
AcDbXrecord
280
     1
270
     1
271
     1
  0
XRECORD
  5
23
102
{ACAD_REACTORS
330
22
102
}
330
22
100
AcDbXrecord
280
     1
270
     1
271
     1
  0
XRECORD
  5
27
102
{ACAD_REACTORS
330
22
102
}
330
22
100
AcDbXrecord
280
     1
270
     1
271
     1
  0
XRECORD
  5
26
102
{ACAD_REACTORS
330
22
102
}
330
22
100
AcDbXrecord
280
     1
270
     1
271
     1
  0
XRECORD
  5
28
102
{ACAD_REACTORS
330
22
102
}
330
22
100
AcDbXrecord
280
     1
270
     1
271
     1
  0
XRECORD
  5
25
102
{ACAD_REACTORS
330
22
102
}
330
22
100
AcDbXrecord
280
     1
270
     1
271
     1
  0
CELLSTYLEMAP
  5
1413
102
{ACAD_REACTORS
330
ED
102
}
330
ED
100
AcDbCellStyleMap
 90
        3
300
CELLSTYLE
  1
TABLEFORMAT_BEGIN
 90
        5
170
     1
 91
        0
 92
    32768
 62
   257
 93
        1
300
CONTENTFORMAT
  1
CONTENTFORMAT_BEGIN
 90
        0
 91
        0
 92
      512
 93
        0
300

 40
0.0
140
1.0
 94
        5
 62
     0
340
50
144
6.0
309
CONTENTFORMAT_END
171
     1
301
MARGIN
  1
CELLMARGIN_BEGIN
 40
1.5
 40
1.5
 40
1.5
 40
1.5
 40
4.5
 40
4.5
309
CELLMARGIN_END
 94
        6
 95
        1
302
GRIDFORMAT
  1
GRIDFORMAT_BEGIN
 90
        0
 91
        1
 62
     0
 92
       -2
340
0
 93
        0
 40
1.125
309
GRIDFORMAT_END
 95
        2
302
GRIDFORMAT
  1
GRIDFORMAT_BEGIN
 90
        0
 91
        1
 62
     0
 92
       -2
340
0
 93
        0
 40
1.125
309
GRIDFORMAT_END
 95
        4
302
GRIDFORMAT
  1
GRIDFORMAT_BEGIN
 90
        0
 91
        1
 62
     0
 92
       -2
340
0
 93
        0
 40
1.125
309
GRIDFORMAT_END
 95
        8
302
GRIDFORMAT
  1
GRIDFORMAT_BEGIN
 90
        0
 91
        1
 62
     0
 92
       -2
340
0
 93
        0
 40
1.125
309
GRIDFORMAT_END
 95
       16
302
GRIDFORMAT
  1
GRIDFORMAT_BEGIN
 90
        0
 91
        1
 62
     0
 92
       -2
340
0
 93
        0
 40
1.125
309
GRIDFORMAT_END
 95
       32
302
GRIDFORMAT
  1
GRIDFORMAT_BEGIN
 90
        0
 91
        1
 62
     0
 92
       -2
340
0
 93
        0
 40
1.125
309
GRIDFORMAT_END
309
TABLEFORMAT_END
  1
CELLSTYLE_BEGIN
 90
        1
 91
        1
300
_TITLE
309
CELLSTYLE_END
300
CELLSTYLE
  1
TABLEFORMAT_BEGIN
 90
        5
170
     1
 91
        0
 92
        0
 62
   257
 93
        1
300
CONTENTFORMAT
  1
CONTENTFORMAT_BEGIN
 90
        0
 91
        0
 92
      512
 93
        0
300

 40
0.0
140
1.0
 94
        5
 62
     0
340
50
144
4.5
309
CONTENTFORMAT_END
171
     1
301
MARGIN
  1
CELLMARGIN_BEGIN
 40
1.5
 40
1.5
 40
1.5
 40
1.5
 40
4.5
 40
4.5
309
CELLMARGIN_END
 94
        6
 95
        1
302
GRIDFORMAT
  1
GRIDFORMAT_BEGIN
 90
        0
 91
        1
 62
     0
 92
       -2
340
0
 93
        0
 40
1.125
309
GRIDFORMAT_END
 95
        2
302
GRIDFORMAT
  1
GRIDFORMAT_BEGIN
 90
        0
 91
        1
 62
     0
 92
       -2
340
0
 93
        0
 40
1.125
309
GRIDFORMAT_END
 95
        4
302
GRIDFORMAT
  1
GRIDFORMAT_BEGIN
 90
        0
 91
        1
 62
     0
 92
       -2
340
0
 93
        0
 40
1.125
309
GRIDFORMAT_END
 95
        8
302
GRIDFORMAT
  1
GRIDFORMAT_BEGIN
 90
        0
 91
        1
 62
     0
 92
       -2
340
0
 93
        0
 40
1.125
309
GRIDFORMAT_END
 95
       16
302
GRIDFORMAT
  1
GRIDFORMAT_BEGIN
 90
        0
 91
        1
 62
     0
 92
       -2
340
0
 93
        0
 40
1.125
309
GRIDFORMAT_END
 95
       32
302
GRIDFORMAT
  1
GRIDFORMAT_BEGIN
 90
        0
 91
        1
 62
     0
 92
       -2
340
0
 93
        0
 40
1.125
309
GRIDFORMAT_END
309
TABLEFORMAT_END
  1
CELLSTYLE_BEGIN
 90
        2
 91
        1
300
_HEADER
309
CELLSTYLE_END
300
CELLSTYLE
  1
TABLEFORMAT_BEGIN
 90
        5
170
     1
 91
        0
 92
        0
 62
   257
 93
        1
300
CONTENTFORMAT
  1
CONTENTFORMAT_BEGIN
 90
        0
 91
        0
 92
      512
 93
        0
300

 40
0.0
140
1.0
 94
        2
 62
     0
340
50
144
4.5
309
CONTENTFORMAT_END
171
     1
301
MARGIN
  1
CELLMARGIN_BEGIN
 40
1.5
 40
1.5
 40
1.5
 40
1.5
 40
4.5
 40
4.5
309
CELLMARGIN_END
 94
        6
 95
        1
302
GRIDFORMAT
  1
GRIDFORMAT_BEGIN
 90
        0
 91
        1
 62
     0
 92
       -2
340
0
 93
        0
 40
1.125
309
GRIDFORMAT_END
 95
        2
302
GRIDFORMAT
  1
GRIDFORMAT_BEGIN
 90
        0
 91
        1
 62
     0
 92
       -2
340
0
 93
        0
 40
1.125
309
GRIDFORMAT_END
 95
        4
302
GRIDFORMAT
  1
GRIDFORMAT_BEGIN
 90
        0
 91
        1
 62
     0
 92
       -2
340
0
 93
        0
 40
1.125
309
GRIDFORMAT_END
 95
        8
302
GRIDFORMAT
  1
GRIDFORMAT_BEGIN
 90
        0
 91
        1
 62
     0
 92
       -2
340
0
 93
        0
 40
1.125
309
GRIDFORMAT_END
 95
       16
302
GRIDFORMAT
  1
GRIDFORMAT_BEGIN
 90
        0
 91
        1
 62
     0
 92
       -2
340
0
 93
        0
 40
1.125
309
GRIDFORMAT_END
 95
       32
302
GRIDFORMAT
  1
GRIDFORMAT_BEGIN
 90
        0
 91
        1
 62
     0
 92
       -2
340
0
 93
        0
 40
1.125
309
GRIDFORMAT_END
309
TABLEFORMAT_END
  1
CELLSTYLE_BEGIN
 90
        3
 91
        2
300
_DATA
309
CELLSTYLE_END
  0
XRECORD
  5
1420
102
{ACAD_REACTORS
330
141F
102
}
330
141F
100
AcDbXrecord
280
     1
102
RTVSPropertyOp0
 70
     1
102
RTVSPropertyOp1
 70
     1
102
RTVSPropertyOp2
 70
     1
102
RTVSPropertyOp3
 70
     1
102
RTVSPropertyOp4
 70
     1
102
RTVSPropertyOp5
 70
     1
102
RTVSPropertyOp6
 70
     1
102
RTVSPropertyOp7
 70
     1
102
RTVSPropertyOp8
 70
     1
102
RTVSPropertyOp9
 70
     1
102
RTVSPropertyOp10
 70
     1
102
RTVSPropertyOp11
 70
     1
102
RTVSPropertyOp12
 70
     1
102
RTVSPropertyOp13
 70
     1
102
RTVSPropertyOp14
 70
     1
102
RTVSPropertyOp15
 70
     1
102
RTVSPropertyOp16
 70
     1
102
RTVSPropertyOp17
 70
     1
102
RTVSPropertyOp18
 70
     1
102
RTVSPropertyOp19
 70
     1
102
RTVSPropertyOp20
 70
     1
102
RTVSPropertyOp21
 70
     1
102
RTVSPropertyOp22
 70
     1
102
RTVSPropertyOp23
 70
     1
102
RTVSPropertyOp24
 70
     1
102
RTVSPropertyOp25
 70
     1
102
RTVSPropertyOp26
 70
     1
102
RTVSPropertyOp27
 70
     1
102
RTVSPropertyOp28
 70
     1
102
RTVSPropertyOp29
 70
     1
102
RTVSPropertyOp30
 70
     1
102
RTVSPropertyOp31
 70
     1
102
RTVSPropertyOp32
 70
     1
  0
XRECORD
  5
1424
102
{ACAD_REACTORS
330
1423
102
}
330
1423
100
AcDbXrecord
280
     1
102
RTVSPropertyOp0
 70
     1
102
RTVSPropertyOp1
 70
     1
102
RTVSPropertyOp2
 70
     1
102
RTVSPropertyOp3
 70
     1
102
RTVSPropertyOp4
 70
     1
102
RTVSPropertyOp5
 70
     1
102
RTVSPropertyOp6
 70
     1
102
RTVSPropertyOp7
 70
     1
102
RTVSPropertyOp8
 70
     1
102
RTVSPropertyOp9
 70
     1
102
RTVSPropertyOp10
 70
     1
102
RTVSPropertyOp11
 70
     1
102
RTVSPropertyOp12
 70
     1
102
RTVSPropertyOp13
 70
     1
102
RTVSPropertyOp14
 70
     1
102
RTVSPropertyOp15
 70
     1
102
RTVSPropertyOp16
 70
     1
102
RTVSPropertyOp17
 70
     1
102
RTVSPropertyOp18
 70
     1
102
RTVSPropertyOp19
 70
     1
102
RTVSPropertyOp20
 70
     1
102
RTVSPropertyOp21
 70
     1
102
RTVSPropertyOp22
 70
     1
102
RTVSPropertyOp23
 70
     1
102
RTVSPropertyOp24
 70
     1
102
RTVSPropertyOp25
 70
     1
102
RTVSPropertyOp26
 70
     1
102
RTVSPropertyOp27
 70
     1
102
RTVSPropertyOp28
 70
     1
102
RTVSPropertyOp29
 70
     1
102
RTVSPropertyOp30
 70
     1
102
RTVSPropertyOp31
 70
     1
102
RTVSPropertyOp32
 70
     1
  0
XRECORD
  5
1422
102
{ACAD_REACTORS
330
1421
102
}
330
1421
100
AcDbXrecord
280
     1
102
RTVSPropertyOp0
 70
     1
102
RTVSPropertyOp1
 70
     1
102
RTVSPropertyOp2
 70
     1
102
RTVSPropertyOp3
 70
     1
102
RTVSPropertyOp4
 70
     1
102
RTVSPropertyOp5
 70
     1
102
RTVSPropertyOp6
 70
     1
102
RTVSPropertyOp7
 70
     1
102
RTVSPropertyOp8
 70
     1
102
RTVSPropertyOp9
 70
     1
102
RTVSPropertyOp10
 70
     1
102
RTVSPropertyOp11
 70
     1
102
RTVSPropertyOp12
 70
     1
102
RTVSPropertyOp13
 70
     1
102
RTVSPropertyOp14
 70
     1
102
RTVSPropertyOp15
 70
     1
102
RTVSPropertyOp16
 70
     1
102
RTVSPropertyOp17
 70
     1
102
RTVSPropertyOp18
 70
     1
102
RTVSPropertyOp19
 70
     1
102
RTVSPropertyOp20
 70
     1
102
RTVSPropertyOp21
 70
     1
102
RTVSPropertyOp22
 70
     1
102
RTVSPropertyOp23
 70
     1
102
RTVSPropertyOp24
 70
     1
102
RTVSPropertyOp25
 70
     1
102
RTVSPropertyOp26
 70
     1
102
RTVSPropertyOp27
 70
     1
102
RTVSPropertyOp28
 70
     1
102
RTVSPropertyOp29
 70
     1
102
RTVSPropertyOp30
 70
     1
102
RTVSPropertyOp31
 70
     1
102
RTVSPropertyOp32
 70
     1
  0
XRECORD
  5
141E
102
{ACAD_REACTORS
330
141D
102
}
330
141D
100
AcDbXrecord
280
     1
102
RTVSPropertyOp0
 70
     1
102
RTVSPropertyOp1
 70
     1
102
RTVSPropertyOp2
 70
     1
102
RTVSPropertyOp3
 70
     1
102
RTVSPropertyOp4
 70
     1
102
RTVSPropertyOp5
 70
     1
102
RTVSPropertyOp6
 70
     1
102
RTVSPropertyOp7
 70
     1
102
RTVSPropertyOp8
 70
     1
102
RTVSPropertyOp9
 70
     1
102
RTVSPropertyOp10
 70
     1
102
RTVSPropertyOp11
 70
     1
102
RTVSPropertyOp12
 70
     1
102
RTVSPropertyOp13
 70
     1
102
RTVSPropertyOp14
 70
     1
102
RTVSPropertyOp15
 70
     1
102
RTVSPropertyOp16
 70
     1
102
RTVSPropertyOp17
 70
     1
102
RTVSPropertyOp18
 70
     1
102
RTVSPropertyOp19
 70
     1
102
RTVSPropertyOp20
 70
     1
102
RTVSPropertyOp21
 70
     1
102
RTVSPropertyOp22
 70
     1
102
RTVSPropertyOp23
 70
     1
102
RTVSPropertyOp24
 70
     1
102
RTVSPropertyOp25
 70
     1
102
RTVSPropertyOp26
 70
     1
102
RTVSPropertyOp27
 70
     1
102
RTVSPropertyOp28
 70
     1
102
RTVSPropertyOp29
 70
     1
102
RTVSPropertyOp30
 70
     1
102
RTVSPropertyOp31
 70
     1
102
RTVSPropertyOp32
 70
     1
  0
XRECORD
  5
142C
102
{ACAD_REACTORS
330
142B
102
}
330
142B
100
AcDbXrecord
280
     1
102
RTVSPropertyOp0
 70
     1
102
RTVSPropertyOp1
 70
     1
102
RTVSPropertyOp2
 70
     1
102
RTVSPropertyOp3
 70
     1
102
RTVSPropertyOp4
 70
     1
102
RTVSPropertyOp5
 70
     1
102
RTVSPropertyOp6
 70
     1
102
RTVSPropertyOp7
 70
     1
102
RTVSPropertyOp8
 70
     1
102
RTVSPropertyOp9
 70
     1
102
RTVSPropertyOp10
 70
     1
102
RTVSPropertyOp11
 70
     1
102
RTVSPropertyOp12
 70
     1
102
RTVSPropertyOp13
 70
     1
102
RTVSPropertyOp14
 70
     1
102
RTVSPropertyOp15
 70
     1
102
RTVSPropertyOp16
 70
     1
102
RTVSPropertyOp17
 70
     1
102
RTVSPropertyOp18
 70
     1
102
RTVSPropertyOp19
 70
     1
102
RTVSPropertyOp20
 70
     1
102
RTVSPropertyOp21
 70
     1
102
RTVSPropertyOp22
 70
     1
102
RTVSPropertyOp23
 70
     1
102
RTVSPropertyOp24
 70
     1
102
RTVSPropertyOp25
 70
     1
102
RTVSPropertyOp26
 70
     1
102
RTVSPropertyOp27
 70
     1
102
RTVSPropertyOp28
 70
     1
102
RTVSPropertyOp29
 70
     1
102
RTVSPropertyOp30
 70
     1
102
RTVSPropertyOp31
 70
     1
102
RTVSPropertyOp32
 70
     1
  0
XRECORD
  5
1434
102
{ACAD_REACTORS
330
1433
102
}
330
1433
100
AcDbXrecord
280
     1
102
RTVSPropertyOp0
 70
     1
102
RTVSPropertyOp1
 70
     1
102
RTVSPropertyOp2
 70
     1
102
RTVSPropertyOp3
 70
     1
102
RTVSPropertyOp4
 70
     1
102
RTVSPropertyOp5
 70
     1
102
RTVSPropertyOp6
 70
     1
102
RTVSPropertyOp7
 70
     1
102
RTVSPropertyOp8
 70
     1
102
RTVSPropertyOp9
 70
     1
102
RTVSPropertyOp10
 70
     1
102
RTVSPropertyOp11
 70
     1
102
RTVSPropertyOp12
 70
     1
102
RTVSPropertyOp13
 70
     1
102
RTVSPropertyOp14
 70
     1
102
RTVSPropertyOp15
 70
     1
102
RTVSPropertyOp16
 70
     1
102
RTVSPropertyOp17
 70
     1
102
RTVSPropertyOp18
 70
     1
102
RTVSPropertyOp19
 70
     1
102
RTVSPropertyOp20
 70
     1
102
RTVSPropertyOp21
 70
     1
102
RTVSPropertyOp22
 70
     1
102
RTVSPropertyOp23
 70
     1
102
RTVSPropertyOp24
 70
     1
102
RTVSPropertyOp25
 70
     1
102
RTVSPropertyOp26
 70
     1
102
RTVSPropertyOp27
 70
     1
102
RTVSPropertyOp28
 70
     1
102
RTVSPropertyOp29
 70
     1
102
RTVSPropertyOp30
 70
     1
102
RTVSPropertyOp31
 70
     1
102
RTVSPropertyOp32
 70
     1
  0
XRECORD
  5
1426
102
{ACAD_REACTORS
330
1425
102
}
330
1425
100
AcDbXrecord
280
     1
102
RTVSPropertyOp0
 70
     1
102
RTVSPropertyOp1
 70
     1
102
RTVSPropertyOp2
 70
     1
102
RTVSPropertyOp3
 70
     1
102
RTVSPropertyOp4
 70
     1
102
RTVSPropertyOp5
 70
     1
102
RTVSPropertyOp6
 70
     1
102
RTVSPropertyOp7
 70
     1
102
RTVSPropertyOp8
 70
     1
102
RTVSPropertyOp9
 70
     1
102
RTVSPropertyOp10
 70
     1
102
RTVSPropertyOp11
 70
     1
102
RTVSPropertyOp12
 70
     1
102
RTVSPropertyOp13
 70
     1
102
RTVSPropertyOp14
 70
     1
102
RTVSPropertyOp15
 70
     1
102
RTVSPropertyOp16
 70
     1
102
RTVSPropertyOp17
 70
     1
102
RTVSPropertyOp18
 70
     1
102
RTVSPropertyOp19
 70
     1
102
RTVSPropertyOp20
 70
     1
102
RTVSPropertyOp21
 70
     1
102
RTVSPropertyOp22
 70
     1
102
RTVSPropertyOp23
 70
     1
102
RTVSPropertyOp24
 70
     1
102
RTVSPropertyOp25
 70
     1
102
RTVSPropertyOp26
 70
     1
102
RTVSPropertyOp27
 70
     1
102
RTVSPropertyOp28
 70
     1
102
RTVSPropertyOp29
 70
     1
102
RTVSPropertyOp30
 70
     1
102
RTVSPropertyOp31
 70
     1
102
RTVSPropertyOp32
 70
     1
  0
XRECORD
  5
142A
102
{ACAD_REACTORS
330
1429
102
}
330
1429
100
AcDbXrecord
280
     1
102
RTVSPropertyOp0
 70
     1
102
RTVSPropertyOp1
 70
     1
102
RTVSPropertyOp2
 70
     1
102
RTVSPropertyOp3
 70
     1
102
RTVSPropertyOp4
 70
     1
102
RTVSPropertyOp5
 70
     1
102
RTVSPropertyOp6
 70
     1
102
RTVSPropertyOp7
 70
     1
102
RTVSPropertyOp8
 70
     1
102
RTVSPropertyOp9
 70
     1
102
RTVSPropertyOp10
 70
     1
102
RTVSPropertyOp11
 70
     1
102
RTVSPropertyOp12
 70
     1
102
RTVSPropertyOp13
 70
     1
102
RTVSPropertyOp14
 70
     1
102
RTVSPropertyOp15
 70
     1
102
RTVSPropertyOp16
 70
     1
102
RTVSPropertyOp17
 70
     1
102
RTVSPropertyOp18
 70
     1
102
RTVSPropertyOp19
 70
     1
102
RTVSPropertyOp20
 70
     1
102
RTVSPropertyOp21
 70
     1
102
RTVSPropertyOp22
 70
     1
102
RTVSPropertyOp23
 70
     1
102
RTVSPropertyOp24
 70
     1
102
RTVSPropertyOp25
 70
     1
102
RTVSPropertyOp26
 70
     1
102
RTVSPropertyOp27
 70
     1
102
RTVSPropertyOp28
 70
     1
102
RTVSPropertyOp29
 70
     1
102
RTVSPropertyOp30
 70
     1
102
RTVSPropertyOp31
 70
     1
102
RTVSPropertyOp32
 70
     1
  0
XRECORD
  5
143A
102
{ACAD_REACTORS
330
1439
102
}
330
1439
100
AcDbXrecord
280
     1
102
RTVSPropertyOp0
 70
     0
102
RTVSPropertyOp1
 70
     0
102
RTVSPropertyOp2
 70
     0
102
RTVSPropertyOp3
 70
     0
102
RTVSPropertyOp4
 70
     0
102
RTVSPropertyOp5
 70
     0
102
RTVSPropertyOp6
 70
     0
102
RTVSPropertyOp7
 70
     0
102
RTVSPropertyOp8
 70
     0
102
RTVSPropertyOp9
 70
     0
102
RTVSPropertyOp10
 70
     0
102
RTVSPropertyOp11
 70
     0
102
RTVSPropertyOp12
 70
     0
102
RTVSPropertyOp13
 70
     0
102
RTVSPropertyOp14
 70
     2
102
RTVSPropertyOp15
 70
     0
102
RTVSPropertyOp16
 70
     0
102
RTVSPropertyOp17
 70
     0
102
RTVSPropertyOp18
 70
     0
102
RTVSPropertyOp19
 70
     0
102
RTVSPropertyOp20
 70
     0
102
RTVSPropertyOp21
 70
     0
102
RTVSPropertyOp22
 70
     0
102
RTVSPropertyOp23
 70
     0
102
RTVSPropertyOp24
 70
     0
102
RTVSPropertyOp25
 70
     0
102
RTVSPropertyOp26
 70
     0
102
RTVSPropertyOp27
 70
     0
102
RTVSPropertyOp28
 70
     1
102
RTVSPropertyOp29
 70
     1
102
RTVSPropertyOp30
 70
     1
102
RTVSPropertyOp31
 70
     1
102
RTVSPropertyOp32
 70
     1
  0
XRECORD
  5
1432
102
{ACAD_REACTORS
330
1431
102
}
330
1431
100
AcDbXrecord
280
     1
102
RTVSPropertyOp0
 70
     1
102
RTVSPropertyOp1
 70
     1
102
RTVSPropertyOp2
 70
     1
102
RTVSPropertyOp3
 70
     1
102
RTVSPropertyOp4
 70
     1
102
RTVSPropertyOp5
 70
     1
102
RTVSPropertyOp6
 70
     1
102
RTVSPropertyOp7
 70
     1
102
RTVSPropertyOp8
 70
     1
102
RTVSPropertyOp9
 70
     1
102
RTVSPropertyOp10
 70
     1
102
RTVSPropertyOp11
 70
     1
102
RTVSPropertyOp12
 70
     1
102
RTVSPropertyOp13
 70
     1
102
RTVSPropertyOp14
 70
     1
102
RTVSPropertyOp15
 70
     1
102
RTVSPropertyOp16
 70
     1
102
RTVSPropertyOp17
 70
     1
102
RTVSPropertyOp18
 70
     1
102
RTVSPropertyOp19
 70
     1
102
RTVSPropertyOp20
 70
     1
102
RTVSPropertyOp21
 70
     1
102
RTVSPropertyOp22
 70
     1
102
RTVSPropertyOp23
 70
     1
102
RTVSPropertyOp24
 70
     1
102
RTVSPropertyOp25
 70
     1
102
RTVSPropertyOp26
 70
     1
102
RTVSPropertyOp27
 70
     1
102
RTVSPropertyOp28
 70
     1
102
RTVSPropertyOp29
 70
     1
102
RTVSPropertyOp30
 70
     1
102
RTVSPropertyOp31
 70
     1
102
RTVSPropertyOp32
 70
     1
  0
XRECORD
  5
1416
102
{ACAD_REACTORS
330
1415
102
}
330
1415
100
AcDbXrecord
280
     1
102
RTVSPropertyOp0
 70
     1
102
RTVSPropertyOp1
 70
     1
102
RTVSPropertyOp2
 70
     1
102
RTVSPropertyOp3
 70
     1
102
RTVSPropertyOp4
 70
     1
102
RTVSPropertyOp5
 70
     1
102
RTVSPropertyOp6
 70
     1
102
RTVSPropertyOp7
 70
     1
102
RTVSPropertyOp8
 70
     1
102
RTVSPropertyOp9
 70
     1
102
RTVSPropertyOp10
 70
     1
102
RTVSPropertyOp11
 70
     1
102
RTVSPropertyOp12
 70
     1
102
RTVSPropertyOp13
 70
     1
102
RTVSPropertyOp14
 70
     1
102
RTVSPropertyOp15
 70
     1
102
RTVSPropertyOp16
 70
     1
102
RTVSPropertyOp17
 70
     1
102
RTVSPropertyOp18
 70
     1
102
RTVSPropertyOp19
 70
     1
102
RTVSPropertyOp20
 70
     1
102
RTVSPropertyOp21
 70
     1
102
RTVSPropertyOp22
 70
     1
102
RTVSPropertyOp23
 70
     1
102
RTVSPropertyOp24
 70
     1
102
RTVSPropertyOp25
 70
     1
102
RTVSPropertyOp26
 70
     1
102
RTVSPropertyOp27
 70
     1
102
RTVSPropertyOp28
 70
     1
102
RTVSPropertyOp29
 70
     1
102
RTVSPropertyOp30
 70
     1
102
RTVSPropertyOp31
 70
     1
102
RTVSPropertyOp32
 70
     1
  0
XRECORD
  5
1418
102
{ACAD_REACTORS
330
1417
102
}
330
1417
100
AcDbXrecord
280
     1
102
RTVSPropertyOp0
 70
     1
102
RTVSPropertyOp1
 70
     1
102
RTVSPropertyOp2
 70
     1
102
RTVSPropertyOp3
 70
     1
102
RTVSPropertyOp4
 70
     1
102
RTVSPropertyOp5
 70
     1
102
RTVSPropertyOp6
 70
     1
102
RTVSPropertyOp7
 70
     1
102
RTVSPropertyOp8
 70
     1
102
RTVSPropertyOp9
 70
     1
102
RTVSPropertyOp10
 70
     1
102
RTVSPropertyOp11
 70
     1
102
RTVSPropertyOp12
 70
     1
102
RTVSPropertyOp13
 70
     1
102
RTVSPropertyOp14
 70
     1
102
RTVSPropertyOp15
 70
     1
102
RTVSPropertyOp16
 70
     1
102
RTVSPropertyOp17
 70
     1
102
RTVSPropertyOp18
 70
     1
102
RTVSPropertyOp19
 70
     1
102
RTVSPropertyOp20
 70
     1
102
RTVSPropertyOp21
 70
     1
102
RTVSPropertyOp22
 70
     1
102
RTVSPropertyOp23
 70
     1
102
RTVSPropertyOp24
 70
     1
102
RTVSPropertyOp25
 70
     1
102
RTVSPropertyOp26
 70
     1
102
RTVSPropertyOp27
 70
     1
102
RTVSPropertyOp28
 70
     1
102
RTVSPropertyOp29
 70
     1
102
RTVSPropertyOp30
 70
     1
102
RTVSPropertyOp31
 70
     1
102
RTVSPropertyOp32
 70
     1
  0
XRECORD
  5
141A
102
{ACAD_REACTORS
330
1419
102
}
330
1419
100
AcDbXrecord
280
     1
102
RTVSPropertyOp0
 70
     1
102
RTVSPropertyOp1
 70
     1
102
RTVSPropertyOp2
 70
     1
102
RTVSPropertyOp3
 70
     1
102
RTVSPropertyOp4
 70
     1
102
RTVSPropertyOp5
 70
     1
102
RTVSPropertyOp6
 70
     1
102
RTVSPropertyOp7
 70
     1
102
RTVSPropertyOp8
 70
     1
102
RTVSPropertyOp9
 70
     1
102
RTVSPropertyOp10
 70
     1
102
RTVSPropertyOp11
 70
     1
102
RTVSPropertyOp12
 70
     1
102
RTVSPropertyOp13
 70
     1
102
RTVSPropertyOp14
 70
     1
102
RTVSPropertyOp15
 70
     1
102
RTVSPropertyOp16
 70
     1
102
RTVSPropertyOp17
 70
     1
102
RTVSPropertyOp18
 70
     1
102
RTVSPropertyOp19
 70
     1
102
RTVSPropertyOp20
 70
     1
102
RTVSPropertyOp21
 70
     1
102
RTVSPropertyOp22
 70
     1
102
RTVSPropertyOp23
 70
     1
102
RTVSPropertyOp24
 70
     1
102
RTVSPropertyOp25
 70
     1
102
RTVSPropertyOp26
 70
     1
102
RTVSPropertyOp27
 70
     1
102
RTVSPropertyOp28
 70
     1
102
RTVSPropertyOp29
 70
     1
102
RTVSPropertyOp30
 70
     1
102
RTVSPropertyOp31
 70
     1
102
RTVSPropertyOp32
 70
     1
  0
XRECORD
  5
141C
102
{ACAD_REACTORS
330
141B
102
}
330
141B
100
AcDbXrecord
280
     1
102
RTVSPropertyOp0
 70
     1
102
RTVSPropertyOp1
 70
     1
102
RTVSPropertyOp2
 70
     1
102
RTVSPropertyOp3
 70
     1
102
RTVSPropertyOp4
 70
     1
102
RTVSPropertyOp5
 70
     1
102
RTVSPropertyOp6
 70
     1
102
RTVSPropertyOp7
 70
     1
102
RTVSPropertyOp8
 70
     1
102
RTVSPropertyOp9
 70
     1
102
RTVSPropertyOp10
 70
     1
102
RTVSPropertyOp11
 70
     1
102
RTVSPropertyOp12
 70
     1
102
RTVSPropertyOp13
 70
     1
102
RTVSPropertyOp14
 70
     1
102
RTVSPropertyOp15
 70
     1
102
RTVSPropertyOp16
 70
     1
102
RTVSPropertyOp17
 70
     1
102
RTVSPropertyOp18
 70
     1
102
RTVSPropertyOp19
 70
     1
102
RTVSPropertyOp20
 70
     1
102
RTVSPropertyOp21
 70
     1
102
RTVSPropertyOp22
 70
     1
102
RTVSPropertyOp23
 70
     1
102
RTVSPropertyOp24
 70
     1
102
RTVSPropertyOp25
 70
     1
102
RTVSPropertyOp26
 70
     1
102
RTVSPropertyOp27
 70
     1
102
RTVSPropertyOp28
 70
     1
102
RTVSPropertyOp29
 70
     1
102
RTVSPropertyOp30
 70
     1
102
RTVSPropertyOp31
 70
     1
102
RTVSPropertyOp32
 70
     1
  0
XRECORD
  5
143E
102
{ACAD_REACTORS
330
143D
102
}
330
143D
100
AcDbXrecord
280
     1
102
RTVSPropertyOp0
 70
     1
102
RTVSPropertyOp1
 70
     1
102
RTVSPropertyOp2
 70
     1
102
RTVSPropertyOp3
 70
     1
102
RTVSPropertyOp4
 70
     1
102
RTVSPropertyOp5
 70
     1
102
RTVSPropertyOp6
 70
     1
102
RTVSPropertyOp7
 70
     1
102
RTVSPropertyOp8
 70
     1
102
RTVSPropertyOp9
 70
     1
102
RTVSPropertyOp10
 70
     1
102
RTVSPropertyOp11
 70
     1
102
RTVSPropertyOp12
 70
     1
102
RTVSPropertyOp13
 70
     1
102
RTVSPropertyOp14
 70
     1
102
RTVSPropertyOp15
 70
     1
102
RTVSPropertyOp16
 70
     1
102
RTVSPropertyOp17
 70
     1
102
RTVSPropertyOp18
 70
     1
102
RTVSPropertyOp19
 70
     1
102
RTVSPropertyOp20
 70
     1
102
RTVSPropertyOp21
 70
     1
102
RTVSPropertyOp22
 70
     1
102
RTVSPropertyOp23
 70
     1
102
RTVSPropertyOp24
 70
     1
102
RTVSPropertyOp25
 70
     1
102
RTVSPropertyOp26
 70
     1
102
RTVSPropertyOp27
 70
     1
102
RTVSPropertyOp28
 70
     1
102
RTVSPropertyOp29
 70
     1
102
RTVSPropertyOp30
 70
     1
102
RTVSPropertyOp31
 70
     1
102
RTVSPropertyOp32
 70
     1
  0
XRECORD
  5
1436
102
{ACAD_REACTORS
330
1435
102
}
330
1435
100
AcDbXrecord
280
     1
102
RTVSPropertyOp0
 70
     0
102
RTVSPropertyOp1
 70
     0
102
RTVSPropertyOp2
 70
     0
102
RTVSPropertyOp3
 70
     0
102
RTVSPropertyOp4
 70
     0
102
RTVSPropertyOp5
 70
     0
102
RTVSPropertyOp6
 70
     0
102
RTVSPropertyOp7
 70
     0
102
RTVSPropertyOp8
 70
     0
102
RTVSPropertyOp9
 70
     0
102
RTVSPropertyOp10
 70
     0
102
RTVSPropertyOp11
 70
     0
102
RTVSPropertyOp12
 70
     0
102
RTVSPropertyOp13
 70
     0
102
RTVSPropertyOp14
 70
     2
102
RTVSPropertyOp15
 70
     0
102
RTVSPropertyOp16
 70
     0
102
RTVSPropertyOp17
 70
     0
102
RTVSPropertyOp18
 70
     0
102
RTVSPropertyOp19
 70
     0
102
RTVSPropertyOp20
 70
     0
102
RTVSPropertyOp21
 70
     0
102
RTVSPropertyOp22
 70
     0
102
RTVSPropertyOp23
 70
     0
102
RTVSPropertyOp24
 70
     0
102
RTVSPropertyOp25
 70
     0
102
RTVSPropertyOp26
 70
     0
102
RTVSPropertyOp27
 70
     0
102
RTVSPropertyOp28
 70
     1
102
RTVSPropertyOp29
 70
     1
102
RTVSPropertyOp30
 70
     1
102
RTVSPropertyOp31
 70
     1
102
RTVSPropertyOp32
 70
     1
  0
XRECORD
  5
1430
102
{ACAD_REACTORS
330
142F
102
}
330
142F
100
AcDbXrecord
280
     1
102
RTVSPropertyOp0
 70
     1
102
RTVSPropertyOp1
 70
     1
102
RTVSPropertyOp2
 70
     1
102
RTVSPropertyOp3
 70
     1
102
RTVSPropertyOp4
 70
     1
102
RTVSPropertyOp5
 70
     1
102
RTVSPropertyOp6
 70
     1
102
RTVSPropertyOp7
 70
     1
102
RTVSPropertyOp8
 70
     1
102
RTVSPropertyOp9
 70
     1
102
RTVSPropertyOp10
 70
     1
102
RTVSPropertyOp11
 70
     1
102
RTVSPropertyOp12
 70
     1
102
RTVSPropertyOp13
 70
     1
102
RTVSPropertyOp14
 70
     1
102
RTVSPropertyOp15
 70
     1
102
RTVSPropertyOp16
 70
     1
102
RTVSPropertyOp17
 70
     1
102
RTVSPropertyOp18
 70
     1
102
RTVSPropertyOp19
 70
     1
102
RTVSPropertyOp20
 70
     1
102
RTVSPropertyOp21
 70
     1
102
RTVSPropertyOp22
 70
     1
102
RTVSPropertyOp23
 70
     1
102
RTVSPropertyOp24
 70
     1
102
RTVSPropertyOp25
 70
     1
102
RTVSPropertyOp26
 70
     1
102
RTVSPropertyOp27
 70
     1
102
RTVSPropertyOp28
 70
     1
102
RTVSPropertyOp29
 70
     1
102
RTVSPropertyOp30
 70
     1
102
RTVSPropertyOp31
 70
     1
102
RTVSPropertyOp32
 70
     1
  0
XRECORD
  5
1438
102
{ACAD_REACTORS
330
1437
102
}
330
1437
100
AcDbXrecord
280
     1
102
RTVSPropertyOp0
 70
     0
102
RTVSPropertyOp1
 70
     0
102
RTVSPropertyOp2
 70
     0
102
RTVSPropertyOp3
 70
     0
102
RTVSPropertyOp4
 70
     0
102
RTVSPropertyOp5
 70
     0
102
RTVSPropertyOp6
 70
     0
102
RTVSPropertyOp7
 70
     0
102
RTVSPropertyOp8
 70
     0
102
RTVSPropertyOp9
 70
     0
102
RTVSPropertyOp10
 70
     0
102
RTVSPropertyOp11
 70
     0
102
RTVSPropertyOp12
 70
     0
102
RTVSPropertyOp13
 70
     0
102
RTVSPropertyOp14
 70
     2
102
RTVSPropertyOp15
 70
     0
102
RTVSPropertyOp16
 70
     0
102
RTVSPropertyOp17
 70
     0
102
RTVSPropertyOp18
 70
     0
102
RTVSPropertyOp19
 70
     0
102
RTVSPropertyOp20
 70
     0
102
RTVSPropertyOp21
 70
     0
102
RTVSPropertyOp22
 70
     0
102
RTVSPropertyOp23
 70
     0
102
RTVSPropertyOp24
 70
     0
102
RTVSPropertyOp25
 70
     0
102
RTVSPropertyOp26
 70
     0
102
RTVSPropertyOp27
 70
     0
102
RTVSPropertyOp28
 70
     1
102
RTVSPropertyOp29
 70
     1
102
RTVSPropertyOp30
 70
     1
102
RTVSPropertyOp31
 70
     1
102
RTVSPropertyOp32
 70
     1
  0
XRECORD
  5
1428
102
{ACAD_REACTORS
330
1427
102
}
330
1427
100
AcDbXrecord
280
     1
102
RTVSPropertyOp0
 70
     1
102
RTVSPropertyOp1
 70
     1
102
RTVSPropertyOp2
 70
     1
102
RTVSPropertyOp3
 70
     1
102
RTVSPropertyOp4
 70
     1
102
RTVSPropertyOp5
 70
     1
102
RTVSPropertyOp6
 70
     1
102
RTVSPropertyOp7
 70
     1
102
RTVSPropertyOp8
 70
     1
102
RTVSPropertyOp9
 70
     1
102
RTVSPropertyOp10
 70
     1
102
RTVSPropertyOp11
 70
     1
102
RTVSPropertyOp12
 70
     1
102
RTVSPropertyOp13
 70
     1
102
RTVSPropertyOp14
 70
     1
102
RTVSPropertyOp15
 70
     1
102
RTVSPropertyOp16
 70
     1
102
RTVSPropertyOp17
 70
     1
102
RTVSPropertyOp18
 70
     1
102
RTVSPropertyOp19
 70
     1
102
RTVSPropertyOp20
 70
     1
102
RTVSPropertyOp21
 70
     1
102
RTVSPropertyOp22
 70
     1
102
RTVSPropertyOp23
 70
     1
102
RTVSPropertyOp24
 70
     1
102
RTVSPropertyOp25
 70
     1
102
RTVSPropertyOp26
 70
     1
102
RTVSPropertyOp27
 70
     1
102
RTVSPropertyOp28
 70
     1
102
RTVSPropertyOp29
 70
     1
102
RTVSPropertyOp30
 70
     1
102
RTVSPropertyOp31
 70
     1
102
RTVSPropertyOp32
 70
     1
  0
XRECORD
  5
1448
102
{ACAD_REACTORS
330
1447
102
}
330
1447
100
AcDbXrecord
280
     1
102
RTVSPropertyOp0
 70
     1
102
RTVSPropertyOp1
 70
     1
102
RTVSPropertyOp2
 70
     1
102
RTVSPropertyOp3
 70
     1
102
RTVSPropertyOp4
 70
     1
102
RTVSPropertyOp5
 70
     1
102
RTVSPropertyOp6
 70
     1
102
RTVSPropertyOp7
 70
     1
102
RTVSPropertyOp8
 70
     1
102
RTVSPropertyOp9
 70
     1
102
RTVSPropertyOp10
 70
     1
102
RTVSPropertyOp11
 70
     1
102
RTVSPropertyOp12
 70
     1
102
RTVSPropertyOp13
 70
     1
102
RTVSPropertyOp14
 70
     1
102
RTVSPropertyOp15
 70
     1
102
RTVSPropertyOp16
 70
     1
102
RTVSPropertyOp17
 70
     1
102
RTVSPropertyOp18
 70
     1
102
RTVSPropertyOp19
 70
     1
102
RTVSPropertyOp20
 70
     1
102
RTVSPropertyOp21
 70
     1
102
RTVSPropertyOp22
 70
     1
102
RTVSPropertyOp23
 70
     1
102
RTVSPropertyOp24
 70
     1
102
RTVSPropertyOp25
 70
     1
102
RTVSPropertyOp26
 70
     1
102
RTVSPropertyOp27
 70
     1
102
RTVSPropertyOp28
 70
     1
102
RTVSPropertyOp29
 70
     1
102
RTVSPropertyOp30
 70
     1
102
RTVSPropertyOp31
 70
     1
102
RTVSPropertyOp32
 70
     1
  0
XRECORD
  5
1446
102
{ACAD_REACTORS
330
1445
102
}
330
1445
100
AcDbXrecord
280
     1
102
RTVSPropertyOp0
 70
     1
102
RTVSPropertyOp1
 70
     1
102
RTVSPropertyOp2
 70
     1
102
RTVSPropertyOp3
 70
     1
102
RTVSPropertyOp4
 70
     1
102
RTVSPropertyOp5
 70
     1
102
RTVSPropertyOp6
 70
     1
102
RTVSPropertyOp7
 70
     1
102
RTVSPropertyOp8
 70
     1
102
RTVSPropertyOp9
 70
     1
102
RTVSPropertyOp10
 70
     1
102
RTVSPropertyOp11
 70
     1
102
RTVSPropertyOp12
 70
     1
102
RTVSPropertyOp13
 70
     1
102
RTVSPropertyOp14
 70
     1
102
RTVSPropertyOp15
 70
     1
102
RTVSPropertyOp16
 70
     1
102
RTVSPropertyOp17
 70
     1
102
RTVSPropertyOp18
 70
     1
102
RTVSPropertyOp19
 70
     1
102
RTVSPropertyOp20
 70
     1
102
RTVSPropertyOp21
 70
     1
102
RTVSPropertyOp22
 70
     1
102
RTVSPropertyOp23
 70
     1
102
RTVSPropertyOp24
 70
     1
102
RTVSPropertyOp25
 70
     1
102
RTVSPropertyOp26
 70
     1
102
RTVSPropertyOp27
 70
     1
102
RTVSPropertyOp28
 70
     1
102
RTVSPropertyOp29
 70
     1
102
RTVSPropertyOp30
 70
     1
102
RTVSPropertyOp31
 70
     1
102
RTVSPropertyOp32
 70
     1
  0
XRECORD
  5
1440
102
{ACAD_REACTORS
330
143F
102
}
330
143F
100
AcDbXrecord
280
     1
102
RTVSPropertyOp0
 70
     1
102
RTVSPropertyOp1
 70
     1
102
RTVSPropertyOp2
 70
     1
102
RTVSPropertyOp3
 70
     1
102
RTVSPropertyOp4
 70
     1
102
RTVSPropertyOp5
 70
     1
102
RTVSPropertyOp6
 70
     1
102
RTVSPropertyOp7
 70
     1
102
RTVSPropertyOp8
 70
     1
102
RTVSPropertyOp9
 70
     1
102
RTVSPropertyOp10
 70
     1
102
RTVSPropertyOp11
 70
     1
102
RTVSPropertyOp12
 70
     1
102
RTVSPropertyOp13
 70
     1
102
RTVSPropertyOp14
 70
     1
102
RTVSPropertyOp15
 70
     1
102
RTVSPropertyOp16
 70
     1
102
RTVSPropertyOp17
 70
     1
102
RTVSPropertyOp18
 70
     1
102
RTVSPropertyOp19
 70
     1
102
RTVSPropertyOp20
 70
     1
102
RTVSPropertyOp21
 70
     1
102
RTVSPropertyOp22
 70
     1
102
RTVSPropertyOp23
 70
     1
102
RTVSPropertyOp24
 70
     1
102
RTVSPropertyOp25
 70
     1
102
RTVSPropertyOp26
 70
     1
102
RTVSPropertyOp27
 70
     1
102
RTVSPropertyOp28
 70
     1
102
RTVSPropertyOp29
 70
     1
102
RTVSPropertyOp30
 70
     1
102
RTVSPropertyOp31
 70
     1
102
RTVSPropertyOp32
 70
     1
  0
XRECORD
  5
1442
102
{ACAD_REACTORS
330
1441
102
}
330
1441
100
AcDbXrecord
280
     1
102
RTVSPropertyOp0
 70
     1
102
RTVSPropertyOp1
 70
     1
102
RTVSPropertyOp2
 70
     1
102
RTVSPropertyOp3
 70
     1
102
RTVSPropertyOp4
 70
     1
102
RTVSPropertyOp5
 70
     1
102
RTVSPropertyOp6
 70
     1
102
RTVSPropertyOp7
 70
     1
102
RTVSPropertyOp8
 70
     1
102
RTVSPropertyOp9
 70
     1
102
RTVSPropertyOp10
 70
     1
102
RTVSPropertyOp11
 70
     1
102
RTVSPropertyOp12
 70
     1
102
RTVSPropertyOp13
 70
     1
102
RTVSPropertyOp14
 70
     1
102
RTVSPropertyOp15
 70
     1
102
RTVSPropertyOp16
 70
     1
102
RTVSPropertyOp17
 70
     1
102
RTVSPropertyOp18
 70
     1
102
RTVSPropertyOp19
 70
     1
102
RTVSPropertyOp20
 70
     1
102
RTVSPropertyOp21
 70
     1
102
RTVSPropertyOp22
 70
     1
102
RTVSPropertyOp23
 70
     1
102
RTVSPropertyOp24
 70
     1
102
RTVSPropertyOp25
 70
     1
102
RTVSPropertyOp26
 70
     1
102
RTVSPropertyOp27
 70
     1
102
RTVSPropertyOp28
 70
     1
102
RTVSPropertyOp29
 70
     1
102
RTVSPropertyOp30
 70
     1
102
RTVSPropertyOp31
 70
     1
102
RTVSPropertyOp32
 70
     1
  0
XRECORD
  5
142E
102
{ACAD_REACTORS
330
142D
102
}
330
142D
100
AcDbXrecord
280
     1
102
RTVSPropertyOp0
 70
     1
102
RTVSPropertyOp1
 70
     1
102
RTVSPropertyOp2
 70
     1
102
RTVSPropertyOp3
 70
     1
102
RTVSPropertyOp4
 70
     1
102
RTVSPropertyOp5
 70
     1
102
RTVSPropertyOp6
 70
     1
102
RTVSPropertyOp7
 70
     1
102
RTVSPropertyOp8
 70
     1
102
RTVSPropertyOp9
 70
     1
102
RTVSPropertyOp10
 70
     1
102
RTVSPropertyOp11
 70
     1
102
RTVSPropertyOp12
 70
     1
102
RTVSPropertyOp13
 70
     1
102
RTVSPropertyOp14
 70
     1
102
RTVSPropertyOp15
 70
     1
102
RTVSPropertyOp16
 70
     1
102
RTVSPropertyOp17
 70
     1
102
RTVSPropertyOp18
 70
     1
102
RTVSPropertyOp19
 70
     1
102
RTVSPropertyOp20
 70
     1
102
RTVSPropertyOp21
 70
     1
102
RTVSPropertyOp22
 70
     1
102
RTVSPropertyOp23
 70
     1
102
RTVSPropertyOp24
 70
     1
102
RTVSPropertyOp25
 70
     1
102
RTVSPropertyOp26
 70
     1
102
RTVSPropertyOp27
 70
     1
102
RTVSPropertyOp28
 70
     1
102
RTVSPropertyOp29
 70
     1
102
RTVSPropertyOp30
 70
     1
102
RTVSPropertyOp31
 70
     1
102
RTVSPropertyOp32
 70
     1
  0
XRECORD
  5
143C
102
{ACAD_REACTORS
330
143B
102
}
330
143B
100
AcDbXrecord
280
     1
102
RTVSPropertyOp0
 70
     1
102
RTVSPropertyOp1
 70
     1
102
RTVSPropertyOp2
 70
     1
102
RTVSPropertyOp3
 70
     1
102
RTVSPropertyOp4
 70
     1
102
RTVSPropertyOp5
 70
     1
102
RTVSPropertyOp6
 70
     1
102
RTVSPropertyOp7
 70
     1
102
RTVSPropertyOp8
 70
     1
102
RTVSPropertyOp9
 70
     1
102
RTVSPropertyOp10
 70
     1
102
RTVSPropertyOp11
 70
     1
102
RTVSPropertyOp12
 70
     1
102
RTVSPropertyOp13
 70
     1
102
RTVSPropertyOp14
 70
     1
102
RTVSPropertyOp15
 70
     1
102
RTVSPropertyOp16
 70
     1
102
RTVSPropertyOp17
 70
     1
102
RTVSPropertyOp18
 70
     1
102
RTVSPropertyOp19
 70
     1
102
RTVSPropertyOp20
 70
     1
102
RTVSPropertyOp21
 70
     1
102
RTVSPropertyOp22
 70
     1
102
RTVSPropertyOp23
 70
     1
102
RTVSPropertyOp24
 70
     1
102
RTVSPropertyOp25
 70
     1
102
RTVSPropertyOp26
 70
     1
102
RTVSPropertyOp27
 70
     1
102
RTVSPropertyOp28
 70
     1
102
RTVSPropertyOp29
 70
     1
102
RTVSPropertyOp30
 70
     1
102
RTVSPropertyOp31
 70
     1
102
RTVSPropertyOp32
 70
     1
  0
XRECORD
  5
1444
102
{ACAD_REACTORS
330
1443
102
}
330
1443
100
AcDbXrecord
280
     1
102
RTVSPropertyOp0
 70
     1
102
RTVSPropertyOp1
 70
     1
102
RTVSPropertyOp2
 70
     1
102
RTVSPropertyOp3
 70
     1
102
RTVSPropertyOp4
 70
     1
102
RTVSPropertyOp5
 70
     1
102
RTVSPropertyOp6
 70
     1
102
RTVSPropertyOp7
 70
     1
102
RTVSPropertyOp8
 70
     1
102
RTVSPropertyOp9
 70
     1
102
RTVSPropertyOp10
 70
     1
102
RTVSPropertyOp11
 70
     1
102
RTVSPropertyOp12
 70
     1
102
RTVSPropertyOp13
 70
     1
102
RTVSPropertyOp14
 70
     1
102
RTVSPropertyOp15
 70
     1
102
RTVSPropertyOp16
 70
     1
102
RTVSPropertyOp17
 70
     1
102
RTVSPropertyOp18
 70
     1
102
RTVSPropertyOp19
 70
     1
102
RTVSPropertyOp20
 70
     1
102
RTVSPropertyOp21
 70
     1
102
RTVSPropertyOp22
 70
     1
102
RTVSPropertyOp23
 70
     1
102
RTVSPropertyOp24
 70
     1
102
RTVSPropertyOp25
 70
     1
102
RTVSPropertyOp26
 70
     1
102
RTVSPropertyOp27
 70
     1
102
RTVSPropertyOp28
 70
     1
102
RTVSPropertyOp29
 70
     1
102
RTVSPropertyOp30
 70
     1
102
RTVSPropertyOp31
 70
     1
102
RTVSPropertyOp32
 70
     1
  0
ENDSEC
  0
EOF
