  0
SECTION
  2
HEADER
  9
$ACADVER
  1
AC1021
  9
$ACADMAINTVER
 70
    50
  9
$DWGCODEPAGE
  3
ANSI_932
  9
$LASTSAVEDBY
  1
佐藤
  9
$INSBASE
 10
0.0
 20
0.0
 30
0.0
  9
$EXTMIN
 10
-0.0679301887084876
 20
-0.0480314465621632
 30
-0.0000000000112498
  9
$EXTMAX
 10
4455.067992428141
 20
3150.048075454242
 30
0.0000000000002956
  9
$LIMMIN
 10
0.0
 20
0.0
  9
$LIMMAX
 10
420.0
 20
297.0
  9
$ORTHOMODE
 70
     0
  9
$REGENMODE
 70
     1
  9
$FILLMODE
 70
     1
  9
$QTEXTMODE
 70
     0
  9
$MIRRTEXT
 70
     0
  9
$LTSCALE
 40
1.0
  9
$ATTMODE
 70
     1
  9
$TEXTSIZE
 40
2.5
  9
$TRACEWID
 40
1.0
  9
$TEXTSTYLE
  7
寸法
  9
$CLAYER
  8
寸法
  9
$CELTYPE
  6
ByLayer
  9
$CECOLOR
 62
   256
  9
$CELTSCALE
 40
1.0
  9
$DISPSILH
 70
     0
  9
$DIMSCALE
 40
15.0
  9
$DIMASZ
 40
2.5
  9
$DIMEXO
 40
1.625
  9
$DIMDLI
 40
3.75
  9
$DIMRND
 40
0.0
  9
$DIMDLE
 40
0.0
  9
$DIMEXE
 40
1.25
  9
$DIMTP
 40
0.0
  9
$DIMTM
 40
0.0
  9
$DIMTXT
 40
2.5
  9
$DIMCEN
 40
2.5
  9
$DIMTSZ
 40
0.0
  9
$DIMTOL
 70
     0
  9
$DIMLIM
 70
     0
  9
$DIMTIH
 70
     0
  9
$DIMTOH
 70
     0
  9
$DIMSE1
 70
     0
  9
$DIMSE2
 70
     0
  9
$DIMTAD
 70
     1
  9
$DIMZIN
 70
     8
  9
$DIMBLK
  1

  9
$DIMASO
 70
     1
  9
$DIMSHO
 70
     1
  9
$DIMPOST
  1

  9
$DIMAPOST
  1

  9
$DIMALT
 70
     0
  9
$DIMALTD
 70
     3
  9
$DIMALTF
 40
0.03937007874016
  9
$DIMLFAC
 40
1.0
  9
$DIMTOFL
 70
     1
  9
$DIMTVP
 40
0.0
  9
$DIMTIX
 70
     0
  9
$DIMSOXD
 70
     0
  9
$DIMSAH
 70
     0
  9
$DIMBLK1
  1

  9
$DIMBLK2
  1

  9
$DIMSTYLE
  2
ISO-25
  9
$DIMCLRD
 70
     0
  9
$DIMCLRE
 70
     0
  9
$DIMCLRT
 70
     0
  9
$DIMTFAC
 40
1.0
  9
$DIMGAP
 40
1.625
  9
$DIMJUST
 70
     0
  9
$DIMSD1
 70
     0
  9
$DIMSD2
 70
     0
  9
$DIMTOLJ
 70
     0
  9
$DIMTZIN
 70
     8
  9
$DIMALTZ
 70
     0
  9
$DIMALTTZ
 70
     0
  9
$DIMUPT
 70
     0
  9
$DIMDEC
 70
     2
  9
$DIMTDEC
 70
     2
  9
$DIMALTU
 70
     2
  9
$DIMALTTD
 70
     3
  9
$DIMTXSTY
  7
Standard
  9
$DIMAUNIT
 70
     0
  9
$DIMADEC
 70
     0
  9
$DIMALTRND
 40
0.0
  9
$DIMAZIN
 70
     0
  9
$DIMDSEP
 70
    46
  9
$DIMATFIT
 70
     3
  9
$DIMFRAC
 70
     0
  9
$DIMLDRBLK
  1

  9
$DIMLUNIT
 70
     2
  9
$DIMLWD
 70
    -2
  9
$DIMLWE
 70
    -2
  9
$DIMTMOVE
 70
     0
  9
$DIMFXL
 40
1.0
  9
$DIMFXLON
 70
     0
  9
$DIMJOGANG
 40
1.570796326794896
  9
$DIMTFILL
 70
     0
  9
$DIMTFILLCLR
 70
     0
  9
$DIMARCSYM
 70
     0
  9
$DIMLTYPE
  6

  9
$DIMLTEX1
  6

  9
$DIMLTEX2
  6

  9
$LUNITS
 70
     2
  9
$LUPREC
 70
     4
  9
$SKETCHINC
 40
1.0
  9
$FILLETRAD
 40
28.0
  9
$AUNITS
 70
     0
  9
$AUPREC
 70
     0
  9
$MENU
  1
.
  9
$ELEVATION
 40
0.0
  9
$PELEVATION
 40
0.0
  9
$THICKNESS
 40
0.0
  9
$LIMCHECK
 70
     0
  9
$CHAMFERA
 40
19.0
  9
$CHAMFERB
 40
19.0
  9
$CHAMFERC
 40
0.0
  9
$CHAMFERD
 40
0.0
  9
$SKPOLY
 70
     0
  9
$TDCREATE
 40
2455711.508953565
  9
$TDUCREATE
 40
2455711.133953565
  9
$TDUPDATE
 40
2457368.664049560
  9
$TDUUPDATE
 40
2457368.289049560
  9
$TDINDWG
 40
0.5488980440
  9
$TDUSRTIMER
 40
0.5488978588
  9
$USRTIMER
 70
     1
  9
$ANGBASE
 50
0.0
  9
$ANGDIR
 70
     0
  9
$PDMODE
 70
     0
  9
$PDSIZE
 40
0.0
  9
$PLINEWID
 40
0.0
  9
$SPLFRAME
 70
     0
  9
$SPLINETYPE
 70
     6
  9
$SPLINESEGS
 70
     8
  9
$HANDSEED
  5
19C2
  9
$SURFTAB1
 70
     6
  9
$SURFTAB2
 70
     6
  9
$SURFTYPE
 70
     6
  9
$SURFU
 70
     6
  9
$SURFV
 70
     6
  9
$UCSBASE
  2

  9
$UCSNAME
  2

  9
$UCSORG
 10
0.0
 20
0.0
 30
0.0
  9
$UCSXDIR
 10
1.0
 20
0.0
 30
0.0
  9
$UCSYDIR
 10
0.0
 20
1.0
 30
0.0
  9
$UCSORTHOREF
  2

  9
$UCSORTHOVIEW
 70
     0
  9
$UCSORGTOP
 10
0.0
 20
0.0
 30
0.0
  9
$UCSORGBOTTOM
 10
0.0
 20
0.0
 30
0.0
  9
$UCSORGLEFT
 10
0.0
 20
0.0
 30
0.0
  9
$UCSORGRIGHT
 10
0.0
 20
0.0
 30
0.0
  9
$UCSORGFRONT
 10
0.0
 20
0.0
 30
0.0
  9
$UCSORGBACK
 10
0.0
 20
0.0
 30
0.0
  9
$PUCSBASE
  2

  9
$PUCSNAME
  2

  9
$PUCSORG
 10
0.0
 20
0.0
 30
0.0
  9
$PUCSXDIR
 10
1.0
 20
0.0
 30
0.0
  9
$PUCSYDIR
 10
0.0
 20
1.0
 30
0.0
  9
$PUCSORTHOREF
  2

  9
$PUCSORTHOVIEW
 70
     0
  9
$PUCSORGTOP
 10
0.0
 20
0.0
 30
0.0
  9
$PUCSORGBOTTOM
 10
0.0
 20
0.0
 30
0.0
  9
$PUCSORGLEFT
 10
0.0
 20
0.0
 30
0.0
  9
$PUCSORGRIGHT
 10
0.0
 20
0.0
 30
0.0
  9
$PUCSORGFRONT
 10
0.0
 20
0.0
 30
0.0
  9
$PUCSORGBACK
 10
0.0
 20
0.0
 30
0.0
  9
$USERI1
 70
     0
  9
$USERI2
 70
     0
  9
$USERI3
 70
     0
  9
$USERI4
 70
     0
  9
$USERI5
 70
     0
  9
$USERR1
 40
0.0
  9
$USERR2
 40
0.0
  9
$USERR3
 40
0.0
  9
$USERR4
 40
0.0
  9
$USERR5
 40
0.0
  9
$WORLDVIEW
 70
     1
  9
$SHADEDGE
 70
     3
  9
$SHADEDIF
 70
    70
  9
$TILEMODE
 70
     1
  9
$MAXACTVP
 70
    64
  9
$PINSBASE
 10
0.0
 20
0.0
 30
0.0
  9
$PLIMCHECK
 70
     0
  9
$PEXTMIN
 10
1.000000000000000E+20
 20
1.000000000000000E+20
 30
1.000000000000000E+20
  9
$PEXTMAX
 10
-1.000000000000000E+20
 20
-1.000000000000000E+20
 30
-1.000000000000000E+20
  9
$PLIMMIN
 10
0.0
 20
0.0
  9
$PLIMMAX
 10
420.0
 20
297.0
  9
$UNITMODE
 70
     0
  9
$VISRETAIN
 70
     1
  9
$PLINEGEN
 70
     0
  9
$PSLTSCALE
 70
     1
  9
$TREEDEPTH
 70
  3020
  9
$CMLSTYLE
  2
Standard
  9
$CMLJUST
 70
     0
  9
$CMLSCALE
 40
20.0
  9
$PROXYGRAPHICS
 70
     1
  9
$MEASUREMENT
 70
     1
  9
$CELWEIGHT
370
    -1
  9
$ENDCAPS
280
     0
  9
$JOINSTYLE
280
     0
  9
$LWDISPLAY
290
     0
  9
$INSUNITS
 70
     4
  9
$HYPERLINKBASE
  1

  9
$STYLESHEET
  1

  9
$XEDIT
290
     1
  9
$CEPSNTYPE
380
     0
  9
$PSTYLEMODE
290
     1
  9
$FINGERPRINTGUID
  2
{B7F2F6F7-088E-48A0-8545-691322D26F8A}
  9
$VERSIONGUID
  2
{B314A2D9-5E0B-4156-AFA2-349368F694C7}
  9
$EXTNAMES
290
     1
  9
$PSVPSCALE
 40
0.0
  9
$OLESTARTUP
290
     0
  9
$SORTENTS
280
   127
  9
$INDEXCTL
280
     0
  9
$HIDETEXT
280
     1
  9
$XCLIPFRAME
290
     0
  9
$HALOGAP
280
     0
  9
$OBSCOLOR
 70
   257
  9
$OBSLTYPE
280
     0
  9
$INTERSECTIONDISPLAY
280
     0
  9
$INTERSECTIONCOLOR
 70
   257
  9
$DIMASSOC
280
     2
  9
$PROJECTNAME
  1

  9
$CAMERADISPLAY
290
     0
  9
$LENSLENGTH
 40
50.0
  9
$CAMERAHEIGHT
 40
0.0
  9
$STEPSPERSEC
 40
2.0
  9
$STEPSIZE
 40
6.0
  9
$3DDWFPREC
 40
2.0
  9
$PSOLWIDTH
 40
0.25
  9
$PSOLHEIGHT
 40
4.0
  9
$LOFTANG1
 40
1.570796326794896
  9
$LOFTANG2
 40
1.570796326794896
  9
$LOFTMAG1
 40
0.0
  9
$LOFTMAG2
 40
0.0
  9
$LOFTPARAM
 70
     7
  9
$LOFTNORMALS
280
     1
  9
$LATITUDE
 40
37.795
  9
$LONGITUDE
 40
-122.394
  9
$NORTHDIRECTION
 40
0.0
  9
$TIMEZONE
 70
 -8000
  9
$LIGHTGLYPHDISPLAY
280
     1
  9
$TILEMODELIGHTSYNCH
280
     1
  9
$CMATERIAL
347
11
  9
$SOLIDHIST
280
     1
  9
$SHOWHIST
280
     1
  9
$DWFFRAME
280
     2
  9
$DGNFRAME
280
     0
  9
$REALWORLDSCALE
290
     1
  9
$INTERFERECOLOR
 62
     1
  9
$INTERFEREOBJVS
345
33
  9
$INTERFEREVPVS
346
141
  9
$CSHADOW
280
     0
  9
$SHADOWPLANELOCATION
 40
0.0
  0
ENDSEC
  0
SECTION
  2
CLASSES
  0
CLASS
  1
ACDBDICTIONARYWDFLT
  2
AcDbDictionaryWithDefault
  3
ObjectDBX Classes
 90
        0
 91
        1
280
     0
281
     0
  0
CLASS
  1
MATERIAL
  2
AcDbMaterial
  3
ObjectDBX Classes
 90
     1153
 91
        3
280
     0
281
     0
  0
CLASS
  1
VISUALSTYLE
  2
AcDbVisualStyle
  3
ObjectDBX Classes
 90
     4095
 91
       26
280
     0
281
     0
  0
CLASS
  1
SCALE
  2
AcDbScale
  3
ObjectDBX Classes
 90
     1153
 91
       17
280
     0
281
     0
  0
CLASS
  1
TABLESTYLE
  2
AcDbTableStyle
  3
ObjectDBX Classes
 90
     4095
 91
        1
280
     0
281
     0
  0
CLASS
  1
MLEADERSTYLE
  2
AcDbMLeaderStyle
  3
ACDB_MLEADERSTYLE_CLASS
 90
     4095
 91
        1
280
     0
281
     0
  0
CLASS
  1
DICTIONARYVAR
  2
AcDbDictionaryVar
  3
ObjectDBX Classes
 90
        0
 91
        5
280
     0
281
     0
  0
CLASS
  1
SORTENTSTABLE
  2
AcDbSortentsTable
  3
ObjectDBX Classes
 90
        0
 91
        1
280
     0
281
     0
  0
CLASS
  1
CELLSTYLEMAP
  2
AcDbCellStyleMap
  3
ObjectDBX Classes
 90
     1152
 91
        1
280
     0
281
     0
  0
CLASS
  1
DIMASSOC
  2
AcDbDimAssoc
  3
"AcDbDimAssoc|Product Desc:     AcDim ARX App For Dimension|Company:          Autodesk, Inc.|WEB Address:      www.autodesk.com"
 90
        0
 91
       16
280
     0
281
     0
  0
CLASS
  1
MULTILEADER
  2
AcDbMLeader
  3
ACDB_MLEADER_CLASS
 90
     1025
 91
       24
280
     0
281
     1
  0
ENDSEC
  0
SECTION
  2
TABLES
  0
TABLE
  2
VPORT
  5
8
330
0
100
AcDbSymbolTable
 70
     1
  0
VPORT
  5
52
330
8
100
AcDbSymbolTableRecord
100
AcDbViewportTableRecord
  2
*Active
 70
     0
 10
0.0
 20
0.0
 11
1.0
 21
1.0
 12
2227.500031119717
 22
1575.000022003839
 13
0.0
 23
0.0
 14
10.0
 24
10.0
 15
10.0
 25
10.0
 16
0.0
 26
0.0
 36
1.0
 17
0.0
 27
0.0
 37
0.0
 40
3174.051210375335
 41
2.295685279187817
 42
50.0
 43
0.0
 44
0.0
 50
0.0
 51
0.0
 71
     0
 72
  1000
 73
     1
 74
     3
 75
     0
 76
     0
 77
     0
 78
     0
281
     0
 65
     1
110
0.0
120
0.0
130
0.0
111
1.0
121
0.0
131
0.0
112
0.0
122
1.0
132
0.0
 79
     0
146
0.0
348
2F
 60
     2
 61
     5
292
     1
282
     1
141
0.0
142
0.0
 63
   250
421
  3355443
1001
ACAD_NAV_VCDISPLAY
1070
     3
  0
ENDTAB
  0
TABLE
  2
LTYPE
  5
5
330
0
100
AcDbSymbolTable
 70
    15
  0
LTYPE
  5
56
330
5
100
AcDbSymbolTableRecord
100
AcDbLinetypeTableRecord
  2
ByBlock
 70
     0
  3

 72
    65
 73
     0
 40
0.0
  0
LTYPE
  5
57
330
5
100
AcDbSymbolTableRecord
100
AcDbLinetypeTableRecord
  2
ByLayer
 70
     0
  3

 72
    65
 73
     0
 40
0.0
  0
LTYPE
  5
58
330
5
100
AcDbSymbolTableRecord
100
AcDbLinetypeTableRecord
  2
Continuous
 70
     0
  3
Solid line
 72
    65
 73
     0
 40
0.0
  0
LTYPE
  5
7A
330
5
100
AcDbSymbolTableRecord
100
AcDbLinetypeTableRecord
  2
ACAD_ISO02W100
 70
     0
  3
ISO dash __ __ __ __ __ __ __ __ __ __ __ __ __
 72
    65
 73
     2
 40
15.0
 49
12.0
 74
     0
 49
-3.0
 74
     0
  0
LTYPE
  5
7B
330
5
100
AcDbSymbolTableRecord
100
AcDbLinetypeTableRecord
  2
ACAD_ISO03W100
 70
     0
  3
ISO dash space __    __    __    __    __    __
 72
    65
 73
     2
 40
30.0
 49
12.0
 74
     0
 49
-18.0
 74
     0
  0
LTYPE
  5
7C
330
5
100
AcDbSymbolTableRecord
100
AcDbLinetypeTableRecord
  2
ACAD_ISO04W100
 70
     0
  3
ISO long-dash dot ____ . ____ . ____ . ____ . _
 72
    65
 73
     4
 40
30.0
 49
24.0
 74
     0
 49
-3.0
 74
     0
 49
0.0
 74
     0
 49
-3.0
 74
     0
  0
LTYPE
  5
7D
330
5
100
AcDbSymbolTableRecord
100
AcDbLinetypeTableRecord
  2
ACAD_ISO05W100
 70
     0
  3
ISO long-dash double-dot ____ .. ____ .. ____ .
 72
    65
 73
     6
 40
33.0
 49
24.0
 74
     0
 49
-3.0
 74
     0
 49
0.0
 74
     0
 49
-3.0
 74
     0
 49
0.0
 74
     0
 49
-3.0
 74
     0
  0
LTYPE
  5
7E
330
5
100
AcDbSymbolTableRecord
100
AcDbLinetypeTableRecord
  2
ACAD_ISO06W100
 70
     0
  3
ISO long-dash triple-dot ____ ... ____ ... ____
 72
    65
 73
     8
 40
36.0
 49
24.0
 74
     0
 49
-3.0
 74
     0
 49
0.0
 74
     0
 49
-3.0
 74
     0
 49
0.0
 74
     0
 49
-3.0
 74
     0
 49
0.0
 74
     0
 49
-3.0
 74
     0
  0
LTYPE
  5
7F
330
5
100
AcDbSymbolTableRecord
100
AcDbLinetypeTableRecord
  2
ACAD_ISO07W100
 70
     0
  3
ISO dot . . . . . . . . . . . . . . . . . . . .
 72
    65
 73
     2
 40
3.0
 49
0.0
 74
     0
 49
-3.0
 74
     0
  0
LTYPE
  5
80
330
5
100
AcDbSymbolTableRecord
100
AcDbLinetypeTableRecord
  2
ACAD_ISO08W100
 70
     0
  3
ISO long-dash short-dash ____ __ ____ __ ____ _
 72
    65
 73
     4
 40
36.0
 49
24.0
 74
     0
 49
-3.0
 74
     0
 49
6.0
 74
     0
 49
-3.0
 74
     0
  0
LTYPE
  5
81
330
5
100
AcDbSymbolTableRecord
100
AcDbLinetypeTableRecord
  2
ACAD_ISO09W100
 70
     0
  3
ISO long-dash double-short-dash ____ __ __ ____
 72
    65
 73
     6
 40
45.0
 49
24.0
 74
     0
 49
-3.0
 74
     0
 49
6.0
 74
     0
 49
-3.0
 74
     0
 49
6.0
 74
     0
 49
-3.0
 74
     0
  0
LTYPE
  5
82
330
5
100
AcDbSymbolTableRecord
100
AcDbLinetypeTableRecord
  2
ACAD_ISO10W100
 70
     0
  3
ISO dash dot __ . __ . __ . __ . __ . __ . __ .
 72
    65
 73
     4
 40
18.0
 49
12.0
 74
     0
 49
-3.0
 74
     0
 49
0.0
 74
     0
 49
-3.0
 74
     0
  0
LTYPE
  5
83
330
5
100
AcDbSymbolTableRecord
100
AcDbLinetypeTableRecord
  2
ACAD_ISO11W100
 70
     0
  3
ISO double-dash dot __ __ . __ __ . __ __ . __ _
 72
    65
 73
     6
 40
33.0
 49
12.0
 74
     0
 49
-3.0
 74
     0
 49
12.0
 74
     0
 49
-3.0
 74
     0
 49
0.0
 74
     0
 49
-3.0
 74
     0
  0
LTYPE
  5
84
330
5
100
AcDbSymbolTableRecord
100
AcDbLinetypeTableRecord
  2
ACAD_ISO12W100
 70
     0
  3
ISO dash double-dot __ . . __ . . __ . . __ . .
 72
    65
 73
     6
 40
21.0
 49
12.0
 74
     0
 49
-3.0
 74
     0
 49
0.0
 74
     0
 49
-3.0
 74
     0
 49
0.0
 74
     0
 49
-3.0
 74
     0
  0
LTYPE
  5
85
330
5
100
AcDbSymbolTableRecord
100
AcDbLinetypeTableRecord
  2
ACAD_ISO13W100
 70
     0
  3
ISO double-dash double-dot __ __ . . __ __ . . _
 72
    65
 73
     8
 40
36.0
 49
12.0
 74
     0
 49
-3.0
 74
     0
 49
12.0
 74
     0
 49
-3.0
 74
     0
 49
0.0
 74
     0
 49
-3.0
 74
     0
 49
0.0
 74
     0
 49
-3.0
 74
     0
  0
LTYPE
  5
86
330
5
100
AcDbSymbolTableRecord
100
AcDbLinetypeTableRecord
  2
ACAD_ISO14W100
 70
     0
  3
ISO dash triple-dot __ . . . __ . . . __ . . . _
 72
    65
 73
     8
 40
24.0
 49
12.0
 74
     0
 49
-3.0
 74
     0
 49
0.0
 74
     0
 49
-3.0
 74
     0
 49
0.0
 74
     0
 49
-3.0
 74
     0
 49
0.0
 74
     0
 49
-3.0
 74
     0
  0
LTYPE
  5
87
330
5
100
AcDbSymbolTableRecord
100
AcDbLinetypeTableRecord
  2
ACAD_ISO15W100
 70
     0
  3
ISO double-dash triple-dot __ __ . . . __ __ . .
 72
    65
 73
    10
 40
39.0
 49
12.0
 74
     0
 49
-3.0
 74
     0
 49
12.0
 74
     0
 49
-3.0
 74
     0
 49
0.0
 74
     0
 49
-3.0
 74
     0
 49
0.0
 74
     0
 49
-3.0
 74
     0
 49
0.0
 74
     0
 49
-3.0
 74
     0
  0
ENDTAB
  0
TABLE
  2
LAYER
  5
2
102
{ACAD_XDICTIONARY
360
A1
102
}
330
0
100
AcDbSymbolTable
 70
    14
  0
LAYER
  5
4F
330
2
100
AcDbSymbolTableRecord
100
AcDbLayerTableRecord
  2
0
 70
     0
 62
     7
  6
Continuous
370
    -3
390
F
347
21
  0
LAYER
  5
71
330
2
100
AcDbSymbolTableRecord
100
AcDbLayerTableRecord
  2
表題
 70
     0
 62
     5
  6
Continuous
370
    50
390
F
347
21
1001
AcAecLayerStandard
1000

1000

  0
LAYER
  5
73
330
2
100
AcDbSymbolTableRecord
100
AcDbLayerTableRecord
  2
用紙
 70
     0
 62
     4
  6
Continuous
370
    -3
390
F
347
21
1001
AcAecLayerStandard
1000

1000

  0
LAYER
  5
74
330
2
100
AcDbSymbolTableRecord
100
AcDbLayerTableRecord
  2
輪郭
 70
     0
 62
     5
  6
Continuous
370
    70
390
F
347
21
1001
AcAecLayerStandard
1000

1000

  0
LAYER
  5
75
330
2
100
AcDbSymbolTableRecord
100
AcDbLayerTableRecord
  2
製品
 70
     0
 62
     7
  6
Continuous
370
    25
390
F
347
21
1001
AcAecLayerStandard
1000

1000

  0
LAYER
  5
76
330
2
100
AcDbSymbolTableRecord
100
AcDbLayerTableRecord
  2
寸法
 70
     0
 62
     7
  6
Continuous
370
    13
390
F
347
21
1001
AcAecLayerStandard
1000

1000

  0
LAYER
  5
77
330
2
100
AcDbSymbolTableRecord
100
AcDbLayerTableRecord
  2
中心
 70
     0
 62
     1
  6
ACAD_ISO08W100
370
    13
390
F
347
21
1001
AcAecLayerStandard
1000

1000

  0
LAYER
  5
88
330
2
100
AcDbSymbolTableRecord
100
AcDbLayerTableRecord
  2
鉄筋
 70
     0
 62
     6
  6
ACAD_ISO03W100
370
    25
390
F
347
21
1001
AcAecLayerStandard
1000

1000

  0
LAYER
  5
89
330
2
100
AcDbSymbolTableRecord
100
AcDbLayerTableRecord
  2
構築
 70
     0
 62
     3
  6
Continuous
370
    13
390
F
347
21
1001
AcAecLayerStandard
1000

1000

  0
LAYER
  5
1AB
330
2
100
AcDbSymbolTableRecord
100
AcDbLayerTableRecord
  2
製品2
 70
     0
 62
     7
  6
ACAD_ISO03W100
370
    15
390
F
347
21
1001
AcAecLayerStandard
1000

1000

1001
AcCmTransparency
1071
        0
  0
LAYER
  5
1BE
330
2
100
AcDbSymbolTableRecord
100
AcDbLayerTableRecord
  2
製品1
 70
     0
 62
     7
  6
Continuous
370
    15
390
F
347
21
1001
AcAecLayerStandard
1000

1000

1001
AcCmTransparency
1071
        0
  0
LAYER
  5
237
330
2
100
AcDbSymbolTableRecord
100
AcDbLayerTableRecord
  2
文字
 70
     0
 62
     7
  6
Continuous
370
    25
390
F
347
21
1001
AcAecLayerStandard
1000

1000

1001
AcCmTransparency
1071
        0
  0
LAYER
  5
2AD
330
2
100
AcDbSymbolTableRecord
100
AcDbLayerTableRecord
  2
Defpoints
 70
     0
 62
     7
  6
Continuous
290
     0
370
    -3
390
F
347
21
  0
LAYER
  5
1786
330
2
100
AcDbSymbolTableRecord
100
AcDbLayerTableRecord
  2
鉄筋2
 70
     0
 62
     6
  6
Continuous
370
    25
390
F
347
21
1001
AcAecLayerStandard
1000

1000

1001
AcCmTransparency
1071
        0
  0
ENDTAB
  0
TABLE
  2
STYLE
  5
3
330
0
100
AcDbSymbolTable
 70
     5
  0
STYLE
  5
50
330
3
100
AcDbSymbolTableRecord
100
AcDbTextStyleTableRecord
  2
Standard
 70
     0
 40
0.0
 41
1.0
 50
0.0
 71
     0
 42
2.5
  3
txt
  4

  0
STYLE
  5
55
330
3
100
AcDbSymbolTableRecord
100
AcDbTextStyleTableRecord
  2
Annotative
 70
     0
 40
0.0
 41
1.0
 50
0.0
 71
     0
 42
0.2
  3
txt
  4

1001
AcadAnnotative
1000
AnnotativeData
1002
{
1070
     1
1070
     1
1002
}
  0
STYLE
  5
79
330
3
100
AcDbSymbolTableRecord
100
AcDbTextStyleTableRecord
  2

 70
     1
 40
0.0
 41
1.0
 50
0.0
 71
     0
 42
2.5
  3
ltypeshp.shx
  4

  0
STYLE
  5
AB
330
3
100
AcDbSymbolTableRecord
100
AcDbTextStyleTableRecord
  2
文字
 70
     0
 40
0.0
 41
1.0
 50
0.0
 71
     0
 42
5.0
  3

  4

1001
ACAD
1000
MS Gothic
1071
    32817
  0
STYLE
  5
DC
330
3
100
AcDbSymbolTableRecord
100
AcDbTextStyleTableRecord
  2
寸法
 70
     0
 40
0.0
 41
1.0
 50
0.0
 71
     0
 42
2.5
  3
isocpeur.ttf
  4

1001
ACAD
1000
ISOCPEUR
1071
       34
  0
ENDTAB
  0
TABLE
  2
VIEW
  5
6
330
0
100
AcDbSymbolTable
 70
     0
  0
ENDTAB
  0
TABLE
  2
UCS
  5
7
330
0
100
AcDbSymbolTable
 70
     0
  0
ENDTAB
  0
TABLE
  2
APPID
  5
9
330
0
100
AcDbSymbolTable
 70
    12
  0
APPID
  5
51
330
9
100
AcDbSymbolTableRecord
100
AcDbRegAppTableRecord
  2
ACAD
 70
     0
  0
APPID
  5
59
330
9
100
AcDbSymbolTableRecord
100
AcDbRegAppTableRecord
  2
AcadAnnotative
 70
     0
  0
APPID
  5
72
330
9
100
AcDbSymbolTableRecord
100
AcDbRegAppTableRecord
  2
AcAecLayerStandard
 70
     0
  0
APPID
  5
DD
330
9
100
AcDbSymbolTableRecord
100
AcDbRegAppTableRecord
  2
AcadAnnoPO
 70
     0
  0
APPID
  5
116
330
9
100
AcDbSymbolTableRecord
100
AcDbRegAppTableRecord
  2
ACAD_MLEADERVER
 70
     0
  0
APPID
  5
12E
330
9
100
AcDbSymbolTableRecord
100
AcDbRegAppTableRecord
  2
ACAD_EXEMPT_FROM_CAD_STANDARDS
 70
     0
  0
APPID
  5
161
330
9
100
AcDbSymbolTableRecord
100
AcDbRegAppTableRecord
  2
ACAD_NAV_VCDISPLAY
 70
     0
  0
APPID
  5
1AC
330
9
100
AcDbSymbolTableRecord
100
AcDbRegAppTableRecord
  2
AcCmTransparency
 70
     0
  0
APPID
  5
2A9
330
9
100
AcDbSymbolTableRecord
100
AcDbRegAppTableRecord
  2
ACAD_DSTYLE_DIMJAG
 70
     0
  0
APPID
  5
2AA
330
9
100
AcDbSymbolTableRecord
100
AcDbRegAppTableRecord
  2
ACAD_DSTYLE_DIMTALN
 70
     0
  0
APPID
  5
81E
330
9
100
AcDbSymbolTableRecord
100
AcDbRegAppTableRecord
  2
ACAD_PSEXT
 70
     0
  0
APPID
  5
839
330
9
100
AcDbSymbolTableRecord
100
AcDbRegAppTableRecord
  2
ACAD_DSTYLE_DIMRADIAL_EXTENSION
 70
     0
  0
ENDTAB
  0
TABLE
  2
DIMSTYLE
  5
A
330
0
100
AcDbSymbolTable
 70
     2
100
AcDbDimStyleTable
 71
     1
340
53
  0
DIMSTYLE
105
53
102
{ACAD_REACTORS
330
2D2
330
2EA
330
330
330
34C
330
395
330
398
330
39E
330
3F9
330
411
330
454
330
46C
330
484
330
4A0
330
5B8
330
604
330
65A
330
676
330
6EA
330
70F
330
72B
330
747
330
78D
330
7A9
330
7FE
330
83A
330
847
330
958
330
970
330
9F9
330
12E9
102
}
330
A
100
AcDbSymbolTableRecord
100
AcDbDimStyleTableRecord
  2
ISO-25
 70
     0
 40
15.0
 41
2.5
 42
1.625
 43
3.75
 44
1.25
 50
90.0
 73
     0
 74
     0
 77
     1
 78
     8
140
2.5
141
2.5
143
0.03937007874016
147
1.625
171
     3
172
     1
271
     2
272
     2
274
     3
283
     0
284
     8
340
50
1001
ACAD_DSTYLE_DIMJAG
1070
   388
1040
1.5
1001
ACAD_DSTYLE_DIMTALN
1070
   392
1070
     0
  0
DIMSTYLE
105
54
330
A
100
AcDbSymbolTableRecord
100
AcDbDimStyleTableRecord
  2
Annotative
 70
     0
340
50
1001
AcadAnnotative
1000
AnnotativeData
1002
{
1070
     1
1070
     1
1002
}
  0
ENDTAB
  0
TABLE
  2
BLOCK_RECORD
  5
1
330
0
100
AcDbSymbolTable
 70
    32
  0
BLOCK_RECORD
  5
67
102
{ACAD_XDICTIONARY
360
9C
102
}
330
1
100
AcDbSymbolTableRecord
100
AcDbBlockTableRecord
  2
*Model_Space
340
6A
 70
     0
280
     1
281
     0
  0
BLOCK_RECORD
  5
63
330
1
100
AcDbSymbolTableRecord
100
AcDbBlockTableRecord
  2
*Paper_Space
340
66
 70
     0
280
     1
281
     0
  0
BLOCK_RECORD
  5
6B
330
1
100
AcDbSymbolTableRecord
100
AcDbBlockTableRecord
  2
*Paper_Space0
340
6E
 70
     0
280
     1
281
     0
  0
BLOCK_RECORD
  5
2D3
330
1
100
AcDbSymbolTableRecord
100
AcDbBlockTableRecord
  2
*D1
340
0
 70
     0
280
     1
281
     0
  0
BLOCK_RECORD
  5
2EB
330
1
100
AcDbSymbolTableRecord
100
AcDbBlockTableRecord
  2
*D2
340
0
 70
     0
280
     1
281
     0
  0
BLOCK_RECORD
  5
331
330
1
100
AcDbSymbolTableRecord
100
AcDbBlockTableRecord
  2
*D3
340
0
 70
     0
280
     1
281
     0
  0
BLOCK_RECORD
  5
34D
330
1
100
AcDbSymbolTableRecord
100
AcDbBlockTableRecord
  2
*D4
340
0
 70
     0
280
     1
281
     0
  0
BLOCK_RECORD
  5
3A1
330
1
100
AcDbSymbolTableRecord
100
AcDbBlockTableRecord
  2
*D5
340
0
 70
     0
280
     1
281
     0
  0
BLOCK_RECORD
  5
3AD
330
1
100
AcDbSymbolTableRecord
100
AcDbBlockTableRecord
  2
*D6
340
0
 70
     0
280
     1
281
     0
  0
BLOCK_RECORD
  5
3C7
330
1
100
AcDbSymbolTableRecord
100
AcDbBlockTableRecord
  2
*D7
340
0
 70
     0
280
     1
281
     0
  0
BLOCK_RECORD
  5
3FA
330
1
100
AcDbSymbolTableRecord
100
AcDbBlockTableRecord
  2
*D8
340
0
 70
     0
280
     1
281
     0
  0
BLOCK_RECORD
  5
412
330
1
100
AcDbSymbolTableRecord
100
AcDbBlockTableRecord
  2
*D9
340
0
 70
     0
280
     1
281
     0
  0
BLOCK_RECORD
  5
455
330
1
100
AcDbSymbolTableRecord
100
AcDbBlockTableRecord
  2
*D10
340
0
 70
     0
280
     1
281
     0
  0
BLOCK_RECORD
  5
46D
330
1
100
AcDbSymbolTableRecord
100
AcDbBlockTableRecord
  2
*D11
340
0
 70
     0
280
     1
281
     0
  0
BLOCK_RECORD
  5
485
330
1
100
AcDbSymbolTableRecord
100
AcDbBlockTableRecord
  2
*D12
340
0
 70
     0
280
     1
281
     0
  0
BLOCK_RECORD
  5
4A1
330
1
100
AcDbSymbolTableRecord
100
AcDbBlockTableRecord
  2
*D13
340
0
 70
     0
280
     1
281
     0
  0
BLOCK_RECORD
  5
5B9
330
1
100
AcDbSymbolTableRecord
100
AcDbBlockTableRecord
  2
*D14
340
0
 70
     0
280
     1
281
     0
  0
BLOCK_RECORD
  5
5EA
330
1
100
AcDbSymbolTableRecord
100
AcDbBlockTableRecord
  2
_DotSmall
340
0
102
{BLKREFS
331
170F
331
171A
331
1725
331
1730
331
173B
331
1746
331
18BD
331
18C7
102
}
 70
     0
280
     1
281
     0
  0
BLOCK_RECORD
  5
605
330
1
100
AcDbSymbolTableRecord
100
AcDbBlockTableRecord
  2
*D16
340
0
 70
     0
280
     1
281
     0
  0
BLOCK_RECORD
  5
65B
330
1
100
AcDbSymbolTableRecord
100
AcDbBlockTableRecord
  2
*D17
340
0
 70
     0
280
     1
281
     0
  0
BLOCK_RECORD
  5
677
330
1
100
AcDbSymbolTableRecord
100
AcDbBlockTableRecord
  2
*D18
340
0
 70
     0
280
     1
281
     0
  0
BLOCK_RECORD
  5
6EB
330
1
100
AcDbSymbolTableRecord
100
AcDbBlockTableRecord
  2
*D19
340
0
 70
     0
280
     1
281
     0
  0
BLOCK_RECORD
  5
710
330
1
100
AcDbSymbolTableRecord
100
AcDbBlockTableRecord
  2
*D20
340
0
 70
     0
280
     1
281
     0
  0
BLOCK_RECORD
  5
72C
330
1
100
AcDbSymbolTableRecord
100
AcDbBlockTableRecord
  2
*D21
340
0
 70
     0
280
     1
281
     0
  0
BLOCK_RECORD
  5
748
330
1
100
AcDbSymbolTableRecord
100
AcDbBlockTableRecord
  2
*D22
340
0
 70
     0
280
     1
281
     0
  0
BLOCK_RECORD
  5
78E
330
1
100
AcDbSymbolTableRecord
100
AcDbBlockTableRecord
  2
*D23
340
0
 70
     0
280
     1
281
     0
  0
BLOCK_RECORD
  5
7AA
330
1
100
AcDbSymbolTableRecord
100
AcDbBlockTableRecord
  2
*D24
340
0
 70
     0
280
     1
281
     0
  0
BLOCK_RECORD
  5
7FF
330
1
100
AcDbSymbolTableRecord
100
AcDbBlockTableRecord
  2
*D25
340
0
 70
     0
280
     1
281
     0
  0
BLOCK_RECORD
  5
83B
330
1
100
AcDbSymbolTableRecord
100
AcDbBlockTableRecord
  2
*D26
340
0
 70
     0
280
     1
281
     0
  0
BLOCK_RECORD
  5
848
330
1
100
AcDbSymbolTableRecord
100
AcDbBlockTableRecord
  2
*D27
340
0
 70
     0
280
     1
281
     0
  0
BLOCK_RECORD
  5
959
330
1
100
AcDbSymbolTableRecord
100
AcDbBlockTableRecord
  2
*D28
340
0
 70
     0
280
     1
281
     0
  0
BLOCK_RECORD
  5
971
330
1
100
AcDbSymbolTableRecord
100
AcDbBlockTableRecord
  2
*D29
340
0
 70
     0
280
     1
281
     0
  0
BLOCK_RECORD
  5
9FC
330
1
100
AcDbSymbolTableRecord
100
AcDbBlockTableRecord
  2
*D30
340
0
 70
     0
280
     1
281
     0
  0
BLOCK_RECORD
  5
12EA
330
1
100
AcDbSymbolTableRecord
100
AcDbBlockTableRecord
  2
*D31
340
0
 70
     0
280
     1
281
     0
  0
ENDTAB
  0
ENDSEC
  0
SECTION
  2
BLOCKS
  0
BLOCK
  5
68
330
67
100
AcDbEntity
  8
0
100
AcDbBlockBegin
  2
*Model_Space
 70
     0
 10
0.0
 20
0.0
 30
0.0
  3
*Model_Space
  1

  0
ENDBLK
  5
69
330
67
100
AcDbEntity
  8
0
100
AcDbBlockEnd
  0
BLOCK
  5
64
330
63
100
AcDbEntity
 67
     1
  8
0
100
AcDbBlockBegin
  2
*Paper_Space
 70
     0
 10
0.0
 20
0.0
 30
0.0
  3
*Paper_Space
  1

  0
ENDBLK
  5
65
330
63
100
AcDbEntity
 67
     1
  8
0
100
AcDbBlockEnd
  0
BLOCK
  5
6C
330
6B
100
AcDbEntity
 67
     1
  8
0
100
AcDbBlockBegin
  2
*Paper_Space0
 70
     0
 10
0.0
 20
0.0
 30
0.0
  3
*Paper_Space0
  1

  0
ENDBLK
  5
6D
330
6B
100
AcDbEntity
 67
     1
  8
0
100
AcDbBlockEnd
  0
BLOCK
  5
2D4
330
2D3
100
AcDbEntity
  8
0
100
AcDbBlockBegin
  2
*D1
 70
     1
 10
0.0
 20
0.0
 30
0.0
  3
*D1
  1

  0
LINE
  5
1876
330
2D3
100
AcDbEntity
  8
寸法
 62
     0
440
 16777216
370
    -2
100
AcDbLine
 10
728.75
 20
2521.875
 30
0.0
 11
728.75
 21
2592.951875192132
 31
0.0
  0
LINE
  5
1877
330
2D3
100
AcDbEntity
  8
寸法
 62
     0
440
 16777216
370
    -2
100
AcDbLine
 10
1248.75
 20
2521.875
 30
0.0
 11
1248.75
 21
2592.951875192132
 31
0.0
  0
LINE
  5
1878
330
2D3
100
AcDbEntity
  8
寸法
 62
     0
440
 16777216
370
    -2
100
AcDbLine
 10
766.25
 20
2574.201875192132
 30
0.0
 11
1211.249999999999
 21
2574.201875192132
 31
0.0
  0
SOLID
  5
1879
330
2D3
100
AcDbEntity
  8
寸法
 62
     0
440
 16777216
100
AcDbTrace
 10
766.25
 20
2580.451875192132
 30
0.0
 11
766.25
 21
2567.951875192132
 31
0.0
 12
728.75
 22
2574.201875192132
 32
0.0
 13
728.75
 23
2574.201875192132
 33
0.0
  0
SOLID
  5
187A
330
2D3
100
AcDbEntity
  8
寸法
 62
     0
440
 16777216
100
AcDbTrace
 10
1211.249999999999
 20
2580.451875192132
 30
0.0
 11
1211.249999999999
 21
2567.951875192132
 31
0.0
 12
1248.75
 22
2574.201875192132
 32
0.0
 13
1248.75
 23
2574.201875192132
 33
0.0
  0
MTEXT
  5
187B
330
2D3
100
AcDbEntity
  8
寸法
 62
     0
440
 16777216
100
AcDbMText
 10
988.7499999999999
 20
2617.326875192132
 30
0.0
 40
37.5
 41
0.0
 46
0.0
 71
     5
 72
     1
  1
520
 73
     1
 44
1.0
  0
POINT
  5
187C
330
2D3
100
AcDbEntity
  8
Defpoints
 62
     0
440
 16777216
100
AcDbPoint
 10
728.75
 20
2497.5
 30
0.0
  0
POINT
  5
187D
330
2D3
100
AcDbEntity
  8
Defpoints
 62
     0
440
 16777216
100
AcDbPoint
 10
1248.75
 20
2497.5
 30
0.0
  0
POINT
  5
187E
330
2D3
100
AcDbEntity
  8
Defpoints
 62
     0
440
 16777216
100
AcDbPoint
 10
1248.75
 20
2574.201875192132
 30
0.0
  0
ENDBLK
  5
2D5
330
2D3
100
AcDbEntity
  8
0
100
AcDbBlockEnd
  0
BLOCK
  5
2EC
330
2EB
100
AcDbEntity
  8
0
100
AcDbBlockBegin
  2
*D2
 70
     1
 10
0.0
 20
0.0
 30
0.0
  3
*D2
  1

  0
LINE
  5
187F
330
2EB
100
AcDbEntity
  8
寸法
 62
     0
440
 16777216
370
    -2
100
AcDbLine
 10
1273.125
 20
2497.5
 30
0.0
 11
1374.70451629386
 21
2497.5
 31
0.0
  0
LINE
  5
1880
330
2EB
100
AcDbEntity
  8
寸法
 62
     0
440
 16777216
370
    -2
100
AcDbLine
 10
1273.125
 20
1977.5
 30
0.0
 11
1374.70451629386
 21
1977.5
 31
0.0
  0
LINE
  5
1881
330
2EB
100
AcDbEntity
  8
寸法
 62
     0
440
 16777216
370
    -2
100
AcDbLine
 10
1355.95451629386
 20
2460.0
 30
0.0
 11
1355.95451629386
 21
2015.0
 31
0.0
  0
SOLID
  5
1882
330
2EB
100
AcDbEntity
  8
寸法
 62
     0
440
 16777216
100
AcDbTrace
 10
1349.70451629386
 20
2460.0
 30
0.0
 11
1362.20451629386
 21
2460.0
 31
0.0
 12
1355.95451629386
 22
2497.5
 32
0.0
 13
1355.95451629386
 23
2497.5
 33
0.0
  0
SOLID
  5
1883
330
2EB
100
AcDbEntity
  8
寸法
 62
     0
440
 16777216
100
AcDbTrace
 10
1349.70451629386
 20
2015.0
 30
0.0
 11
1362.20451629386
 21
2015.0
 31
0.0
 12
1355.95451629386
 22
1977.5
 32
0.0
 13
1355.95451629386
 23
1977.5
 33
0.0
  0
MTEXT
  5
1884
330
2EB
100
AcDbEntity
  8
寸法
 62
     0
440
 16777216
100
AcDbMText
 10
1312.82951629386
 20
2237.5
 30
0.0
 40
37.5
 41
0.0
 46
0.0
 71
     5
 72
     1
  1
520
 11
0.0000000000000001
 21
1.0
 31
0.0
 73
     1
 44
1.0
  0
POINT
  5
1885
330
2EB
100
AcDbEntity
  8
Defpoints
 62
     0
440
 16777216
100
AcDbPoint
 10
1248.75
 20
2497.5
 30
0.0
  0
POINT
  5
1886
330
2EB
100
AcDbEntity
  8
Defpoints
 62
     0
440
 16777216
100
AcDbPoint
 10
1248.75
 20
1977.5
 30
0.0
  0
POINT
  5
1887
330
2EB
100
AcDbEntity
  8
Defpoints
 62
     0
440
 16777216
100
AcDbPoint
 10
1355.95451629386
 20
1977.5
 30
0.0
  0
ENDBLK
  5
2ED
330
2EB
100
AcDbEntity
  8
0
100
AcDbBlockEnd
  0
BLOCK
  5
332
330
331
100
AcDbEntity
  8
0
100
AcDbBlockBegin
  2
*D3
 70
     1
 10
0.0
 20
0.0
 30
0.0
  3
*D3
  1

  0
LINE
  5
1888
330
331
100
AcDbEntity
  8
寸法
 62
     0
440
 16777216
370
    -2
100
AcDbLine
 10
1268.125
 20
1737.5
 30
0.0
 11
1375.70451629386
 21
1737.5
 31
0.0
  0
LINE
  5
1889
330
331
100
AcDbEntity
  8
寸法
 62
     0
440
 16777216
370
    -2
100
AcDbLine
 10
1267.125
 20
1787.5
 30
0.0
 11
1375.70451629386
 21
1787.5
 31
0.0
  0
LINE
  5
188A
330
331
100
AcDbEntity
  8
寸法
 62
     0
440
 16777216
370
    -2
100
AcDbLine
 10
1356.95451629386
 20
1700.0
 30
0.0
 11
1356.95451629386
 21
1662.5
 31
0.0
  0
LINE
  5
188B
330
331
100
AcDbEntity
  8
寸法
 62
     0
440
 16777216
370
    -2
100
AcDbLine
 10
1356.95451629386
 20
1825.0
 30
0.0
 11
1356.95451629386
 21
1862.5
 31
0.0
  0
MTEXT
  5
188C
330
331
100
AcDbEntity
  8
寸法
 62
     0
440
 16777216
100
AcDbMText
 10
1404.063348184684
 20
1762.430999463839
 30
0.0
 40
37.5
 41
0.0
 46
0.0
 71
     5
 72
     1
  1
50
 11
0.0000000000000001
 21
1.0
 31
0.0
 73
     1
 44
1.0
  0
LINE
  5
188D
330
331
100
AcDbEntity
  8
寸法
 62
     0
440
 16777216
370
    -2
100
AcDbLine
 10
1356.95451629386
 20
1737.5
 30
0.0
 11
1356.95451629386
 21
1787.5
 31
0.0
  0
SOLID
  5
188E
330
331
100
AcDbEntity
  8
寸法
 62
     0
440
 16777216
100
AcDbTrace
 10
1350.70451629386
 20
1700.0
 30
0.0
 11
1363.20451629386
 21
1700.0
 31
0.0
 12
1356.95451629386
 22
1737.5
 32
0.0
 13
1356.95451629386
 23
1737.5
 33
0.0
  0
SOLID
  5
188F
330
331
100
AcDbEntity
  8
寸法
 62
     0
440
 16777216
100
AcDbTrace
 10
1350.70451629386
 20
1825.0
 30
0.0
 11
1363.20451629386
 21
1825.0
 31
0.0
 12
1356.95451629386
 22
1787.5
 32
0.0
 13
1356.95451629386
 23
1787.5
 33
0.0
  0
POINT
  5
1890
330
331
100
AcDbEntity
  8
Defpoints
 62
     0
440
 16777216
100
AcDbPoint
 10
1243.75
 20
1737.5
 30
0.0
  0
POINT
  5
1891
330
331
100
AcDbEntity
  8
Defpoints
 62
     0
440
 16777216
100
AcDbPoint
 10
1242.75
 20
1787.5
 30
0.0
  0
POINT
  5
1892
330
331
100
AcDbEntity
  8
Defpoints
 62
     0
440
 16777216
100
AcDbPoint
 10
1356.95451629386
 20
1787.5
 30
0.0
  0
ENDBLK
  5
333
330
331
100
AcDbEntity
  8
0
100
AcDbBlockEnd
  0
BLOCK
  5
34E
330
34D
100
AcDbEntity
  8
0
100
AcDbBlockBegin
  2
*D4
 70
     1
 10
0.0
 20
0.0
 30
0.0
  3
*D4
  1

  0
LINE
  5
1893
330
34D
100
AcDbEntity
  8
寸法
 62
     0
440
 16777216
370
    -2
100
AcDbLine
 10
733.75
 20
1713.125
 30
0.0
 11
733.75
 21
1619.567423848664
 31
0.0
  0
LINE
  5
1894
330
34D
100
AcDbEntity
  8
寸法
 62
     0
440
 16777216
370
    -2
100
AcDbLine
 10
1243.75
 20
1713.125
 30
0.0
 11
1243.75
 21
1619.567423848664
 31
0.0
  0
LINE
  5
1895
330
34D
100
AcDbEntity
  8
寸法
 62
     0
440
 16777216
370
    -2
100
AcDbLine
 10
771.25
 20
1638.317423848664
 30
0.0
 11
1206.25
 21
1638.317423848664
 31
0.0
  0
SOLID
  5
1896
330
34D
100
AcDbEntity
  8
寸法
 62
     0
440
 16777216
100
AcDbTrace
 10
771.25
 20
1644.567423848664
 30
0.0
 11
771.25
 21
1632.067423848664
 31
0.0
 12
733.75
 22
1638.317423848664
 32
0.0
 13
733.75
 23
1638.317423848664
 33
0.0
  0
SOLID
  5
1897
330
34D
100
AcDbEntity
  8
寸法
 62
     0
440
 16777216
100
AcDbTrace
 10
1206.25
 20
1644.567423848664
 30
0.0
 11
1206.25
 21
1632.067423848664
 31
0.0
 12
1243.75
 22
1638.317423848664
 32
0.0
 13
1243.75
 23
1638.317423848664
 33
0.0
  0
MTEXT
  5
1898
330
34D
100
AcDbEntity
  8
寸法
 62
     0
440
 16777216
100
AcDbMText
 10
988.7500000000001
 20
1681.442423848664
 30
0.0
 40
37.5
 41
0.0
 46
0.0
 71
     5
 72
     1
  1
510
 73
     1
 44
1.0
  0
POINT
  5
1899
330
34D
100
AcDbEntity
  8
Defpoints
 62
     0
440
 16777216
100
AcDbPoint
 10
733.75
 20
1737.5
 30
0.0
  0
POINT
  5
189A
330
34D
100
AcDbEntity
  8
Defpoints
 62
     0
440
 16777216
100
AcDbPoint
 10
1243.75
 20
1737.5
 30
0.0
  0
POINT
  5
189B
330
34D
100
AcDbEntity
  8
Defpoints
 62
     0
440
 16777216
100
AcDbPoint
 10
1243.75
 20
1638.317423848664
 30
0.0
  0
ENDBLK
  5
34F
330
34D
100
AcDbEntity
  8
0
100
AcDbBlockEnd
  0
BLOCK
  5
3A2
330
3A1
100
AcDbEntity
  8
0
100
AcDbBlockBegin
  2
*D5
 70
     1
 10
0.0
 20
0.0
 30
0.0
  3
*D5
  1

  0
LINE
  5
189C
330
3A1
100
AcDbEntity
  8
寸法
 62
     0
440
 16777216
370
    -2
100
AcDbLine
 10
728.75
 20
1096.875
 30
0.0
 11
728.75
 21
1168.981152225293
 31
0.0
  0
LINE
  5
189D
330
3A1
100
AcDbEntity
  8
寸法
 62
     0
440
 16777216
370
    -2
100
AcDbLine
 10
1248.749999999999
 20
1096.874999999999
 30
0.0
 11
1248.749999999999
 21
1168.981152225293
 31
0.0
  0
LINE
  5
189E
330
3A1
100
AcDbEntity
  8
寸法
 62
     0
440
 16777216
370
    -2
100
AcDbLine
 10
766.25
 20
1150.231152225293
 30
0.0
 11
1211.249999999999
 21
1150.231152225293
 31
0.0
  0
SOLID
  5
189F
330
3A1
100
AcDbEntity
  8
寸法
 62
     0
440
 16777216
100
AcDbTrace
 10
766.25
 20
1156.481152225293
 30
0.0
 11
766.25
 21
1143.981152225293
 31
0.0
 12
728.75
 22
1150.231152225293
 32
0.0
 13
728.75
 23
1150.231152225293
 33
0.0
  0
SOLID
  5
18A0
330
3A1
100
AcDbEntity
  8
寸法
 62
     0
440
 16777216
100
AcDbTrace
 10
1211.249999999999
 20
1156.481152225293
 30
0.0
 11
1211.249999999999
 21
1143.981152225293
 31
0.0
 12
1248.749999999999
 22
1150.231152225293
 32
0.0
 13
1248.749999999999
 23
1150.231152225293
 33
0.0
  0
MTEXT
  5
18A1
330
3A1
100
AcDbEntity
  8
寸法
 62
     0
440
 16777216
100
AcDbMText
 10
988.7499999999997
 20
1193.356152225293
 30
0.0
 40
37.5
 41
0.0
 46
0.0
 71
     5
 72
     1
  1
520
 73
     1
 44
1.0
  0
POINT
  5
18A2
330
3A1
100
AcDbEntity
  8
Defpoints
 62
     0
440
 16777216
100
AcDbPoint
 10
728.75
 20
1072.5
 30
0.0
  0
POINT
  5
18A3
330
3A1
100
AcDbEntity
  8
Defpoints
 62
     0
440
 16777216
100
AcDbPoint
 10
1248.749999999999
 20
1072.499999999999
 30
0.0
  0
POINT
  5
18A4
330
3A1
100
AcDbEntity
  8
Defpoints
 62
     0
440
 16777216
100
AcDbPoint
 10
1248.749999999999
 20
1150.231152225293
 30
0.0
  0
ENDBLK
  5
3A3
330
3A1
100
AcDbEntity
  8
0
100
AcDbBlockEnd
  0
BLOCK
  5
3AE
330
3AD
100
AcDbEntity
  8
0
100
AcDbBlockBegin
  2
*D6
 70
     1
 10
0.0
 20
0.0
 30
0.0
  3
*D6
  1

  0
LINE
  5
18A5
330
3AD
100
AcDbEntity
  8
寸法
 62
     0
440
 16777216
370
    -2
100
AcDbLine
 10
1273.125
 20
1072.5
 30
0.0
 11
1374.70451629386
 21
1072.5
 31
0.0
  0
LINE
  5
18A6
330
3AD
100
AcDbEntity
  8
寸法
 62
     0
440
 16777216
370
    -2
100
AcDbLine
 10
1273.125
 20
552.5
 30
0.0
 11
1374.70451629386
 21
552.4999999999998
 31
0.0
  0
LINE
  5
18A7
330
3AD
100
AcDbEntity
  8
寸法
 62
     0
440
 16777216
370
    -2
100
AcDbLine
 10
1355.95451629386
 20
1035.0
 30
0.0
 11
1355.95451629386
 21
589.9999999999998
 31
0.0
  0
SOLID
  5
18A8
330
3AD
100
AcDbEntity
  8
寸法
 62
     0
440
 16777216
100
AcDbTrace
 10
1349.70451629386
 20
1035.0
 30
0.0
 11
1362.20451629386
 21
1035.0
 31
0.0
 12
1355.95451629386
 22
1072.5
 32
0.0
 13
1355.95451629386
 23
1072.5
 33
0.0
  0
SOLID
  5
18A9
330
3AD
100
AcDbEntity
  8
寸法
 62
     0
440
 16777216
100
AcDbTrace
 10
1349.70451629386
 20
589.9999999999998
 30
0.0
 11
1362.20451629386
 21
589.9999999999998
 31
0.0
 12
1355.95451629386
 22
552.4999999999998
 32
0.0
 13
1355.95451629386
 23
552.4999999999998
 33
0.0
  0
MTEXT
  5
18AA
330
3AD
100
AcDbEntity
  8
寸法
 62
     0
440
 16777216
100
AcDbMText
 10
1312.82951629386
 20
812.5000000000001
 30
0.0
 40
37.5
 41
0.0
 46
0.0
 71
     5
 72
     1
  1
520
 11
0.0000000000000001
 21
1.0
 31
0.0
 73
     1
 44
1.0
  0
POINT
  5
18AB
330
3AD
100
AcDbEntity
  8
Defpoints
 62
     0
440
 16777216
100
AcDbPoint
 10
1248.75
 20
1072.5
 30
0.0
  0
POINT
  5
18AC
330
3AD
100
AcDbEntity
  8
Defpoints
 62
     0
440
 16777216
100
AcDbPoint
 10
1248.75
 20
552.5
 30
0.0
  0
POINT
  5
18AD
330
3AD
100
AcDbEntity
  8
Defpoints
 62
     0
440
 16777216
100
AcDbPoint
 10
1355.95451629386
 20
552.4999999999998
 30
0.0
  0
ENDBLK
  5
3AF
330
3AD
100
AcDbEntity
  8
0
100
AcDbBlockEnd
  0
BLOCK
  5
3C8
330
3C7
100
AcDbEntity
  8
0
100
AcDbBlockBegin
  2
*D7
 70
     1
 10
0.0
 20
0.0
 30
0.0
  3
*D7
  1

  0
LINE
  5
18AE
330
3C7
100
AcDbEntity
  8
寸法
 62
     0
440
 16777216
370
    -2
100
AcDbLine
 10
733.7500000000001
 20
288.125
 30
0.0
 11
733.7500000000001
 21
194.5674238486631
 31
0.0
  0
LINE
  5
18AF
330
3C7
100
AcDbEntity
  8
寸法
 62
     0
440
 16777216
370
    -2
100
AcDbLine
 10
1243.75
 20
288.125
 30
0.0
 11
1243.75
 21
194.5674238486631
 31
0.0
  0
LINE
  5
18B0
330
3C7
100
AcDbEntity
  8
寸法
 62
     0
440
 16777216
370
    -2
100
AcDbLine
 10
771.2500000000001
 20
213.3174238486631
 30
0.0
 11
1206.25
 21
213.3174238486631
 31
0.0
  0
SOLID
  5
18B1
330
3C7
100
AcDbEntity
  8
寸法
 62
     0
440
 16777216
100
AcDbTrace
 10
771.2500000000001
 20
219.5674238486631
 30
0.0
 11
771.2500000000001
 21
207.0674238486631
 31
0.0
 12
733.7500000000001
 22
213.3174238486631
 32
0.0
 13
733.7500000000001
 23
213.3174238486631
 33
0.0
  0
SOLID
  5
18B2
330
3C7
100
AcDbEntity
  8
寸法
 62
     0
440
 16777216
100
AcDbTrace
 10
1206.25
 20
219.5674238486631
 30
0.0
 11
1206.25
 21
207.0674238486631
 31
0.0
 12
1243.75
 22
213.3174238486631
 32
0.0
 13
1243.75
 23
213.3174238486631
 33
0.0
  0
MTEXT
  5
18B3
330
3C7
100
AcDbEntity
  8
寸法
 62
     0
440
 16777216
100
AcDbMText
 10
988.7500000000001
 20
256.4424238486631
 30
0.0
 40
37.5
 41
0.0
 46
0.0
 71
     5
 72
     1
  1
510
 73
     1
 44
1.0
  0
POINT
  5
18B4
330
3C7
100
AcDbEntity
  8
Defpoints
 62
     0
440
 16777216
100
AcDbPoint
 10
733.7500000000001
 20
312.5
 30
0.0
  0
POINT
  5
18B5
330
3C7
100
AcDbEntity
  8
Defpoints
 62
     0
440
 16777216
100
AcDbPoint
 10
1243.75
 20
312.5
 30
0.0
  0
POINT
  5
18B6
330
3C7
100
AcDbEntity
  8
Defpoints
 62
     0
440
 16777216
100
AcDbPoint
 10
1243.75
 20
213.3174238486631
 30
0.0
  0
ENDBLK
  5
3C9
330
3C7
100
AcDbEntity
  8
0
100
AcDbBlockEnd
  0
BLOCK
  5
3FB
330
3FA
100
AcDbEntity
  8
0
100
AcDbBlockBegin
  2
*D8
 70
     1
 10
0.0
 20
0.0
 30
0.0
  3
*D8
  1

  0
LINE
  5
142C
330
3FA
100
AcDbEntity
  8
寸法
 62
     0
440
 16777216
370
    -2
100
AcDbLine
 10
2002.500000000001
 20
1986.875
 30
0.0
 11
2002.500000000001
 21
2090.425807445597
 31
0.0
  0
LINE
  5
142D
330
3FA
100
AcDbEntity
  8
寸法
 62
     0
440
 16777216
370
    -2
100
AcDbLine
 10
2452.500000000001
 20
1986.875
 30
0.0
 11
2452.500000000001
 21
2090.425807445597
 31
0.0
  0
LINE
  5
142E
330
3FA
100
AcDbEntity
  8
寸法
 62
     0
440
 16777216
370
    -2
100
AcDbLine
 10
2040.0
 20
2071.675807445597
 30
0.0
 11
2415.0
 21
2071.675807445597
 31
0.0
  0
SOLID
  5
142F
330
3FA
100
AcDbEntity
  8
寸法
 62
     0
440
 16777216
100
AcDbTrace
 10
2040.0
 20
2077.925807445597
 30
0.0
 11
2040.0
 21
2065.425807445597
 31
0.0
 12
2002.500000000001
 22
2071.675807445597
 32
0.0
 13
2002.500000000001
 23
2071.675807445597
 33
0.0
  0
SOLID
  5
1430
330
3FA
100
AcDbEntity
  8
寸法
 62
     0
440
 16777216
100
AcDbTrace
 10
2415.0
 20
2077.925807445597
 30
0.0
 11
2415.0
 21
2065.425807445597
 31
0.0
 12
2452.500000000001
 22
2071.675807445597
 32
0.0
 13
2452.500000000001
 23
2071.675807445597
 33
0.0
  0
MTEXT
  5
1431
330
3FA
100
AcDbEntity
  8
寸法
 62
     0
440
 16777216
100
AcDbMText
 10
2227.5
 20
2114.800807445597
 30
0.0
 40
37.5
 41
0.0
 46
0.0
 71
     5
 72
     1
  1
450
 73
     1
 44
1.0
  0
POINT
  5
1432
330
3FA
100
AcDbEntity
  8
Defpoints
 62
     0
440
 16777216
100
AcDbPoint
 10
2002.500000000001
 20
1962.5
 30
0.0
  0
POINT
  5
1433
330
3FA
100
AcDbEntity
  8
Defpoints
 62
     0
440
 16777216
100
AcDbPoint
 10
2452.500000000001
 20
1962.5
 30
0.0
  0
POINT
  5
1434
330
3FA
100
AcDbEntity
  8
Defpoints
 62
     0
440
 16777216
100
AcDbPoint
 10
2452.500000000001
 20
2071.675807445597
 30
0.0
  0
ENDBLK
  5
3FC
330
3FA
100
AcDbEntity
  8
0
100
AcDbBlockEnd
  0
BLOCK
  5
413
330
412
100
AcDbEntity
  8
0
100
AcDbBlockBegin
  2
*D9
 70
     1
 10
0.0
 20
0.0
 30
0.0
  3
*D9
  1

  0
LINE
  5
1423
330
412
100
AcDbEntity
  8
寸法
 62
     0
440
 16777216
370
    -2
100
AcDbLine
 10
2428.125
 20
2412.5
 30
0.0
 11
2339.375000000001
 21
2412.5
 31
0.0
  0
LINE
  5
1424
330
412
100
AcDbEntity
  8
寸法
 62
     0
440
 16777216
370
    -2
100
AcDbLine
 10
2428.125
 20
1962.5
 30
0.0
 11
2339.375000000001
 21
1962.5
 31
0.0
  0
LINE
  5
1425
330
412
100
AcDbEntity
  8
寸法
 62
     0
440
 16777216
370
    -2
100
AcDbLine
 10
2358.125000000001
 20
2375.0
 30
0.0
 11
2358.125000000001
 21
2000.0
 31
0.0
  0
SOLID
  5
1426
330
412
100
AcDbEntity
  8
寸法
 62
     0
440
 16777216
100
AcDbTrace
 10
2351.875000000001
 20
2375.0
 30
0.0
 11
2364.375000000001
 21
2375.0
 31
0.0
 12
2358.125000000001
 22
2412.5
 32
0.0
 13
2358.125000000001
 23
2412.5
 33
0.0
  0
SOLID
  5
1427
330
412
100
AcDbEntity
  8
寸法
 62
     0
440
 16777216
100
AcDbTrace
 10
2351.875000000001
 20
2000.0
 30
0.0
 11
2364.375000000001
 21
2000.0
 31
0.0
 12
2358.125000000001
 22
1962.5
 32
0.0
 13
2358.125000000001
 23
1962.5
 33
0.0
  0
MTEXT
  5
1428
330
412
100
AcDbEntity
  8
寸法
 62
     0
440
 16777216
100
AcDbMText
 10
2315.000000000001
 20
2187.5
 30
0.0
 40
37.5
 41
0.0
 46
0.0
 71
     5
 72
     1
  1
450
 11
0.0000000000000001
 21
1.0
 31
0.0
 73
     1
 44
1.0
  0
POINT
  5
1429
330
412
100
AcDbEntity
  8
Defpoints
 62
     0
440
 16777216
100
AcDbPoint
 10
2452.500000000001
 20
2412.5
 30
0.0
  0
POINT
  5
142A
330
412
100
AcDbEntity
  8
Defpoints
 62
     0
440
 16777216
100
AcDbPoint
 10
2452.500000000001
 20
1962.5
 30
0.0
  0
POINT
  5
142B
330
412
100
AcDbEntity
  8
Defpoints
 62
     0
440
 16777216
100
AcDbPoint
 10
2358.125000000001
 20
1962.5
 30
0.0
  0
ENDBLK
  5
414
330
412
100
AcDbEntity
  8
0
100
AcDbBlockEnd
  0
BLOCK
  5
456
330
455
100
AcDbEntity
  8
0
100
AcDbBlockBegin
  2
*D10
 70
     1
 10
0.0
 20
0.0
 30
0.0
  3
*D10
  1

  0
LINE
  5
13E0
330
455
100
AcDbEntity
  8
寸法
 62
     0
440
 16777216
370
    -2
100
AcDbLine
 10
1902.5
 20
2527.875000000001
 30
0.0
 11
1902.5
 21
2574.883942115673
 31
0.0
  0
LINE
  5
13E1
330
455
100
AcDbEntity
  8
寸法
 62
     0
440
 16777216
370
    -2
100
AcDbLine
 10
2552.5
 20
2527.875000000001
 30
0.0
 11
2552.5
 21
2574.883942115673
 31
0.0
  0
LINE
  5
13E2
330
455
100
AcDbEntity
  8
寸法
 62
     0
440
 16777216
370
    -2
100
AcDbLine
 10
1940.0
 20
2556.133942115673
 30
0.0
 11
2515.0
 21
2556.133942115673
 31
0.0
  0
SOLID
  5
13E3
330
455
100
AcDbEntity
  8
寸法
 62
     0
440
 16777216
100
AcDbTrace
 10
1940.0
 20
2562.383942115673
 30
0.0
 11
1940.0
 21
2549.883942115673
 31
0.0
 12
1902.5
 22
2556.133942115673
 32
0.0
 13
1902.5
 23
2556.133942115673
 33
0.0
  0
SOLID
  5
13E4
330
455
100
AcDbEntity
  8
寸法
 62
     0
440
 16777216
100
AcDbTrace
 10
2515.0
 20
2562.383942115673
 30
0.0
 11
2515.0
 21
2549.883942115673
 31
0.0
 12
2552.5
 22
2556.133942115673
 32
0.0
 13
2552.5
 23
2556.133942115673
 33
0.0
  0
MTEXT
  5
13E5
330
455
100
AcDbEntity
  8
寸法
 62
     0
440
 16777216
100
AcDbMText
 10
2227.5
 20
2599.258942115673
 30
0.0
 40
37.5
 41
0.0
 46
0.0
 71
     5
 72
     1
  1
650
 73
     1
 44
1.0
  0
POINT
  5
13E6
330
455
100
AcDbEntity
  8
Defpoints
 62
     0
440
 16777216
100
AcDbPoint
 10
1902.5
 20
2503.500000000001
 30
0.0
  0
POINT
  5
13E7
330
455
100
AcDbEntity
  8
Defpoints
 62
     0
440
 16777216
100
AcDbPoint
 10
2552.5
 20
2503.500000000001
 30
0.0
  0
POINT
  5
13E8
330
455
100
AcDbEntity
  8
Defpoints
 62
     0
440
 16777216
100
AcDbPoint
 10
2552.5
 20
2556.133942115673
 30
0.0
  0
ENDBLK
  5
457
330
455
100
AcDbEntity
  8
0
100
AcDbBlockEnd
  0
BLOCK
  5
46E
330
46D
100
AcDbEntity
  8
0
100
AcDbBlockBegin
  2
*D11
 70
     1
 10
0.0
 20
0.0
 30
0.0
  3
*D11
  1

  0
LINE
  5
13E9
330
46D
100
AcDbEntity
  8
寸法
 62
     0
440
 16777216
370
    -2
100
AcDbLine
 10
2567.875
 20
2512.500000000001
 30
0.0
 11
2658.919830853607
 21
2512.500000000001
 31
0.0
  0
LINE
  5
13EA
330
46D
100
AcDbEntity
  8
寸法
 62
     0
440
 16777216
370
    -2
100
AcDbLine
 10
2567.875
 20
1862.499999999999
 30
0.0
 11
2658.919830853607
 21
1862.499999999999
 31
0.0
  0
LINE
  5
13EB
330
46D
100
AcDbEntity
  8
寸法
 62
     0
440
 16777216
370
    -2
100
AcDbLine
 10
2640.169830853607
 20
2475.0
 30
0.0
 11
2640.169830853607
 21
1899.999999999999
 31
0.0
  0
SOLID
  5
13EC
330
46D
100
AcDbEntity
  8
寸法
 62
     0
440
 16777216
100
AcDbTrace
 10
2633.919830853607
 20
2475.0
 30
0.0
 11
2646.419830853607
 21
2475.0
 31
0.0
 12
2640.169830853607
 22
2512.500000000001
 32
0.0
 13
2640.169830853607
 23
2512.500000000001
 33
0.0
  0
SOLID
  5
13ED
330
46D
100
AcDbEntity
  8
寸法
 62
     0
440
 16777216
100
AcDbTrace
 10
2633.919830853607
 20
1899.999999999999
 30
0.0
 11
2646.419830853607
 21
1899.999999999999
 31
0.0
 12
2640.169830853607
 22
1862.499999999999
 32
0.0
 13
2640.169830853607
 23
1862.499999999999
 33
0.0
  0
MTEXT
  5
13EE
330
46D
100
AcDbEntity
  8
寸法
 62
     0
440
 16777216
100
AcDbMText
 10
2597.044830853606
 20
2187.5
 30
0.0
 40
37.5
 41
0.0
 46
0.0
 71
     5
 72
     1
  1
650
 11
0.0000000000000001
 21
1.0
 31
0.0
 73
     1
 44
1.0
  0
POINT
  5
13EF
330
46D
100
AcDbEntity
  8
Defpoints
 62
     0
440
 16777216
100
AcDbPoint
 10
2543.5
 20
2512.500000000001
 30
0.0
  0
POINT
  5
13F0
330
46D
100
AcDbEntity
  8
Defpoints
 62
     0
440
 16777216
100
AcDbPoint
 10
2543.5
 20
1862.5
 30
0.0
  0
POINT
  5
13F1
330
46D
100
AcDbEntity
  8
Defpoints
 62
     0
440
 16777216
100
AcDbPoint
 10
2640.169830853607
 20
1862.499999999999
 30
0.0
  0
ENDBLK
  5
46F
330
46D
100
AcDbEntity
  8
0
100
AcDbBlockEnd
  0
BLOCK
  5
486
330
485
100
AcDbEntity
  8
0
100
AcDbBlockBegin
  2
*D12
 70
     1
 10
0.0
 20
0.0
 30
0.0
  3
*D12
  1

  0
LINE
  5
1709
330
485
100
AcDbEntity
  8
寸法
 62
     0
440
 16777216
370
    -2
100
AcDbLine
 10
1962.5
 20
1511.875
 30
0.0
 11
1962.5
 21
1559.128327370962
 31
0.0
  0
LINE
  5
170A
330
485
100
AcDbEntity
  8
寸法
 62
     0
440
 16777216
370
    -2
100
AcDbLine
 10
1902.5
 20
1502.875
 30
0.0
 11
1902.5
 21
1559.128327370962
 31
0.0
  0
LINE
  5
170B
330
485
100
AcDbEntity
  8
寸法
 62
     0
440
 16777216
370
    -2
100
AcDbLine
 10
1962.5
 20
1540.378327370962
 30
0.0
 11
2000.0
 21
1540.378327370962
 31
0.0
  0
LINE
  5
170C
330
485
100
AcDbEntity
  8
寸法
 62
     0
440
 16777216
370
    -2
100
AcDbLine
 10
1865.0
 20
1540.378327370962
 30
0.0
 11
1827.5
 21
1540.378327370962
 31
0.0
  0
MTEXT
  5
170D
330
485
100
AcDbEntity
  8
寸法
 62
     0
440
 16777216
100
AcDbMText
 10
1947.56802374535
 20
1587.5
 30
0.0
 40
37.5
 41
0.0
 46
0.0
 71
     5
 72
     1
  1
60
 73
     1
 44
1.0
  0
LINE
  5
170E
330
485
100
AcDbEntity
  8
寸法
 62
     0
440
 16777216
370
    -2
100
AcDbLine
 10
1962.5
 20
1540.378327370962
 30
0.0
 11
1902.5
 21
1540.378327370962
 31
0.0
  0
INSERT
  5
170F
330
485
100
AcDbEntity
  8
寸法
 62
     0
440
 16777216
370
    -2
100
AcDbBlockReference
  2
_DotSmall
 10
1962.5
 20
1540.378327370962
 30
0.0
 41
37.5
 42
37.5
 43
37.5
 50
180.0
  0
SOLID
  5
1710
330
485
100
AcDbEntity
  8
寸法
 62
     0
440
 16777216
100
AcDbTrace
 10
1865.0
 20
1546.628327370962
 30
0.0
 11
1865.0
 21
1534.128327370962
 31
0.0
 12
1902.5
 22
1540.378327370962
 32
0.0
 13
1902.5
 23
1540.378327370962
 33
0.0
  0
POINT
  5
1711
330
485
100
AcDbEntity
  8
Defpoints
 62
     0
440
 16777216
100
AcDbPoint
 10
1962.5
 20
1487.5
 30
0.0
  0
POINT
  5
1712
330
485
100
AcDbEntity
  8
Defpoints
 62
     0
440
 16777216
100
AcDbPoint
 10
1902.5
 20
1478.5
 30
0.0
  0
POINT
  5
1713
330
485
100
AcDbEntity
  8
Defpoints
 62
     0
440
 16777216
100
AcDbPoint
 10
1902.5
 20
1540.378327370962
 30
0.0
  0
ENDBLK
  5
487
330
485
100
AcDbEntity
  8
0
100
AcDbBlockEnd
  0
BLOCK
  5
4A2
330
4A1
100
AcDbEntity
  8
0
100
AcDbBlockBegin
  2
*D13
 70
     1
 10
0.0
 20
0.0
 30
0.0
  3
*D13
  1

  0
LINE
  5
1714
330
4A1
100
AcDbEntity
  8
寸法
 62
     0
440
 16777216
370
    -2
100
AcDbLine
 10
2492.5
 20
1511.875000000005
 30
0.0
 11
2492.5
 21
1559.128327370967
 31
0.0
  0
LINE
  5
1715
330
4A1
100
AcDbEntity
  8
寸法
 62
     0
440
 16777216
370
    -2
100
AcDbLine
 10
2552.5
 20
1502.875
 30
0.0
 11
2552.5
 21
1559.128327370967
 31
0.0
  0
LINE
  5
1716
330
4A1
100
AcDbEntity
  8
寸法
 62
     0
440
 16777216
370
    -2
100
AcDbLine
 10
2492.5
 20
1540.378327370967
 30
0.0
 11
2455.0
 21
1540.378327370967
 31
0.0
  0
LINE
  5
1717
330
4A1
100
AcDbEntity
  8
寸法
 62
     0
440
 16777216
370
    -2
100
AcDbLine
 10
2590.0
 20
1540.378327370967
 30
0.0
 11
2627.499999999999
 21
1540.378327370967
 31
0.0
  0
MTEXT
  5
1718
330
4A1
100
AcDbEntity
  8
寸法
 62
     0
440
 16777216
100
AcDbMText
 10
2507.5
 20
1587.500000000004
 30
0.0
 40
37.5
 41
0.0
 46
0.0
 71
     5
 72
     1
  1
60
 73
     1
 44
1.0
  0
LINE
  5
1719
330
4A1
100
AcDbEntity
  8
寸法
 62
     0
440
 16777216
370
    -2
100
AcDbLine
 10
2492.5
 20
1540.378327370967
 30
0.0
 11
2552.5
 21
1540.378327370967
 31
0.0
  0
INSERT
  5
171A
330
4A1
100
AcDbEntity
  8
寸法
 62
     0
440
 16777216
370
    -2
100
AcDbBlockReference
  2
_DotSmall
 10
2492.5
 20
1540.378327370967
 30
0.0
 41
37.5
 42
37.5
 43
37.5
  0
SOLID
  5
171B
330
4A1
100
AcDbEntity
  8
寸法
 62
     0
440
 16777216
100
AcDbTrace
 10
2590.0
 20
1546.628327370967
 30
0.0
 11
2590.0
 21
1534.128327370967
 31
0.0
 12
2552.5
 22
1540.378327370967
 32
0.0
 13
2552.5
 23
1540.378327370967
 33
0.0
  0
POINT
  5
171C
330
4A1
100
AcDbEntity
  8
Defpoints
 62
     0
440
 16777216
100
AcDbPoint
 10
2492.5
 20
1487.500000000004
 30
0.0
  0
POINT
  5
171D
330
4A1
100
AcDbEntity
  8
Defpoints
 62
     0
440
 16777216
100
AcDbPoint
 10
2552.5
 20
1478.5
 30
0.0
  0
POINT
  5
171E
330
4A1
100
AcDbEntity
  8
Defpoints
 62
     0
440
 16777216
100
AcDbPoint
 10
2552.5
 20
1540.378327370967
 30
0.0
  0
ENDBLK
  5
4A3
330
4A1
100
AcDbEntity
  8
0
100
AcDbBlockEnd
  0
BLOCK
  5
5BA
330
5B9
100
AcDbEntity
  8
0
100
AcDbBlockBegin
  2
*D14
 70
     1
 10
0.0
 20
0.0
 30
0.0
  3
*D14
  1

  0
LINE
  5
171F
330
5B9
100
AcDbEntity
  8
寸法
 62
     0
440
 16777216
370
    -2
100
AcDbLine
 10
1962.5
 20
1511.875
 30
0.0
 11
1962.5
 21
1559.128327370962
 31
0.0
  0
LINE
  5
1720
330
5B9
100
AcDbEntity
  8
寸法
 62
     0
440
 16777216
370
    -2
100
AcDbLine
 10
2002.5
 20
1511.875
 30
0.0
 11
2002.5
 21
1559.128327370962
 31
0.0
  0
LINE
  5
1721
330
5B9
100
AcDbEntity
  8
寸法
 62
     0
440
 16777216
370
    -2
100
AcDbLine
 10
1962.5
 20
1540.378327370962
 30
0.0
 11
1925.0
 21
1540.378327370962
 31
0.0
  0
LINE
  5
1722
330
5B9
100
AcDbEntity
  8
寸法
 62
     0
440
 16777216
370
    -2
100
AcDbLine
 10
2040.0
 20
1540.378327370962
 30
0.0
 11
2077.5
 21
1540.378327370962
 31
0.0
  0
MTEXT
  5
1723
330
5B9
100
AcDbEntity
  8
寸法
 62
     0
440
 16777216
100
AcDbMText
 10
2072.081875063961
 20
1587.5
 30
0.0
 40
37.5
 41
0.0
 46
0.0
 71
     5
 72
     1
  1
40
 73
     1
 44
1.0
  0
LINE
  5
1724
330
5B9
100
AcDbEntity
  8
寸法
 62
     0
440
 16777216
370
    -2
100
AcDbLine
 10
1962.5
 20
1540.378327370962
 30
0.0
 11
2002.5
 21
1540.378327370962
 31
0.0
  0
INSERT
  5
1725
330
5B9
100
AcDbEntity
  8
寸法
 62
     0
440
 16777216
370
    -2
100
AcDbBlockReference
  2
_DotSmall
 10
1962.5
 20
1540.378327370962
 30
0.0
 41
37.5
 42
37.5
 43
37.5
  0
SOLID
  5
1726
330
5B9
100
AcDbEntity
  8
寸法
 62
     0
440
 16777216
100
AcDbTrace
 10
2040.0
 20
1546.628327370962
 30
0.0
 11
2040.0
 21
1534.128327370962
 31
0.0
 12
2002.5
 22
1540.378327370962
 32
0.0
 13
2002.5
 23
1540.378327370962
 33
0.0
  0
POINT
  5
1727
330
5B9
100
AcDbEntity
  8
Defpoints
 62
     0
440
 16777216
100
AcDbPoint
 10
1962.5
 20
1487.5
 30
0.0
  0
POINT
  5
1728
330
5B9
100
AcDbEntity
  8
Defpoints
 62
     0
440
 16777216
100
AcDbPoint
 10
2002.5
 20
1487.5
 30
0.0
  0
POINT
  5
1729
330
5B9
100
AcDbEntity
  8
Defpoints
 62
     0
440
 16777216
100
AcDbPoint
 10
2002.5
 20
1540.378327370962
 30
0.0
  0
ENDBLK
  5
5BB
330
5B9
100
AcDbEntity
  8
0
100
AcDbBlockEnd
  0
BLOCK
  5
5EC
330
5EA
100
AcDbEntity
  8
0
100
AcDbBlockBegin
  2
_DotSmall
 70
     0
 10
0.0
 20
0.0
 30
0.0
  3
_DotSmall
  1

  0
LWPOLYLINE
  5
5EB
330
5EA
100
AcDbEntity
  8
0
  6
ByBlock
 62
     0
100
AcDbPolyline
 90
        2
 70
     1
 43
0.5
 10
-0.0625
 20
0.0
 42
1.0
 10
0.0625
 20
0.0
 42
1.0
  0
ENDBLK
  5
5ED
330
5EA
100
AcDbEntity
  8
0
100
AcDbBlockEnd
  0
BLOCK
  5
606
330
605
100
AcDbEntity
  8
0
100
AcDbBlockBegin
  2
*D16
 70
     1
 10
0.0
 20
0.0
 30
0.0
  3
*D16
  1

  0
LINE
  5
172A
330
605
100
AcDbEntity
  8
寸法
 62
     0
440
 16777216
370
    -2
100
AcDbLine
 10
2492.5
 20
1511.875000000005
 30
0.0
 11
2492.5
 21
1559.128327370967
 31
0.0
  0
LINE
  5
172B
330
605
100
AcDbEntity
  8
寸法
 62
     0
440
 16777216
370
    -2
100
AcDbLine
 10
2452.500000000001
 20
1511.875000000005
 30
0.0
 11
2452.500000000001
 21
1559.128327370967
 31
0.0
  0
LINE
  5
172C
330
605
100
AcDbEntity
  8
寸法
 62
     0
440
 16777216
370
    -2
100
AcDbLine
 10
2492.5
 20
1540.378327370967
 30
0.0
 11
2530.0
 21
1540.378327370967
 31
0.0
  0
LINE
  5
172D
330
605
100
AcDbEntity
  8
寸法
 62
     0
440
 16777216
370
    -2
100
AcDbLine
 10
2415.0
 20
1540.378327370967
 30
0.0
 11
2377.5
 21
1540.378327370967
 31
0.0
  0
MTEXT
  5
172E
330
605
100
AcDbEntity
  8
寸法
 62
     0
440
 16777216
100
AcDbMText
 10
2386.559577846847
 20
1587.500000000004
 30
0.0
 40
37.5
 41
0.0
 46
0.0
 71
     5
 72
     1
  1
40
 73
     1
 44
1.0
  0
LINE
  5
172F
330
605
100
AcDbEntity
  8
寸法
 62
     0
440
 16777216
370
    -2
100
AcDbLine
 10
2492.5
 20
1540.378327370967
 30
0.0
 11
2452.500000000001
 21
1540.378327370967
 31
0.0
  0
INSERT
  5
1730
330
605
100
AcDbEntity
  8
寸法
 62
     0
440
 16777216
370
    -2
100
AcDbBlockReference
  2
_DotSmall
 10
2492.5
 20
1540.378327370967
 30
0.0
 41
37.5
 42
37.5
 43
37.5
 50
180.0
  0
SOLID
  5
1731
330
605
100
AcDbEntity
  8
寸法
 62
     0
440
 16777216
100
AcDbTrace
 10
2415.0
 20
1546.628327370967
 30
0.0
 11
2415.0
 21
1534.128327370967
 31
0.0
 12
2452.500000000001
 22
1540.378327370967
 32
0.0
 13
2452.500000000001
 23
1540.378327370967
 33
0.0
  0
POINT
  5
1732
330
605
100
AcDbEntity
  8
Defpoints
 62
     0
440
 16777216
100
AcDbPoint
 10
2492.5
 20
1487.500000000004
 30
0.0
  0
POINT
  5
1733
330
605
100
AcDbEntity
  8
Defpoints
 62
     0
440
 16777216
100
AcDbPoint
 10
2452.500000000001
 20
1487.500000000004
 30
0.0
  0
POINT
  5
1734
330
605
100
AcDbEntity
  8
Defpoints
 62
     0
440
 16777216
100
AcDbPoint
 10
2452.500000000001
 20
1540.378327370967
 30
0.0
  0
ENDBLK
  5
607
330
605
100
AcDbEntity
  8
0
100
AcDbBlockEnd
  0
BLOCK
  5
65C
330
65B
100
AcDbEntity
  8
0
100
AcDbBlockBegin
  2
*D17
 70
     1
 10
0.0
 20
0.0
 30
0.0
  3
*D17
  1

  0
LINE
  5
1735
330
65B
100
AcDbEntity
  8
寸法
 62
     0
440
 16777216
370
    -2
100
AcDbLine
 10
2576.875
 20
1434.5
 30
0.0
 11
2658.919830853606
 21
1434.5
 31
0.0
  0
LINE
  5
1736
330
65B
100
AcDbEntity
  8
寸法
 62
     0
440
 16777216
370
    -2
100
AcDbLine
 10
2597.875
 20
1487.5
 30
0.0
 11
2658.919830853606
 21
1487.5
 31
0.0
  0
LINE
  5
1737
330
65B
100
AcDbEntity
  8
寸法
 62
     0
440
 16777216
370
    -2
100
AcDbLine
 10
2640.169830853607
 20
1434.5
 30
0.0
 11
2640.169830853607
 21
1397.0
 31
0.0
  0
LINE
  5
1738
330
65B
100
AcDbEntity
  8
寸法
 62
     0
440
 16777216
370
    -2
100
AcDbLine
 10
2640.169830853607
 20
1525.0
 30
0.0
 11
2640.169830853607
 21
1562.5
 31
0.0
  0
MTEXT
  5
1739
330
65B
100
AcDbEntity
  8
寸法
 62
     0
440
 16777216
100
AcDbMText
 10
2676.723598709311
 20
1538.853778365397
 30
0.0
 40
37.5
 41
0.0
 46
0.0
 71
     5
 72
     1
  1
53
 11
0.0000000000000001
 21
1.0
 31
0.0
 73
     1
 44
1.0
  0
LINE
  5
173A
330
65B
100
AcDbEntity
  8
寸法
 62
     0
440
 16777216
370
    -2
100
AcDbLine
 10
2640.169830853607
 20
1434.5
 30
0.0
 11
2640.169830853607
 21
1487.5
 31
0.0
  0
INSERT
  5
173B
330
65B
100
AcDbEntity
  8
寸法
 62
     0
440
 16777216
370
    -2
100
AcDbBlockReference
  2
_DotSmall
 10
2640.169830853607
 20
1434.5
 30
0.0
 41
37.5
 42
37.5
 43
37.5
 50
90.0
  0
SOLID
  5
173C
330
65B
100
AcDbEntity
  8
寸法
 62
     0
440
 16777216
100
AcDbTrace
 10
2633.919830853606
 20
1525.0
 30
0.0
 11
2646.419830853606
 21
1525.0
 31
0.0
 12
2640.169830853607
 22
1487.5
 32
0.0
 13
2640.169830853607
 23
1487.5
 33
0.0
  0
POINT
  5
173D
330
65B
100
AcDbEntity
  8
Defpoints
 62
     0
440
 16777216
100
AcDbPoint
 10
2552.5
 20
1434.5
 30
0.0
  0
POINT
  5
173E
330
65B
100
AcDbEntity
  8
Defpoints
 62
     0
440
 16777216
100
AcDbPoint
 10
2573.5
 20
1487.5
 30
0.0
  0
POINT
  5
173F
330
65B
100
AcDbEntity
  8
Defpoints
 62
     0
440
 16777216
100
AcDbPoint
 10
2640.169830853607
 20
1487.5
 30
0.0
  0
ENDBLK
  5
65D
330
65B
100
AcDbEntity
  8
0
100
AcDbBlockEnd
  0
BLOCK
  5
678
330
677
100
AcDbEntity
  8
0
100
AcDbBlockBegin
  2
*D18
 70
     1
 10
0.0
 20
0.0
 30
0.0
  3
*D18
  1

  0
LINE
  5
1740
330
677
100
AcDbEntity
  8
寸法
 62
     0
440
 16777216
370
    -2
100
AcDbLine
 10
2576.875
 20
1434.5
 30
0.0
 11
2658.919830853606
 21
1434.5
 31
0.0
  0
LINE
  5
1741
330
677
100
AcDbEntity
  8
寸法
 62
     0
440
 16777216
370
    -2
100
AcDbLine
 10
2606.875
 20
1387.5
 30
0.0
 11
2658.919830853606
 21
1387.5
 31
0.0
  0
LINE
  5
1742
330
677
100
AcDbEntity
  8
寸法
 62
     0
440
 16777216
370
    -2
100
AcDbLine
 10
2640.169830853607
 20
1434.5
 30
0.0
 11
2640.169830853607
 21
1472.0
 31
0.0
  0
LINE
  5
1743
330
677
100
AcDbEntity
  8
寸法
 62
     0
440
 16777216
370
    -2
100
AcDbLine
 10
2640.169830853607
 20
1350.0
 30
0.0
 11
2640.169830853607
 21
1312.5
 31
0.0
  0
MTEXT
  5
1744
330
677
100
AcDbEntity
  8
寸法
 62
     0
440
 16777216
100
AcDbMText
 10
2677.943612713035
 20
1337.5
 30
0.0
 40
37.5
 41
0.0
 46
0.0
 71
     5
 72
     1
  1
47
 11
0.0000000000000001
 21
1.0
 31
0.0
 73
     1
 44
1.0
  0
LINE
  5
1745
330
677
100
AcDbEntity
  8
寸法
 62
     0
440
 16777216
370
    -2
100
AcDbLine
 10
2640.169830853607
 20
1434.5
 30
0.0
 11
2640.169830853607
 21
1387.5
 31
0.0
  0
INSERT
  5
1746
330
677
100
AcDbEntity
  8
寸法
 62
     0
440
 16777216
370
    -2
100
AcDbBlockReference
  2
_DotSmall
 10
2640.169830853607
 20
1434.5
 30
0.0
 41
37.5
 42
37.5
 43
37.5
 50
270.0
  0
SOLID
  5
1747
330
677
100
AcDbEntity
  8
寸法
 62
     0
440
 16777216
100
AcDbTrace
 10
2633.919830853606
 20
1350.0
 30
0.0
 11
2646.419830853606
 21
1350.0
 31
0.0
 12
2640.169830853607
 22
1387.5
 32
0.0
 13
2640.169830853607
 23
1387.5
 33
0.0
  0
POINT
  5
1748
330
677
100
AcDbEntity
  8
Defpoints
 62
     0
440
 16777216
100
AcDbPoint
 10
2552.5
 20
1434.5
 30
0.0
  0
POINT
  5
1749
330
677
100
AcDbEntity
  8
Defpoints
 62
     0
440
 16777216
100
AcDbPoint
 10
2582.5
 20
1387.5
 30
0.0
  0
POINT
  5
174A
330
677
100
AcDbEntity
  8
Defpoints
 62
     0
440
 16777216
100
AcDbPoint
 10
2640.169830853607
 20
1387.5
 30
0.0
  0
ENDBLK
  5
679
330
677
100
AcDbEntity
  8
0
100
AcDbBlockEnd
  0
BLOCK
  5
6EC
330
6EB
100
AcDbEntity
  8
0
100
AcDbBlockBegin
  2
*D19
 70
     1
 10
0.0
 20
0.0
 30
0.0
  3
*D19
  1

  0
LINE
  5
174B
330
6EB
100
AcDbEntity
  8
寸法
 62
     0
440
 16777216
370
    -2
100
AcDbLine
 10
2567.875
 20
1487.5
 30
0.0
 11
2739.11007349302
 21
1487.5
 31
0.0
  0
LINE
  5
174C
330
6EB
100
AcDbEntity
  8
寸法
 62
     0
440
 16777216
370
    -2
100
AcDbLine
 10
2576.875
 20
1387.5
 30
0.0
 11
2739.11007349302
 21
1387.5
 31
0.0
  0
LINE
  5
174D
330
6EB
100
AcDbEntity
  8
寸法
 62
     0
440
 16777216
370
    -2
100
AcDbLine
 10
2720.36007349302
 20
1525.0
 30
0.0
 11
2720.36007349302
 21
1562.5
 31
0.0
  0
LINE
  5
174E
330
6EB
100
AcDbEntity
  8
寸法
 62
     0
440
 16777216
370
    -2
100
AcDbLine
 10
2720.36007349302
 20
1350.0
 30
0.0
 11
2720.36007349302
 21
1312.5
 31
0.0
  0
MTEXT
  5
174F
330
6EB
100
AcDbEntity
  8
寸法
 62
     0
440
 16777216
100
AcDbMText
 10
2754.54521123983
 20
1437.5
 30
0.0
 40
37.5
 41
0.0
 46
0.0
 71
     5
 72
     1
  1
100
 11
0.0000000000000001
 21
1.0
 31
0.0
 73
     1
 44
1.0
  0
LINE
  5
1750
330
6EB
100
AcDbEntity
  8
寸法
 62
     0
440
 16777216
370
    -2
100
AcDbLine
 10
2720.36007349302
 20
1487.5
 30
0.0
 11
2720.36007349302
 21
1387.5
 31
0.0
  0
SOLID
  5
1751
330
6EB
100
AcDbEntity
  8
寸法
 62
     0
440
 16777216
100
AcDbTrace
 10
2714.11007349302
 20
1525.0
 30
0.0
 11
2726.61007349302
 21
1525.0
 31
0.0
 12
2720.36007349302
 22
1487.5
 32
0.0
 13
2720.36007349302
 23
1487.5
 33
0.0
  0
SOLID
  5
1752
330
6EB
100
AcDbEntity
  8
寸法
 62
     0
440
 16777216
100
AcDbTrace
 10
2714.11007349302
 20
1350.0
 30
0.0
 11
2726.61007349302
 21
1350.0
 31
0.0
 12
2720.36007349302
 22
1387.5
 32
0.0
 13
2720.36007349302
 23
1387.5
 33
0.0
  0
POINT
  5
1753
330
6EB
100
AcDbEntity
  8
Defpoints
 62
     0
440
 16777216
100
AcDbPoint
 10
2543.5
 20
1487.5
 30
0.0
  0
POINT
  5
1754
330
6EB
100
AcDbEntity
  8
Defpoints
 62
     0
440
 16777216
100
AcDbPoint
 10
2552.5
 20
1387.5
 30
0.0
  0
POINT
  5
1755
330
6EB
100
AcDbEntity
  8
Defpoints
 62
     0
440
 16777216
100
AcDbPoint
 10
2720.36007349302
 20
1387.5
 30
0.0
  0
ENDBLK
  5
6ED
330
6EB
100
AcDbEntity
  8
0
100
AcDbBlockEnd
  0
BLOCK
  5
711
330
710
100
AcDbEntity
  8
0
100
AcDbBlockBegin
  2
*D20
 70
     1
 10
0.0
 20
0.0
 30
0.0
  3
*D20
  1

  0
LINE
  5
18CD
330
710
100
AcDbEntity
  8
寸法
 62
     0
440
 16777216
370
    -2
100
AcDbLine
 10
3241.25
 20
2496.875
 30
0.0
 11
3241.25
 21
2624.61780832195
 31
0.0
  0
LINE
  5
18CE
330
710
100
AcDbEntity
  8
寸法
 62
     0
440
 16777216
370
    -2
100
AcDbLine
 10
3181.25
 20
2477.875
 30
0.0
 11
3181.25
 21
2624.61780832195
 31
0.0
  0
LINE
  5
18CF
330
710
100
AcDbEntity
  8
寸法
 62
     0
440
 16777216
370
    -2
100
AcDbLine
 10
3278.75
 20
2605.86780832195
 30
0.0
 11
3316.25
 21
2605.86780832195
 31
0.0
  0
LINE
  5
18D0
330
710
100
AcDbEntity
  8
寸法
 62
     0
440
 16777216
370
    -2
100
AcDbLine
 10
3143.75
 20
2605.86780832195
 30
0.0
 11
3106.25
 21
2605.86780832195
 31
0.0
  0
MTEXT
  5
18D1
330
710
100
AcDbEntity
  8
寸法
 62
     0
440
 16777216
100
AcDbMText
 10
3119.81687598993
 20
2638.090479539291
 30
0.0
 40
37.5
 41
0.0
 46
0.0
 71
     5
 72
     1
  1
60
 73
     1
 44
1.0
  0
LINE
  5
18D2
330
710
100
AcDbEntity
  8
寸法
 62
     0
440
 16777216
370
    -2
100
AcDbLine
 10
3241.25
 20
2605.86780832195
 30
0.0
 11
3181.25
 21
2605.86780832195
 31
0.0
  0
SOLID
  5
18D3
330
710
100
AcDbEntity
  8
寸法
 62
     0
440
 16777216
100
AcDbTrace
 10
3278.75
 20
2612.117808321949
 30
0.0
 11
3278.75
 21
2599.61780832195
 31
0.0
 12
3241.25
 22
2605.86780832195
 32
0.0
 13
3241.25
 23
2605.86780832195
 33
0.0
  0
SOLID
  5
18D4
330
710
100
AcDbEntity
  8
寸法
 62
     0
440
 16777216
100
AcDbTrace
 10
3143.75
 20
2612.117808321949
 30
0.0
 11
3143.75
 21
2599.61780832195
 31
0.0
 12
3181.25
 22
2605.86780832195
 32
0.0
 13
3181.25
 23
2605.86780832195
 33
0.0
  0
POINT
  5
18D5
330
710
100
AcDbEntity
  8
Defpoints
 62
     0
440
 16777216
100
AcDbPoint
 10
3241.25
 20
2472.5
 30
0.0
  0
POINT
  5
18D6
330
710
100
AcDbEntity
  8
Defpoints
 62
     0
440
 16777216
100
AcDbPoint
 10
3181.25
 20
2453.5
 30
0.0
  0
POINT
  5
18D7
330
710
100
AcDbEntity
  8
Defpoints
 62
     0
440
 16777216
100
AcDbPoint
 10
3181.25
 20
2605.86780832195
 30
0.0
  0
ENDBLK
  5
712
330
710
100
AcDbEntity
  8
0
100
AcDbBlockEnd
  0
BLOCK
  5
72D
330
72C
100
AcDbEntity
  8
0
100
AcDbBlockBegin
  2
*D21
 70
     1
 10
0.0
 20
0.0
 30
0.0
  3
*D21
  1

  0
LINE
  5
18D8
330
72C
100
AcDbEntity
  8
寸法
 62
     0
440
 16777216
370
    -2
100
AcDbLine
 10
3691.25
 20
2496.875
 30
0.0
 11
3691.25
 21
2624.61780832195
 31
0.0
  0
LINE
  5
18D9
330
72C
100
AcDbEntity
  8
寸法
 62
     0
440
 16777216
370
    -2
100
AcDbLine
 10
3751.250000000001
 20
2477.875
 30
0.0
 11
3751.250000000001
 21
2624.61780832195
 31
0.0
  0
LINE
  5
18DA
330
72C
100
AcDbEntity
  8
寸法
 62
     0
440
 16777216
370
    -2
100
AcDbLine
 10
3653.75
 20
2605.86780832195
 30
0.0
 11
3616.25
 21
2605.86780832195
 31
0.0
  0
LINE
  5
18DB
330
72C
100
AcDbEntity
  8
寸法
 62
     0
440
 16777216
370
    -2
100
AcDbLine
 10
3788.75
 20
2605.86780832195
 30
0.0
 11
3826.25
 21
2605.86780832195
 31
0.0
  0
MTEXT
  5
18DC
330
72C
100
AcDbEntity
  8
寸法
 62
     0
440
 16777216
100
AcDbMText
 10
3813.875930610097
 20
2634.785587113234
 30
0.0
 40
37.5
 41
0.0
 46
0.0
 71
     5
 72
     1
  1
60
 73
     1
 44
1.0
  0
LINE
  5
18DD
330
72C
100
AcDbEntity
  8
寸法
 62
     0
440
 16777216
370
    -2
100
AcDbLine
 10
3691.25
 20
2605.86780832195
 30
0.0
 11
3751.250000000001
 21
2605.86780832195
 31
0.0
  0
SOLID
  5
18DE
330
72C
100
AcDbEntity
  8
寸法
 62
     0
440
 16777216
100
AcDbTrace
 10
3653.75
 20
2612.117808321949
 30
0.0
 11
3653.75
 21
2599.61780832195
 31
0.0
 12
3691.25
 22
2605.86780832195
 32
0.0
 13
3691.25
 23
2605.86780832195
 33
0.0
  0
SOLID
  5
18DF
330
72C
100
AcDbEntity
  8
寸法
 62
     0
440
 16777216
100
AcDbTrace
 10
3788.75
 20
2612.117808321949
 30
0.0
 11
3788.75
 21
2599.61780832195
 31
0.0
 12
3751.250000000001
 22
2605.86780832195
 32
0.0
 13
3751.250000000001
 23
2605.86780832195
 33
0.0
  0
POINT
  5
18E0
330
72C
100
AcDbEntity
  8
Defpoints
 62
     0
440
 16777216
100
AcDbPoint
 10
3691.25
 20
2472.5
 30
0.0
  0
POINT
  5
18E1
330
72C
100
AcDbEntity
  8
Defpoints
 62
     0
440
 16777216
100
AcDbPoint
 10
3751.250000000001
 20
2453.5
 30
0.0
  0
POINT
  5
18E2
330
72C
100
AcDbEntity
  8
Defpoints
 62
     0
440
 16777216
100
AcDbPoint
 10
3751.250000000001
 20
2605.86780832195
 30
0.0
  0
ENDBLK
  5
72E
330
72C
100
AcDbEntity
  8
0
100
AcDbBlockEnd
  0
BLOCK
  5
749
330
748
100
AcDbEntity
  8
0
100
AcDbBlockBegin
  2
*D22
 70
     1
 10
0.0
 20
0.0
 30
0.0
  3
*D22
  1

  0
LINE
  5
18E3
330
748
100
AcDbEntity
  8
寸法
 62
     0
440
 16777216
370
    -2
100
AcDbLine
 10
3241.25
 20
2496.875
 30
0.0
 11
3241.25
 21
2624.61780832195
 31
0.0
  0
LINE
  5
18E4
330
748
100
AcDbEntity
  8
寸法
 62
     0
440
 16777216
370
    -2
100
AcDbLine
 10
3691.25
 20
2496.875
 30
0.0
 11
3691.25
 21
2624.61780832195
 31
0.0
  0
LINE
  5
18E5
330
748
100
AcDbEntity
  8
寸法
 62
     0
440
 16777216
370
    -2
100
AcDbLine
 10
3278.75
 20
2605.86780832195
 30
0.0
 11
3653.75
 21
2605.86780832195
 31
0.0
  0
SOLID
  5
18E6
330
748
100
AcDbEntity
  8
寸法
 62
     0
440
 16777216
100
AcDbTrace
 10
3278.75
 20
2612.117808321949
 30
0.0
 11
3278.75
 21
2599.61780832195
 31
0.0
 12
3241.25
 22
2605.86780832195
 32
0.0
 13
3241.25
 23
2605.86780832195
 33
0.0
  0
SOLID
  5
18E7
330
748
100
AcDbEntity
  8
寸法
 62
     0
440
 16777216
100
AcDbTrace
 10
3653.75
 20
2612.117808321949
 30
0.0
 11
3653.75
 21
2599.61780832195
 31
0.0
 12
3691.25
 22
2605.86780832195
 32
0.0
 13
3691.25
 23
2605.86780832195
 33
0.0
  0
MTEXT
  5
18E8
330
748
100
AcDbEntity
  8
寸法
 62
     0
440
 16777216
100
AcDbMText
 10
3466.25
 20
2648.99280832195
 30
0.0
 40
37.5
 41
0.0
 46
0.0
 71
     5
 72
     1
  1
450
 73
     1
 44
1.0
  0
POINT
  5
18E9
330
748
100
AcDbEntity
  8
Defpoints
 62
     0
440
 16777216
100
AcDbPoint
 10
3241.25
 20
2472.5
 30
0.0
  0
POINT
  5
18EA
330
748
100
AcDbEntity
  8
Defpoints
 62
     0
440
 16777216
100
AcDbPoint
 10
3691.25
 20
2472.5
 30
0.0
  0
POINT
  5
18EB
330
748
100
AcDbEntity
  8
Defpoints
 62
     0
440
 16777216
100
AcDbPoint
 10
3691.25
 20
2605.86780832195
 30
0.0
  0
ENDBLK
  5
74A
330
748
100
AcDbEntity
  8
0
100
AcDbBlockEnd
  0
BLOCK
  5
78F
330
78E
100
AcDbEntity
  8
0
100
AcDbBlockBegin
  2
*D23
 70
     1
 10
0.0
 20
0.0
 30
0.0
  3
*D23
  1

  0
LINE
  5
18EC
330
78E
100
AcDbEntity
  8
寸法
 62
     0
440
 16777216
370
    -2
100
AcDbLine
 10
3775.625
 20
2412.5
 30
0.0
 11
3873.300158566473
 21
2412.5
 31
0.0
  0
LINE
  5
18ED
330
78E
100
AcDbEntity
  8
寸法
 62
     0
440
 16777216
370
    -2
100
AcDbLine
 10
3756.625
 20
2472.5
 30
0.0
 11
3873.300158566473
 21
2472.5
 31
0.0
  0
LINE
  5
18EE
330
78E
100
AcDbEntity
  8
寸法
 62
     0
440
 16777216
370
    -2
100
AcDbLine
 10
3854.550158566473
 20
2375.0
 30
0.0
 11
3854.550158566473
 21
2337.5
 31
0.0
  0
LINE
  5
18EF
330
78E
100
AcDbEntity
  8
寸法
 62
     0
440
 16777216
370
    -2
100
AcDbLine
 10
3854.550158566473
 20
2510.0
 30
0.0
 11
3854.550158566473
 21
2547.5
 31
0.0
  0
MTEXT
  5
18F0
330
78E
100
AcDbEntity
  8
寸法
 62
     0
440
 16777216
100
AcDbMText
 10
3823.420502454928
 20
2541.516757952984
 30
0.0
 40
37.5
 41
0.0
 46
0.0
 71
     5
 72
     1
  1
60
 11
0.0000000000000001
 21
1.0
 31
0.0
 73
     1
 44
1.0
  0
LINE
  5
18F1
330
78E
100
AcDbEntity
  8
寸法
 62
     0
440
 16777216
370
    -2
100
AcDbLine
 10
3854.550158566473
 20
2412.5
 30
0.0
 11
3854.550158566473
 21
2472.5
 31
0.0
  0
SOLID
  5
18F2
330
78E
100
AcDbEntity
  8
寸法
 62
     0
440
 16777216
100
AcDbTrace
 10
3848.300158566473
 20
2375.0
 30
0.0
 11
3860.800158566473
 21
2375.0
 31
0.0
 12
3854.550158566473
 22
2412.5
 32
0.0
 13
3854.550158566473
 23
2412.5
 33
0.0
  0
SOLID
  5
18F3
330
78E
100
AcDbEntity
  8
寸法
 62
     0
440
 16777216
100
AcDbTrace
 10
3848.300158566473
 20
2510.0
 30
0.0
 11
3860.800158566473
 21
2510.0
 31
0.0
 12
3854.550158566473
 22
2472.5
 32
0.0
 13
3854.550158566473
 23
2472.5
 33
0.0
  0
POINT
  5
18F4
330
78E
100
AcDbEntity
  8
Defpoints
 62
     0
440
 16777216
100
AcDbPoint
 10
3751.250000000001
 20
2412.5
 30
0.0
  0
POINT
  5
18F5
330
78E
100
AcDbEntity
  8
Defpoints
 62
     0
440
 16777216
100
AcDbPoint
 10
3732.25
 20
2472.5
 30
0.0
  0
POINT
  5
18F6
330
78E
100
AcDbEntity
  8
Defpoints
 62
     0
440
 16777216
100
AcDbPoint
 10
3854.550158566473
 20
2472.5
 30
0.0
  0
ENDBLK
  5
790
330
78E
100
AcDbEntity
  8
0
100
AcDbBlockEnd
  0
BLOCK
  5
7AB
330
7AA
100
AcDbEntity
  8
0
100
AcDbBlockBegin
  2
*D24
 70
     1
 10
0.0
 20
0.0
 30
0.0
  3
*D24
  1

  0
LINE
  5
18F7
330
7AA
100
AcDbEntity
  8
寸法
 62
     0
440
 16777216
370
    -2
100
AcDbLine
 10
3775.625
 20
1962.5
 30
0.0
 11
3873.300158566474
 21
1962.5
 31
0.0
  0
LINE
  5
18F8
330
7AA
100
AcDbEntity
  8
寸法
 62
     0
440
 16777216
370
    -2
100
AcDbLine
 10
3756.625
 20
1902.5
 30
0.0
 11
3873.300158566474
 21
1902.5
 31
0.0
  0
LINE
  5
18F9
330
7AA
100
AcDbEntity
  8
寸法
 62
     0
440
 16777216
370
    -2
100
AcDbLine
 10
3854.550158566474
 20
2000.0
 30
0.0
 11
3854.550158566474
 21
2037.5
 31
0.0
  0
LINE
  5
18FA
330
7AA
100
AcDbEntity
  8
寸法
 62
     0
440
 16777216
370
    -2
100
AcDbLine
 10
3854.550158566474
 20
1865.0
 30
0.0
 11
3854.550158566474
 21
1827.5
 31
0.0
  0
MTEXT
  5
18FB
330
7AA
100
AcDbEntity
  8
寸法
 62
     0
440
 16777216
100
AcDbMText
 10
3820.307528360771
 20
1837.920961906403
 30
0.0
 40
37.5
 41
0.0
 46
0.0
 71
     5
 72
     1
  1
60
 11
0.0000000000000001
 21
1.0
 31
0.0
 73
     1
 44
1.0
  0
LINE
  5
18FC
330
7AA
100
AcDbEntity
  8
寸法
 62
     0
440
 16777216
370
    -2
100
AcDbLine
 10
3854.550158566474
 20
1962.5
 30
0.0
 11
3854.550158566474
 21
1902.5
 31
0.0
  0
SOLID
  5
18FD
330
7AA
100
AcDbEntity
  8
寸法
 62
     0
440
 16777216
100
AcDbTrace
 10
3848.300158566474
 20
2000.0
 30
0.0
 11
3860.800158566474
 21
2000.0
 31
0.0
 12
3854.550158566474
 22
1962.5
 32
0.0
 13
3854.550158566474
 23
1962.5
 33
0.0
  0
SOLID
  5
18FE
330
7AA
100
AcDbEntity
  8
寸法
 62
     0
440
 16777216
100
AcDbTrace
 10
3848.300158566474
 20
1865.0
 30
0.0
 11
3860.800158566474
 21
1865.0
 31
0.0
 12
3854.550158566474
 22
1902.5
 32
0.0
 13
3854.550158566474
 23
1902.5
 33
0.0
  0
POINT
  5
18FF
330
7AA
100
AcDbEntity
  8
Defpoints
 62
     0
440
 16777216
100
AcDbPoint
 10
3751.25
 20
1962.5
 30
0.0
  0
POINT
  5
1900
330
7AA
100
AcDbEntity
  8
Defpoints
 62
     0
440
 16777216
100
AcDbPoint
 10
3732.25
 20
1902.5
 30
0.0
  0
POINT
  5
1901
330
7AA
100
AcDbEntity
  8
Defpoints
 62
     0
440
 16777216
100
AcDbPoint
 10
3854.550158566474
 20
1902.5
 30
0.0
  0
ENDBLK
  5
7AC
330
7AA
100
AcDbEntity
  8
0
100
AcDbBlockEnd
  0
BLOCK
  5
800
330
7FF
100
AcDbEntity
  8
0
100
AcDbBlockBegin
  2
*D25
 70
     1
 10
0.0
 20
0.0
 30
0.0
  3
*D25
  1

  0
LINE
  5
1902
330
7FF
100
AcDbEntity
  8
寸法
 62
     0
440
 16777216
370
    -2
100
AcDbLine
 10
3775.625
 20
2412.5
 30
0.0
 11
3873.300158566473
 21
2412.5
 31
0.0
  0
LINE
  5
1903
330
7FF
100
AcDbEntity
  8
寸法
 62
     0
440
 16777216
370
    -2
100
AcDbLine
 10
3775.625000000001
 20
1962.5
 30
0.0
 11
3873.300158566473
 21
1962.5
 31
0.0
  0
LINE
  5
1904
330
7FF
100
AcDbEntity
  8
寸法
 62
     0
440
 16777216
370
    -2
100
AcDbLine
 10
3854.550158566473
 20
2375.0
 30
0.0
 11
3854.550158566473
 21
2000.0
 31
0.0
  0
SOLID
  5
1905
330
7FF
100
AcDbEntity
  8
寸法
 62
     0
440
 16777216
100
AcDbTrace
 10
3848.300158566473
 20
2375.0
 30
0.0
 11
3860.800158566473
 21
2375.0
 31
0.0
 12
3854.550158566473
 22
2412.5
 32
0.0
 13
3854.550158566473
 23
2412.5
 33
0.0
  0
SOLID
  5
1906
330
7FF
100
AcDbEntity
  8
寸法
 62
     0
440
 16777216
100
AcDbTrace
 10
3848.300158566473
 20
2000.0
 30
0.0
 11
3860.800158566473
 21
2000.0
 31
0.0
 12
3854.550158566473
 22
1962.5
 32
0.0
 13
3854.550158566473
 23
1962.5
 33
0.0
  0
MTEXT
  5
1907
330
7FF
100
AcDbEntity
  8
寸法
 62
     0
440
 16777216
100
AcDbMText
 10
3811.425158566473
 20
2187.5
 30
0.0
 40
37.5
 41
0.0
 46
0.0
 71
     5
 72
     1
  1
450
 11
0.0000000000000001
 21
1.0
 31
0.0
 73
     1
 44
1.0
  0
POINT
  5
1908
330
7FF
100
AcDbEntity
  8
Defpoints
 62
     0
440
 16777216
100
AcDbPoint
 10
3751.250000000001
 20
2412.5
 30
0.0
  0
POINT
  5
1909
330
7FF
100
AcDbEntity
  8
Defpoints
 62
     0
440
 16777216
100
AcDbPoint
 10
3751.250000000001
 20
1962.5
 30
0.0
  0
POINT
  5
190A
330
7FF
100
AcDbEntity
  8
Defpoints
 62
     0
440
 16777216
100
AcDbPoint
 10
3854.550158566473
 20
1962.5
 30
0.0
  0
ENDBLK
  5
801
330
7FF
100
AcDbEntity
  8
0
100
AcDbBlockEnd
  0
BLOCK
  5
83C
330
83B
100
AcDbEntity
  8
0
100
AcDbBlockBegin
  2
*D26
 70
     1
 10
0.0
 20
0.0
 30
0.0
  3
*D26
  1

  0
LINE
  5
190B
330
83B
100
AcDbEntity
  8
寸法
 62
     0
440
 16777216
370
    -2
100
AcDbLine
 10
3181.25
 20
2477.875
 30
0.0
 11
3181.25
 21
2708.892479652936
 31
0.0
  0
LINE
  5
190C
330
83B
100
AcDbEntity
  8
寸法
 62
     0
440
 16777216
370
    -2
100
AcDbLine
 10
3751.250000000001
 20
2477.875
 30
0.0
 11
3751.250000000001
 21
2708.892479652936
 31
0.0
  0
LINE
  5
190D
330
83B
100
AcDbEntity
  8
寸法
 62
     0
440
 16777216
370
    -2
100
AcDbLine
 10
3218.75
 20
2690.142479652936
 30
0.0
 11
3713.75
 21
2690.142479652936
 31
0.0
  0
SOLID
  5
190E
330
83B
100
AcDbEntity
  8
寸法
 62
     0
440
 16777216
100
AcDbTrace
 10
3218.75
 20
2696.392479652935
 30
0.0
 11
3218.75
 21
2683.892479652936
 31
0.0
 12
3181.25
 22
2690.142479652936
 32
0.0
 13
3181.25
 23
2690.142479652936
 33
0.0
  0
SOLID
  5
190F
330
83B
100
AcDbEntity
  8
寸法
 62
     0
440
 16777216
100
AcDbTrace
 10
3713.75
 20
2696.392479652935
 30
0.0
 11
3713.75
 21
2683.892479652936
 31
0.0
 12
3751.250000000001
 22
2690.142479652936
 32
0.0
 13
3751.250000000001
 23
2690.142479652936
 33
0.0
  0
MTEXT
  5
1910
330
83B
100
AcDbEntity
  8
寸法
 62
     0
440
 16777216
100
AcDbMText
 10
3466.25
 20
2733.267479652936
 30
0.0
 40
37.5
 41
0.0
 46
0.0
 71
     5
 72
     1
  1
570
 73
     1
 44
1.0
  0
POINT
  5
1911
330
83B
100
AcDbEntity
  8
Defpoints
 62
     0
440
 16777216
100
AcDbPoint
 10
3181.25
 20
2453.5
 30
0.0
  0
POINT
  5
1912
330
83B
100
AcDbEntity
  8
Defpoints
 62
     0
440
 16777216
100
AcDbPoint
 10
3751.250000000001
 20
2453.5
 30
0.0
  0
POINT
  5
1913
330
83B
100
AcDbEntity
  8
Defpoints
 62
     0
440
 16777216
100
AcDbPoint
 10
3751.250000000001
 20
2690.142479652936
 30
0.0
  0
ENDBLK
  5
83D
330
83B
100
AcDbEntity
  8
0
100
AcDbBlockEnd
  0
BLOCK
  5
849
330
848
100
AcDbEntity
  8
0
100
AcDbBlockBegin
  2
*D27
 70
     1
 10
0.0
 20
0.0
 30
0.0
  3
*D27
  1

  0
LINE
  5
1914
330
848
100
AcDbEntity
  8
寸法
 62
     0
440
 16777216
370
    -2
100
AcDbLine
 10
3756.625
 20
2472.5
 30
0.0
 11
3967.726784932494
 21
2472.5
 31
0.0
  0
LINE
  5
1915
330
848
100
AcDbEntity
  8
寸法
 62
     0
440
 16777216
370
    -2
100
AcDbLine
 10
3756.625
 20
1902.5
 30
0.0
 11
3967.726784932494
 21
1902.5
 31
0.0
  0
LINE
  5
1916
330
848
100
AcDbEntity
  8
寸法
 62
     0
440
 16777216
370
    -2
100
AcDbLine
 10
3948.976784932494
 20
2435.0
 30
0.0
 11
3948.976784932494
 21
1940.0
 31
0.0
  0
SOLID
  5
1917
330
848
100
AcDbEntity
  8
寸法
 62
     0
440
 16777216
100
AcDbTrace
 10
3942.726784932494
 20
2435.0
 30
0.0
 11
3955.226784932494
 21
2435.0
 31
0.0
 12
3948.976784932494
 22
2472.5
 32
0.0
 13
3948.976784932494
 23
2472.5
 33
0.0
  0
SOLID
  5
1918
330
848
100
AcDbEntity
  8
寸法
 62
     0
440
 16777216
100
AcDbTrace
 10
3942.726784932494
 20
1940.0
 30
0.0
 11
3955.226784932494
 21
1940.0
 31
0.0
 12
3948.976784932494
 22
1902.5
 32
0.0
 13
3948.976784932494
 23
1902.5
 33
0.0
  0
MTEXT
  5
1919
330
848
100
AcDbEntity
  8
寸法
 62
     0
440
 16777216
100
AcDbMText
 10
3905.851784932494
 20
2187.5
 30
0.0
 40
37.5
 41
0.0
 46
0.0
 71
     5
 72
     1
  1
570
 11
0.0000000000000001
 21
1.0
 31
0.0
 73
     1
 44
1.0
  0
POINT
  5
191A
330
848
100
AcDbEntity
  8
Defpoints
 62
     0
440
 16777216
100
AcDbPoint
 10
3732.25
 20
2472.5
 30
0.0
  0
POINT
  5
191B
330
848
100
AcDbEntity
  8
Defpoints
 62
     0
440
 16777216
100
AcDbPoint
 10
3732.25
 20
1902.5
 30
0.0
  0
POINT
  5
191C
330
848
100
AcDbEntity
  8
Defpoints
 62
     0
440
 16777216
100
AcDbPoint
 10
3948.976784932494
 20
1902.5
 30
0.0
  0
ENDBLK
  5
84A
330
848
100
AcDbEntity
  8
0
100
AcDbBlockEnd
  0
BLOCK
  5
95A
330
959
100
AcDbEntity
  8
0
100
AcDbBlockBegin
  2
*D28
 70
     1
 10
0.0
 20
0.0
 30
0.0
  3
*D28
  1

  0
LINE
  5
191D
330
959
100
AcDbEntity
  8
寸法
 62
     0
440
 16777216
370
    -2
100
AcDbLine
 10
3775.625
 20
1587.5
 30
0.0
 11
3873.300158566473
 21
1587.5
 31
0.0
  0
LINE
  5
191E
330
959
100
AcDbEntity
  8
寸法
 62
     0
440
 16777216
370
    -2
100
AcDbLine
 10
3775.625
 20
1287.5
 30
0.0
 11
3873.300158566473
 21
1287.5
 31
0.0
  0
LINE
  5
191F
330
959
100
AcDbEntity
  8
寸法
 62
     0
440
 16777216
370
    -2
100
AcDbLine
 10
3854.550158566473
 20
1550.0
 30
0.0
 11
3854.550158566473
 21
1325.0
 31
0.0
  0
SOLID
  5
1920
330
959
100
AcDbEntity
  8
寸法
 62
     0
440
 16777216
100
AcDbTrace
 10
3848.300158566473
 20
1550.0
 30
0.0
 11
3860.800158566473
 21
1550.0
 31
0.0
 12
3854.550158566473
 22
1587.5
 32
0.0
 13
3854.550158566473
 23
1587.5
 33
0.0
  0
SOLID
  5
1921
330
959
100
AcDbEntity
  8
寸法
 62
     0
440
 16777216
100
AcDbTrace
 10
3848.300158566473
 20
1325.0
 30
0.0
 11
3860.800158566473
 21
1325.0
 31
0.0
 12
3854.550158566473
 22
1287.5
 32
0.0
 13
3854.550158566473
 23
1287.5
 33
0.0
  0
MTEXT
  5
1922
330
959
100
AcDbEntity
  8
寸法
 62
     0
440
 16777216
100
AcDbMText
 10
3811.425158566473
 20
1437.500000000001
 30
0.0
 40
37.5
 41
0.0
 46
0.0
 71
     5
 72
     1
  1
300
 11
0.0000000000000001
 21
1.0
 31
0.0
 73
     1
 44
1.0
  0
POINT
  5
1923
330
959
100
AcDbEntity
  8
Defpoints
 62
     0
440
 16777216
100
AcDbPoint
 10
3751.25
 20
1587.5
 30
0.0
  0
POINT
  5
1924
330
959
100
AcDbEntity
  8
Defpoints
 62
     0
440
 16777216
100
AcDbPoint
 10
3751.25
 20
1287.5
 30
0.0
  0
POINT
  5
1925
330
959
100
AcDbEntity
  8
Defpoints
 62
     0
440
 16777216
100
AcDbPoint
 10
3854.550158566473
 20
1287.5
 30
0.0
  0
ENDBLK
  5
95B
330
959
100
AcDbEntity
  8
0
100
AcDbBlockEnd
  0
BLOCK
  5
972
330
971
100
AcDbEntity
  8
0
100
AcDbBlockBegin
  2
*D29
 70
     1
 10
0.0
 20
0.0
 30
0.0
  3
*D29
  1

  0
LINE
  5
1926
330
971
100
AcDbEntity
  8
寸法
 62
     0
440
 16777216
370
    -2
100
AcDbLine
 10
3775.625
 20
987.5
 30
0.0
 11
3873.300158566472
 21
987.4999999999998
 31
0.0
  0
LINE
  5
1927
330
971
100
AcDbEntity
  8
寸法
 62
     0
440
 16777216
370
    -2
100
AcDbLine
 10
3775.625
 20
837.5
 30
0.0
 11
3873.300158566472
 21
837.4999999999998
 31
0.0
  0
LINE
  5
1928
330
971
100
AcDbEntity
  8
寸法
 62
     0
440
 16777216
370
    -2
100
AcDbLine
 10
3854.550158566473
 20
949.9999999999998
 30
0.0
 11
3854.550158566473
 21
874.9999999999998
 31
0.0
  0
SOLID
  5
1929
330
971
100
AcDbEntity
  8
寸法
 62
     0
440
 16777216
100
AcDbTrace
 10
3848.300158566472
 20
949.9999999999998
 30
0.0
 11
3860.800158566473
 21
949.9999999999998
 31
0.0
 12
3854.550158566473
 22
987.4999999999998
 32
0.0
 13
3854.550158566473
 23
987.4999999999998
 33
0.0
  0
SOLID
  5
192A
330
971
100
AcDbEntity
  8
寸法
 62
     0
440
 16777216
100
AcDbTrace
 10
3848.300158566472
 20
874.9999999999998
 30
0.0
 11
3860.800158566473
 21
874.9999999999998
 31
0.0
 12
3854.550158566473
 22
837.4999999999998
 32
0.0
 13
3854.550158566473
 23
837.4999999999998
 33
0.0
  0
MTEXT
  5
192B
330
971
100
AcDbEntity
  8
寸法
 62
     0
440
 16777216
100
AcDbMText
 10
3811.425158566472
 20
912.5000000000005
 30
0.0
 40
37.5
 41
0.0
 46
0.0
 71
     5
 72
     1
  1
150
 11
0.0000000000000001
 21
1.0
 31
0.0
 73
     1
 44
1.0
  0
POINT
  5
192C
330
971
100
AcDbEntity
  8
Defpoints
 62
     0
440
 16777216
100
AcDbPoint
 10
3751.25
 20
987.5
 30
0.0
  0
POINT
  5
192D
330
971
100
AcDbEntity
  8
Defpoints
 62
     0
440
 16777216
100
AcDbPoint
 10
3751.25
 20
837.5
 30
0.0
  0
POINT
  5
192E
330
971
100
AcDbEntity
  8
Defpoints
 62
     0
440
 16777216
100
AcDbPoint
 10
3854.550158566473
 20
837.4999999999998
 30
0.0
  0
ENDBLK
  5
973
330
971
100
AcDbEntity
  8
0
100
AcDbBlockEnd
  0
BLOCK
  5
9FD
330
9FC
100
AcDbEntity
  8
0
100
AcDbBlockBegin
  2
*D30
 70
     1
 10
0.0
 20
0.0
 30
0.0
  3
*D30
  1

  0
LINE
  5
18B7
330
9FC
100
AcDbEntity
  8
寸法
 62
     0
440
 16777216
370
    -2
100
AcDbLine
 10
1268.125
 20
312.5
 30
0.0
 11
1374.70451629386
 21
312.5
 31
0.0
  0
LINE
  5
18B8
330
9FC
100
AcDbEntity
  8
寸法
 62
     0
440
 16777216
370
    -2
100
AcDbLine
 10
1268.125
 20
362.5
 30
0.0
 11
1374.70451629386
 21
362.5
 31
0.0
  0
LINE
  5
18B9
330
9FC
100
AcDbEntity
  8
寸法
 62
     0
440
 16777216
370
    -2
100
AcDbLine
 10
1355.95451629386
 20
312.5
 30
0.0
 11
1355.95451629386
 21
275.0
 31
0.0
  0
LINE
  5
18BA
330
9FC
100
AcDbEntity
  8
寸法
 62
     0
440
 16777216
370
    -2
100
AcDbLine
 10
1355.95451629386
 20
400.0
 30
0.0
 11
1355.95451629386
 21
437.5
 31
0.0
  0
MTEXT
  5
18BB
330
9FC
100
AcDbEntity
  8
寸法
 62
     0
440
 16777216
100
AcDbMText
 10
1402.546786031717
 20
340.1880066040658
 30
0.0
 40
37.5
 41
0.0
 46
0.0
 71
     5
 72
     1
  1
50
 11
0.0000000000000001
 21
1.0
 31
0.0
 73
     1
 44
1.0
  0
LINE
  5
18BC
330
9FC
100
AcDbEntity
  8
寸法
 62
     0
440
 16777216
370
    -2
100
AcDbLine
 10
1355.95451629386
 20
312.5
 30
0.0
 11
1355.95451629386
 21
362.5
 31
0.0
  0
INSERT
  5
18BD
330
9FC
100
AcDbEntity
  8
寸法
 62
     0
440
 16777216
370
    -2
100
AcDbBlockReference
  2
_DotSmall
 10
1355.95451629386
 20
312.5
 30
0.0
 41
37.5
 42
37.5
 43
37.5
 50
90.0
  0
SOLID
  5
18BE
330
9FC
100
AcDbEntity
  8
寸法
 62
     0
440
 16777216
100
AcDbTrace
 10
1349.70451629386
 20
400.0
 30
0.0
 11
1362.20451629386
 21
400.0
 31
0.0
 12
1355.95451629386
 22
362.5
 32
0.0
 13
1355.95451629386
 23
362.5
 33
0.0
  0
POINT
  5
18BF
330
9FC
100
AcDbEntity
  8
Defpoints
 62
     0
440
 16777216
100
AcDbPoint
 10
1243.75
 20
312.5
 30
0.0
  0
POINT
  5
18C0
330
9FC
100
AcDbEntity
  8
Defpoints
 62
     0
440
 16777216
100
AcDbPoint
 10
1243.75
 20
362.5
 30
0.0
  0
POINT
  5
18C1
330
9FC
100
AcDbEntity
  8
Defpoints
 62
     0
440
 16777216
100
AcDbPoint
 10
1355.95451629386
 20
362.5
 30
0.0
  0
ENDBLK
  5
9FE
330
9FC
100
AcDbEntity
  8
0
100
AcDbBlockEnd
  0
BLOCK
  5
12EB
330
12EA
100
AcDbEntity
  8
0
100
AcDbBlockBegin
  2
*D31
 70
     1
 10
0.0
 20
0.0
 30
0.0
  3
*D31
  1

  0
LINE
  5
18C2
330
12EA
100
AcDbEntity
  8
寸法
 62
     0
440
 16777216
370
    -2
100
AcDbLine
 10
1268.125
 20
312.5
 30
0.0
 11
1374.70451629386
 21
312.5
 31
0.0
  0
LINE
  5
18C3
330
12EA
100
AcDbEntity
  8
寸法
 62
     0
440
 16777216
370
    -2
100
AcDbLine
 10
1223.125
 20
307.5
 30
0.0
 11
1374.70451629386
 21
307.5
 31
0.0
  0
LINE
  5
18C4
330
12EA
100
AcDbEntity
  8
寸法
 62
     0
440
 16777216
370
    -2
100
AcDbLine
 10
1355.95451629386
 20
312.5
 30
0.0
 11
1355.95451629386
 21
350.0
 31
0.0
  0
LINE
  5
18C5
330
12EA
100
AcDbEntity
  8
寸法
 62
     0
440
 16777216
370
    -2
100
AcDbLine
 10
1355.95451629386
 20
270.0
 30
0.0
 11
1355.95451629386
 21
158.7499999999999
 31
0.0
  0
LINE
  5
18C6
330
12EA
100
AcDbEntity
  8
寸法
 62
     0
440
 16777216
370
    -2
100
AcDbLine
 10
1355.95451629386
 20
312.5
 30
0.0
 11
1355.95451629386
 21
307.5
 31
0.0
  0
INSERT
  5
18C7
330
12EA
100
AcDbEntity
  8
寸法
 62
     0
440
 16777216
370
    -2
100
AcDbBlockReference
  2
_DotSmall
 10
1355.95451629386
 20
312.5
 30
0.0
 41
37.5
 42
37.5
 43
37.5
 50
270.0
  0
SOLID
  5
18C8
330
12EA
100
AcDbEntity
  8
寸法
 62
     0
440
 16777216
100
AcDbTrace
 10
1349.70451629386
 20
270.0
 30
0.0
 11
1362.20451629386
 21
270.0
 31
0.0
 12
1355.95451629386
 22
307.5
 32
0.0
 13
1355.95451629386
 23
307.5
 33
0.0
  0
MTEXT
  5
18C9
330
12EA
100
AcDbEntity
  8
寸法
 62
     0
440
 16777216
100
AcDbMText
 10
1312.82951629386
 20
195.6250000000002
 30
0.0
 40
37.5
 41
0.0
 46
0.0
 71
     5
 72
     1
  1
5
 11
0.0000000000000001
 21
1.0
 31
0.0
 73
     1
 44
1.0
  0
POINT
  5
18CA
330
12EA
100
AcDbEntity
  8
Defpoints
 62
     0
440
 16777216
100
AcDbPoint
 10
1243.75
 20
312.5
 30
0.0
  0
POINT
  5
18CB
330
12EA
100
AcDbEntity
  8
Defpoints
 62
     0
440
 16777216
100
AcDbPoint
 10
1198.75
 20
307.5
 30
0.0
  0
POINT
  5
18CC
330
12EA
100
AcDbEntity
  8
Defpoints
 62
     0
440
 16777216
100
AcDbPoint
 10
1355.95451629386
 20
307.5
 30
0.0
  0
ENDBLK
  5
12EC
330
12EA
100
AcDbEntity
  8
0
100
AcDbBlockEnd
  0
ENDSEC
  0
SECTION
  2
ENTITIES
  0
LWPOLYLINE
  5
9A
330
67
100
AcDbEntity
  8
用紙
100
AcDbPolyline
 90
        4
 70
     1
 43
0.0
 10
0.0
 20
0.0
 10
4455.0
 20
0.0
 10
4455.0
 20
3150.0
 10
0.0
 20
3150.0
  0
LWPOLYLINE
  5
9B
330
67
100
AcDbEntity
  8
輪郭
100
AcDbPolyline
 90
        4
 70
     1
 43
0.0
 10
150.0
 20
150.0
 10
4305.0
 20
150.0
 10
4305.0
 20
3000.0
 10
150.0
 20
3000.0
  0
LINE
  5
C4
330
67
100
AcDbEntity
  8
表題
100
AcDbLine
 10
3030.0
 20
150.0
 30
0.0
 11
4305.0
 21
150.0
 31
0.0
  0
LINE
  5
C5
330
67
100
AcDbEntity
  8
表題
100
AcDbLine
 10
4305.0
 20
150.0
 30
0.0
 11
4305.0
 21
525.0
 31
0.0
  0
LINE
  5
C6
330
67
100
AcDbEntity
  8
表題
100
AcDbLine
 10
4079.999999999999
 20
225.0
 30
0.0
 11
4079.999999999999
 21
375.0
 31
0.0
  0
LINE
  5
C7
330
67
100
AcDbEntity
  8
表題
100
AcDbLine
 10
3855.0
 20
225.0
 30
0.0
 11
3855.0
 21
375.0
 31
0.0
  0
LINE
  5
C8
330
67
100
AcDbEntity
  8
表題
100
AcDbLine
 10
4305.0
 20
525.0
 30
0.0
 11
3030.0
 21
525.0
 31
0.0
  0
LINE
  5
C9
330
67
100
AcDbEntity
  8
表題
100
AcDbLine
 10
4305.0
 20
375.0
 30
0.0
 11
3030.0
 21
375.0
 31
0.0
  0
LINE
  5
CA
330
67
100
AcDbEntity
  8
表題
100
AcDbLine
 10
4305.0
 20
300.0
 30
0.0
 11
3030.0
 21
300.0
 31
0.0
  0
LINE
  5
CB
330
67
100
AcDbEntity
  8
表題
100
AcDbLine
 10
4305.0
 20
225.0
 30
0.0
 11
3030.0
 21
225.0
 31
0.0
  0
LINE
  5
CC
330
67
100
AcDbEntity
  8
表題
100
AcDbLine
 10
3030.0
 20
525.0
 30
0.0
 11
3030.0
 21
150.0
 31
0.0
  0
LINE
  5
CD
330
67
100
AcDbEntity
  8
表題
100
AcDbLine
 10
3255.0
 20
525.0
 30
0.0
 11
3255.0
 21
375.0
 31
0.0
  0
TEXT
  5
CE
330
67
100
AcDbEntity
  8
表題
100
AcDbText
 10
3054.784263959391
 20
427.5
 30
0.0
 40
45.0
  1
製品名
  7
文字
 72
     1
 11
3142.5
 21
450.0
 31
0.0
100
AcDbText
 73
     2
  0
TEXT
  5
CF
330
67
100
AcDbEntity
  8
表題
100
AcDbText
 10
3429.137055837563
 20
427.5
 30
0.0
 40
45.0
  1
特殊改良ます　ＣＤ４５０
  7
文字
 72
     1
 11
3780.0
 21
450.0
 31
0.0
100
AcDbText
 73
     2
  0
TEXT
  5
D0
330
67
100
AcDbEntity
  8
表題
100
AcDbText
 10
3237.829949238578
 20
315.0
 30
0.0
 40
45.0
  1
図　面　番　号
  7
文字
 72
     1
 11
3442.499999999999
 21
337.5
 31
0.0
100
AcDbText
 73
     2
  0
TEXT
  5
D1
330
67
100
AcDbEntity
  8
表題
100
AcDbText
 10
3909.022842639592
 20
315.0
 30
0.0
 40
45.0
  1
担当
  7
文字
 72
     1
 11
3967.499999999999
 21
337.5
 31
0.0
100
AcDbText
 73
     2
  0
TEXT
  5
D2
330
67
100
AcDbEntity
  8
表題
100
AcDbText
 10
4119.403553299492
 20
240.0
 30
0.0
 40
45.0
  1
1：15
  7
文字
 72
     1
 11
4192.5
 21
262.5
 31
0.0
100
AcDbText
 73
     2
  0
TEXT
  5
D3
330
67
100
AcDbEntity
  8
表題
100
AcDbText
 10
3433.591370558376
 20
165.0
 30
0.0
 40
45.0
  1
大生建材株式会社
  7
文字
 72
     1
 11
3667.5
 21
187.5
 31
0.0
100
AcDbText
 73
     2
  0
TEXT
  5
D4
330
67
100
AcDbEntity
  8
表題
100
AcDbText
 10
4134.022842639594
 20
315.0
 30
0.0
 40
45.0
  1
尺度
  7
文字
 72
     1
 11
4192.5
 21
337.5
 31
0.0
100
AcDbText
 73
     2
  0
LINE
  5
172
330
67
100
AcDbEntity
  8
製品
100
AcDbLine
 10
733.75
 20
1737.5
 30
0.0
 11
729.7500000000002
 21
1782.5
 31
0.0
  0
LINE
  5
173
330
67
100
AcDbEntity
  8
製品
100
AcDbLine
 10
729.7500000000002
 20
1782.5
 30
0.0
 11
734.7500000000002
 21
1787.5
 31
0.0
  0
LINE
  5
174
330
67
100
AcDbEntity
  8
製品
100
AcDbLine
 10
734.7500000000002
 20
1787.5
 30
0.0
 11
1242.75
 21
1787.5
 31
0.0
  0
LINE
  5
175
102
{ACAD_REACTORS
330
34B
102
}
330
67
100
AcDbEntity
  8
製品
100
AcDbLine
 10
1242.75
 20
1787.5
 30
0.0
 11
1247.75
 21
1782.5
 31
0.0
  0
LINE
  5
176
330
67
100
AcDbEntity
  8
製品
100
AcDbLine
 10
1247.75
 20
1782.5
 30
0.0
 11
1243.75
 21
1737.5
 31
0.0
  0
LINE
  5
177
102
{ACAD_REACTORS
330
34B
330
363
102
}
330
67
100
AcDbEntity
  8
製品
100
AcDbLine
 10
1243.75
 20
1737.5
 30
0.0
 11
733.75
 21
1737.5
 31
0.0
  0
LINE
  5
17A
330
67
100
AcDbEntity
  8
製品
100
AcDbLine
 10
733.7500000000001
 20
312.5
 30
0.0
 11
728.75
 21
359.5000000000001
 31
0.0
  0
LINE
  5
17B
330
67
100
AcDbEntity
  8
製品
100
AcDbLine
 10
728.75
 20
359.5000000000001
 30
0.0
 11
731.7499999999999
 21
362.5
 31
0.0
  0
LINE
  5
17C
330
67
100
AcDbEntity
  8
製品
100
AcDbLine
 10
731.7499999999999
 20
362.5
 30
0.0
 11
1245.75
 21
362.5
 31
0.0
  0
LINE
  5
17D
330
67
100
AcDbEntity
  8
製品
100
AcDbLine
 10
1245.75
 20
362.5
 30
0.0
 11
1248.75
 21
359.5
 31
0.0
  0
LINE
  5
17E
330
67
100
AcDbEntity
  8
製品
100
AcDbLine
 10
1248.75
 20
359.5
 30
0.0
 11
1243.75
 21
312.5
 31
0.0
  0
LINE
  5
17F
330
67
100
AcDbEntity
  8
製品
100
AcDbLine
 10
1243.75
 20
312.5
 30
0.0
 11
1203.75
 21
312.5
 31
0.0
  0
LINE
  5
180
330
67
100
AcDbEntity
  8
製品2
100
AcDbLine
 10
728.75
 20
359.5000000000001
 30
0.0
 11
1248.75
 21
359.5
 31
0.0
  0
LINE
  5
181
330
67
100
AcDbEntity
  8
製品2
100
AcDbLine
 10
728.75
 20
1782.5
 30
0.0
 11
1248.75
 21
1782.5
 31
0.0
  0
TEXT
  5
235
330
67
100
AcDbEntity
  8
文字
100
AcDbText
 10
919.7875034091451
 20
2846.818145241389
 30
0.0
 40
35.0
  1
汚　蓋
  7
文字
 72
     1
 11
988.0108536629522
 21
2864.318145241389
 31
0.0
100
AcDbText
 73
     2
  0
TEXT
  5
236
330
67
100
AcDbEntity
  8
文字
100
AcDbText
 10
919.7875034091451
 20
1370.572329827953
 30
0.0
 40
35.0
  1
雨　蓋
  7
文字
 72
     1
 11
988.0108536629522
 21
1388.072329827953
 31
0.0
100
AcDbText
 73
     2
  0
TEXT
  5
240
330
67
100
AcDbEntity
  8
文字
100
AcDbText
 10
828.8230364040691
 20
2746.818145241388
 30
0.0
 40
35.0
  1
参考重量　33kg
  7
文字
 72
     1
 11
988.0108536629522
 21
2764.318145241388
 31
0.0
100
AcDbText
 73
     2
  0
TEXT
  5
241
330
67
100
AcDbEntity
  8
文字
100
AcDbText
 10
828.8230364040691
 20
1271.818145241388
 30
0.0
 40
35.0
  1
参考重量　33kg
  7
文字
 72
     1
 11
988.0108536629522
 21
1289.318145241388
 31
0.0
100
AcDbText
 73
     2
  0
LINE
  5
24E
330
67
100
AcDbEntity
  8
製品
100
AcDbLine
 10
1911.5
 20
1487.5
 30
0.0
 11
2543.5
 21
1487.5
 31
0.0
  0
LINE
  5
24F
330
67
100
AcDbEntity
  8
製品
100
AcDbLine
 10
2552.5
 20
1478.5
 30
0.0
 11
2552.5
 21
1387.5
 31
0.0
  0
LINE
  5
250
330
67
100
AcDbEntity
  8
製品
100
AcDbLine
 10
2552.5
 20
1387.5
 30
0.0
 11
1902.5
 21
1387.5
 31
0.0
  0
LINE
  5
251
330
67
100
AcDbEntity
  8
製品
100
AcDbLine
 10
1902.5
 20
1387.5
 30
0.0
 11
1902.5
 21
1478.5
 31
0.0
  0
LINE
  5
25B
330
67
100
AcDbEntity
  8
製品
100
AcDbLine
 10
1911.5
 20
1487.5
 30
0.0
 11
1902.5
 21
1478.5
 31
0.0
  0
LINE
  5
25C
330
67
100
AcDbEntity
  8
製品
100
AcDbLine
 10
2543.5
 20
1487.5
 30
0.0
 11
2552.5
 21
1478.5
 31
0.0
  0
LINE
  5
25D
330
67
100
AcDbEntity
  8
製品2
100
AcDbLine
 10
1902.5
 20
1478.5
 30
0.0
 11
2552.5
 21
1478.5
 31
0.0
  0
LINE
  5
26B
330
67
100
AcDbEntity
  8
製品
100
AcDbLine
 10
2002.5
 20
1387.5
 30
0.0
 11
1997.5
 21
1434.5
 31
0.0
  0
LINE
  5
26D
102
{ACAD_REACTORS
330
49F
102
}
330
67
100
AcDbEntity
  8
製品
100
AcDbLine
 10
1967.5
 20
1434.5
 30
0.0
 11
1962.5
 21
1487.5
 31
0.0
  0
LINE
  5
26E
102
{ACAD_REACTORS
330
4BB
102
}
330
67
100
AcDbEntity
  8
製品
100
AcDbLine
 10
2492.5
 20
1487.500000000004
 30
0.0
 11
2487.5
 21
1434.500000000004
 31
0.0
  0
LINE
  5
26F
330
67
100
AcDbEntity
  8
製品
100
AcDbLine
 10
2487.5
 20
1434.5
 30
0.0
 11
1967.5
 21
1434.5
 31
0.0
  0
LINE
  5
270
330
67
100
AcDbEntity
  8
製品
100
AcDbLine
 10
2457.5
 20
1434.500000000004
 30
0.0
 11
2452.500000000001
 21
1387.500000000004
 31
0.0
  0
LINE
  5
274
330
67
100
AcDbEntity
  8
製品2
100
AcDbLine
 10
1911.5
 20
1487.5
 30
0.0
 11
1911.5
 21
1387.5
 31
0.0
  0
LINE
  5
275
330
67
100
AcDbEntity
  8
製品2
100
AcDbLine
 10
2543.5
 20
1487.5
 30
0.0
 11
2543.5
 21
1387.5
 31
0.0
  0
LWPOLYLINE
  5
2A1
330
67
100
AcDbEntity
  8
製品
100
AcDbPolyline
 90
        4
 70
     1
 43
0.0
 10
3181.25
 20
1587.5
 10
3751.25
 20
1587.5
 10
3751.25
 20
1287.5
 10
3181.25
 20
1287.5
  0
LINE
  5
2A2
330
67
100
AcDbEntity
  8
製品
100
AcDbLine
 10
3240.828123639263
 20
1587.5
 30
0.0
 11
3240.828123639263
 21
1287.5
 31
0.0
  0
LINE
  5
2A3
330
67
100
AcDbEntity
  8
製品
100
AcDbLine
 10
3691.25
 20
1587.5
 30
0.0
 11
3691.25
 21
1287.5
 31
0.0
  0
LWPOLYLINE
  5
2A6
330
67
100
AcDbEntity
  8
製品
100
AcDbPolyline
 90
        4
 70
     1
 43
0.0
 10
3181.25
 20
987.4999999999998
 10
3751.25
 20
987.5
 10
3751.25
 20
837.5
 10
3181.25
 20
837.5
  0
LINE
  5
2A7
330
67
100
AcDbEntity
  8
製品
100
AcDbLine
 10
3241.25
 20
987.4999999999998
 30
0.0
 11
3241.25
 21
837.4999999999998
 31
0.0
  0
LINE
  5
2A8
330
67
100
AcDbEntity
  8
製品
100
AcDbLine
 10
3691.25
 20
987.5
 30
0.0
 11
3691.25
 21
837.5
 31
0.0
  0
DIMENSION
  5
2D2
330
67
100
AcDbEntity
  8
寸法
100
AcDbDimension
  2
*D1
 10
1248.75
 20
2574.201875192132
 30
0.0
 11
988.7499999999999
 21
2617.326875192132
 31
0.0
 70
    32
 71
     5
 42
519.9999999999997
 73
     0
 74
     0
 75
     0
  3
ISO-25
100
AcDbAlignedDimension
 13
728.75
 23
2497.5
 33
0.0
 14
1248.75
 24
2497.5
 34
0.0
100
AcDbRotatedDimension
  0
DIMENSION
  5
2EA
330
67
100
AcDbEntity
  8
寸法
100
AcDbDimension
  2
*D2
 10
1355.95451629386
 20
1977.5
 30
0.0
 11
1312.82951629386
 21
2237.5
 31
0.0
 70
    32
 71
     5
 42
520.0000000000001
 73
     0
 74
     0
 75
     0
  3
ISO-25
100
AcDbAlignedDimension
 13
1248.75
 23
2497.5
 33
0.0
 14
1248.75
 24
1977.5
 34
0.0
 50
90.0
100
AcDbRotatedDimension
  0
DIMENSION
  5
330
102
{ACAD_XDICTIONARY
360
33F
102
}
102
{ACAD_REACTORS
330
34B
102
}
330
67
100
AcDbEntity
  8
寸法
100
AcDbDimension
  2
*D3
 10
1356.95451629386
 20
1787.5
 30
0.0
 11
1404.063348184684
 21
1762.430999463839
 31
0.0
 70
   160
 71
     5
 42
50.0
 73
     0
 74
     0
 75
     0
  3
ISO-25
100
AcDbAlignedDimension
 13
1243.75
 23
1737.5
 33
0.0
 14
1242.75
 24
1787.5
 34
0.0
 50
90.0
100
AcDbRotatedDimension
1001
ACAD
1000
DSTYLE
1002
{
1070
   279
1070
     2
1002
}
  0
DIMENSION
  5
34C
102
{ACAD_XDICTIONARY
360
359
102
}
102
{ACAD_REACTORS
330
363
102
}
330
67
100
AcDbEntity
  8
寸法
100
AcDbDimension
  2
*D4
 10
1243.75
 20
1638.317423848664
 30
0.0
 11
988.7500000000001
 21
1681.442423848664
 31
0.0
 70
    32
 71
     5
 42
510.0
 73
     0
 74
     0
 75
     0
  3
ISO-25
100
AcDbAlignedDimension
 13
733.75
 23
1737.5
 33
0.0
 14
1243.75
 24
1737.5
 34
0.0
100
AcDbRotatedDimension
  0
DIMENSION
  5
395
330
67
100
AcDbEntity
  8
寸法
100
AcDbDimension
  2
*D5
 10
1248.749999999999
 20
1150.231152225293
 30
0.0
 11
988.7499999999997
 21
1193.356152225293
 31
0.0
 70
    32
 71
     5
 42
519.9999999999995
 73
     0
 74
     0
 75
     0
  3
ISO-25
100
AcDbAlignedDimension
 13
728.75
 23
1072.5
 33
0.0
 14
1248.749999999999
 24
1072.499999999999
 34
0.0
100
AcDbRotatedDimension
  0
DIMENSION
  5
398
330
67
100
AcDbEntity
  8
寸法
100
AcDbDimension
  2
*D6
 10
1355.95451629386
 20
552.4999999999998
 30
0.0
 11
1312.82951629386
 21
812.5000000000001
 31
0.0
 70
    32
 71
     5
 42
520.0
 73
     0
 74
     0
 75
     0
  3
ISO-25
100
AcDbAlignedDimension
 13
1248.75
 23
1072.5
 33
0.0
 14
1248.75
 24
552.5
 34
0.0
 50
90.0
100
AcDbRotatedDimension
  0
DIMENSION
  5
39E
330
67
100
AcDbEntity
  8
寸法
100
AcDbDimension
  2
*D7
 10
1243.75
 20
213.3174238486631
 30
0.0
 11
988.7500000000001
 21
256.4424238486631
 31
0.0
 70
    32
 71
     5
 42
509.9999999999998
 73
     0
 74
     0
 75
     0
  3
ISO-25
100
AcDbAlignedDimension
 13
733.7500000000001
 23
312.5
 33
0.0
 14
1243.75
 24
312.5
 34
0.0
100
AcDbRotatedDimension
  0
DIMENSION
  5
3F9
330
67
100
AcDbEntity
  8
寸法
100
AcDbDimension
  2
*D8
 10
2452.500000000001
 20
2071.675807445597
 30
0.0
 11
2227.5
 21
2071.675807445597
 31
0.0
 70
   160
 71
     5
 42
449.9999999999992
 73
     0
 74
     0
 75
     0
  3
ISO-25
100
AcDbAlignedDimension
 13
2002.500000000001
 23
1962.5
 33
0.0
 14
2452.500000000001
 24
1962.5
 34
0.0
100
AcDbRotatedDimension
  0
DIMENSION
  5
411
330
67
100
AcDbEntity
  8
寸法
100
AcDbDimension
  2
*D9
 10
2358.125000000001
 20
1962.5
 30
0.0
 11
2358.125000000001
 21
2187.5
 31
0.0
 70
   160
 71
     5
 42
450.0000000000008
 73
     0
 74
     0
 75
     0
  3
ISO-25
100
AcDbAlignedDimension
 13
2452.500000000001
 23
2412.5
 33
0.0
 14
2452.500000000001
 24
1962.5
 34
0.0
 50
90.0
100
AcDbRotatedDimension
  0
DIMENSION
  5
454
330
67
100
AcDbEntity
  8
寸法
100
AcDbDimension
  2
*D10
 10
2552.5
 20
2556.133942115673
 30
0.0
 11
2227.5
 21
2599.258942115673
 31
0.0
 70
    32
 71
     5
 42
650.0000000000002
 73
     0
 74
     0
 75
     0
  3
ISO-25
100
AcDbAlignedDimension
 13
1902.5
 23
2503.500000000001
 33
0.0
 14
2552.5
 24
2503.500000000001
 34
0.0
100
AcDbRotatedDimension
  0
DIMENSION
  5
46C
330
67
100
AcDbEntity
  8
寸法
100
AcDbDimension
  2
*D11
 10
2640.169830853607
 20
1862.499999999999
 30
0.0
 11
2597.044830853606
 21
2187.5
 31
0.0
 70
    32
 71
     5
 42
650.0000000000008
 73
     0
 74
     0
 75
     0
  3
ISO-25
100
AcDbAlignedDimension
 13
2543.5
 23
2512.500000000001
 33
0.0
 14
2543.5
 24
1862.5
 34
0.0
 50
90.0
100
AcDbRotatedDimension
  0
DIMENSION
  5
484
102
{ACAD_XDICTIONARY
360
493
102
}
102
{ACAD_REACTORS
330
49F
102
}
330
67
100
AcDbEntity
  8
寸法
100
AcDbDimension
  2
*D12
 10
1902.5
 20
1540.378327370962
 30
0.0
 11
1947.56802374535
 21
1587.5
 31
0.0
 70
   160
 71
     5
 42
60.0
 73
     0
 74
     0
 75
     0
  3
ISO-25
100
AcDbAlignedDimension
 13
1962.5
 23
1487.5
 33
0.0
 14
1902.5
 24
1478.5
 34
0.0
100
AcDbRotatedDimension
1001
ACAD
1000
DSTYLE
1002
{
1070
   343
1005
5EA
1070
   173
1070
     1
1070
   344
1005
0
1070
   279
1070
     2
1002
}
  0
DIMENSION
  5
4A0
102
{ACAD_XDICTIONARY
360
4AF
102
}
102
{ACAD_REACTORS
330
4BB
102
}
330
67
100
AcDbEntity
  8
寸法
100
AcDbDimension
  2
*D13
 10
2552.5
 20
1540.378327370967
 30
0.0
 11
2507.5
 21
1587.500000000004
 31
0.0
 70
   160
 71
     5
 42
59.99999999999954
 73
     0
 74
     0
 75
     0
  3
ISO-25
100
AcDbAlignedDimension
 13
2492.5
 23
1487.500000000004
 33
0.0
 14
2552.5
 24
1478.5
 34
0.0
100
AcDbRotatedDimension
1001
ACAD
1000
DSTYLE
1002
{
1070
   343
1005
5EA
1070
   173
1070
     1
1070
   344
1005
0
1070
   279
1070
     2
1002
}
  0
DIMENSION
  5
5B8
330
67
100
AcDbEntity
  8
寸法
100
AcDbDimension
  2
*D14
 10
2002.5
 20
1540.378327370962
 30
0.0
 11
2072.081875063961
 21
1587.5
 31
0.0
 70
   160
 71
     5
 42
40.0
 73
     0
 74
     0
 75
     0
  3
ISO-25
100
AcDbAlignedDimension
 13
1962.5
 23
1487.5
 33
0.0
 14
2002.5
 24
1487.5
 34
0.0
100
AcDbRotatedDimension
1001
ACAD
1000
DSTYLE
1002
{
1070
   173
1070
     1
1070
   279
1070
     2
1070
   343
1005
5EA
1002
}
  0
DIMENSION
  5
604
330
67
100
AcDbEntity
  8
寸法
100
AcDbDimension
  2
*D16
 10
2452.500000000001
 20
1540.378327370967
 30
0.0
 11
2386.559577846847
 21
1587.500000000004
 31
0.0
 70
   160
 71
     5
 42
40.0
 73
     0
 74
     0
 75
     0
  3
ISO-25
100
AcDbAlignedDimension
 13
2492.5
 23
1487.500000000004
 33
0.0
 14
2452.500000000001
 24
1487.500000000004
 34
0.0
100
AcDbRotatedDimension
1001
ACAD
1000
DSTYLE
1002
{
1070
   173
1070
     1
1070
   279
1070
     2
1070
   343
1005
5EA
1002
}
  0
DIMENSION
  5
65A
330
67
100
AcDbEntity
  8
寸法
100
AcDbDimension
  2
*D17
 10
2640.169830853607
 20
1487.5
 30
0.0
 11
2676.723598709311
 21
1538.853778365397
 31
0.0
 70
   160
 71
     5
 42
53.00000000000022
 73
     0
 74
     0
 75
     0
  3
ISO-25
100
AcDbAlignedDimension
 13
2552.5
 23
1434.5
 33
0.0
 14
2573.5
 24
1487.5
 34
0.0
 50
90.0
100
AcDbRotatedDimension
1001
ACAD
1000
DSTYLE
1002
{
1070
   173
1070
     1
1070
   279
1070
     2
1070
   343
1005
5EA
1002
}
  0
DIMENSION
  5
676
330
67
100
AcDbEntity
  8
寸法
100
AcDbDimension
  2
*D18
 10
2640.169830853607
 20
1387.5
 30
0.0
 11
2677.943612713035
 21
1337.5
 31
0.0
 70
   160
 71
     5
 42
46.99999999999977
 73
     0
 74
     0
 75
     0
  3
ISO-25
100
AcDbAlignedDimension
 13
2552.5
 23
1434.5
 33
0.0
 14
2582.5
 24
1387.5
 34
0.0
 50
90.0
100
AcDbRotatedDimension
1001
ACAD
1000
DSTYLE
1002
{
1070
   173
1070
     1
1070
   279
1070
     2
1070
   343
1005
5EA
1002
}
  0
DIMENSION
  5
6EA
330
67
100
AcDbEntity
  8
寸法
100
AcDbDimension
  2
*D19
 10
2720.36007349302
 20
1387.5
 30
0.0
 11
2754.54521123983
 21
1437.5
 31
0.0
 70
   160
 71
     5
 42
100.0
 73
     0
 74
     0
 75
     0
  3
ISO-25
100
AcDbAlignedDimension
 13
2543.5
 23
1487.5
 33
0.0
 14
2552.5
 24
1387.5
 34
0.0
 50
90.0
100
AcDbRotatedDimension
1001
ACAD
1000
DSTYLE
1002
{
1070
   279
1070
     2
1002
}
  0
DIMENSION
  5
70F
330
67
100
AcDbEntity
  8
寸法
100
AcDbDimension
  2
*D20
 10
3181.25
 20
2605.86780832195
 30
0.0
 11
3119.81687598993
 21
2638.090479539291
 31
0.0
 70
   160
 71
     5
 42
60.0
 73
     0
 74
     0
 75
     0
  3
ISO-25
100
AcDbAlignedDimension
 13
3241.25
 23
2472.5
 33
0.0
 14
3181.25
 24
2453.5
 34
0.0
100
AcDbRotatedDimension
1001
ACAD
1000
DSTYLE
1002
{
1070
   279
1070
     2
1002
}
  0
DIMENSION
  5
72B
330
67
100
AcDbEntity
  8
寸法
100
AcDbDimension
  2
*D21
 10
3751.250000000001
 20
2605.86780832195
 30
0.0
 11
3813.875930610097
 21
2634.785587113234
 31
0.0
 70
   160
 71
     5
 42
60.0
 73
     0
 74
     0
 75
     0
  3
ISO-25
100
AcDbAlignedDimension
 13
3691.25
 23
2472.5
 33
0.0
 14
3751.250000000001
 24
2453.5
 34
0.0
100
AcDbRotatedDimension
1001
ACAD
1000
DSTYLE
1002
{
1070
   279
1070
     2
1002
}
  0
DIMENSION
  5
747
330
67
100
AcDbEntity
  8
寸法
100
AcDbDimension
  2
*D22
 10
3691.25
 20
2605.86780832195
 30
0.0
 11
3466.25
 21
2648.99280832195
 31
0.0
 70
    32
 71
     5
 42
450.0
 73
     0
 74
     0
 75
     0
  3
ISO-25
100
AcDbAlignedDimension
 13
3241.25
 23
2472.5
 33
0.0
 14
3691.25
 24
2472.5
 34
0.0
100
AcDbRotatedDimension
  0
DIMENSION
  5
78D
330
67
100
AcDbEntity
  8
寸法
100
AcDbDimension
  2
*D23
 10
3854.550158566473
 20
2472.5
 30
0.0
 11
3823.420502454928
 21
2541.516757952984
 31
0.0
 70
   160
 71
     5
 42
60.0
 73
     0
 74
     0
 75
     0
  3
ISO-25
100
AcDbAlignedDimension
 13
3751.250000000001
 23
2412.5
 33
0.0
 14
3732.25
 24
2472.5
 34
0.0
 50
90.0
100
AcDbRotatedDimension
1001
ACAD
1000
DSTYLE
1002
{
1070
   279
1070
     2
1002
}
  0
DIMENSION
  5
7A9
330
67
100
AcDbEntity
  8
寸法
100
AcDbDimension
  2
*D24
 10
3854.550158566474
 20
1902.5
 30
0.0
 11
3820.307528360771
 21
1837.920961906403
 31
0.0
 70
   160
 71
     5
 42
60.0
 73
     0
 74
     0
 75
     0
  3
ISO-25
100
AcDbAlignedDimension
 13
3751.25
 23
1962.5
 33
0.0
 14
3732.25
 24
1902.5
 34
0.0
 50
90.0
100
AcDbRotatedDimension
1001
ACAD
1000
DSTYLE
1002
{
1070
   279
1070
     2
1002
}
  0
DIMENSION
  5
7FE
330
67
100
AcDbEntity
  8
寸法
100
AcDbDimension
  2
*D25
 10
3854.550158566473
 20
1962.5
 30
0.0
 11
3811.425158566473
 21
2187.5
 31
0.0
 70
    32
 71
     5
 42
449.9999999999995
 73
     0
 74
     0
 75
     0
  3
ISO-25
100
AcDbAlignedDimension
 13
3751.250000000001
 23
2412.5
 33
0.0
 14
3751.250000000001
 24
1962.5
 34
0.0
 50
90.0
100
AcDbRotatedDimension
1001
ACAD
1000
DSTYLE
1002
{
1070
   279
1070
     2
1002
}
  0
DIMENSION
  5
83A
330
67
100
AcDbEntity
  8
寸法
100
AcDbDimension
  2
*D26
 10
3751.250000000001
 20
2690.142479652936
 30
0.0
 11
3466.25
 21
2733.267479652936
 31
0.0
 70
    32
 71
     5
 42
570.0
 73
     0
 74
     0
 75
     0
  3
ISO-25
100
AcDbAlignedDimension
 13
3181.25
 23
2453.5
 33
0.0
 14
3751.250000000001
 24
2453.5
 34
0.0
100
AcDbRotatedDimension
  0
DIMENSION
  5
847
330
67
100
AcDbEntity
  8
寸法
100
AcDbDimension
  2
*D27
 10
3948.976784932494
 20
1902.5
 30
0.0
 11
3905.851784932494
 21
2187.5
 31
0.0
 70
    32
 71
     5
 42
569.9999999999995
 73
     0
 74
     0
 75
     0
  3
ISO-25
100
AcDbAlignedDimension
 13
3732.25
 23
2472.5
 33
0.0
 14
3732.25
 24
1902.5
 34
0.0
 50
90.0
100
AcDbRotatedDimension
  0
DIMENSION
  5
958
330
67
100
AcDbEntity
  8
寸法
100
AcDbDimension
  2
*D28
 10
3854.550158566473
 20
1287.5
 30
0.0
 11
3811.425158566473
 21
1437.500000000001
 31
0.0
 70
    32
 71
     5
 42
300.0
 73
     0
 74
     0
 75
     0
  3
ISO-25
100
AcDbAlignedDimension
 13
3751.25
 23
1587.5
 33
0.0
 14
3751.25
 24
1287.5
 34
0.0
 50
90.0
100
AcDbRotatedDimension
  0
DIMENSION
  5
970
330
67
100
AcDbEntity
  8
寸法
100
AcDbDimension
  2
*D29
 10
3854.550158566473
 20
837.4999999999998
 30
0.0
 11
3811.425158566472
 21
912.5000000000005
 31
0.0
 70
    32
 71
     5
 42
150.0
 73
     0
 74
     0
 75
     0
  3
ISO-25
100
AcDbAlignedDimension
 13
3751.25
 23
987.5
 33
0.0
 14
3751.25
 24
837.5
 34
0.0
 50
90.0
100
AcDbRotatedDimension
  0
DIMENSION
  5
9F9
330
67
100
AcDbEntity
  8
寸法
100
AcDbDimension
  2
*D30
 10
1355.95451629386
 20
362.5
 30
0.0
 11
1402.546786031717
 21
340.1880066040658
 31
0.0
 70
   160
 71
     5
 42
50.0
 73
     0
 74
     0
 75
     0
  3
ISO-25
100
AcDbAlignedDimension
 13
1243.75
 23
312.5
 33
0.0
 14
1243.75
 24
362.5
 34
0.0
 50
90.0
100
AcDbRotatedDimension
1001
ACAD
1000
DSTYLE
1002
{
1070
   343
1005
5EA
1070
   173
1070
     1
1070
   344
1005
0
1070
   279
1070
     2
1002
}
  0
TEXT
  5
CDA
330
67
100
AcDbEntity
  8
文字
100
AcDbText
 10
2159.276649746193
 20
2846.818145241389
 30
0.0
 40
35.0
  1
縁　塊
  7
文字
 72
     1
 11
2227.5
 21
2864.318145241389
 31
0.0
100
AcDbText
 73
     2
  0
TEXT
  5
CDB
330
67
100
AcDbEntity
  8
文字
100
AcDbText
 10
2068.312182741117
 20
2746.818145241388
 30
0.0
 40
35.0
  1
参考重量　42kg
  7
文字
 72
     1
 11
2227.5
 21
2764.318145241388
 31
0.0
100
AcDbText
 73
     2
  0
TEXT
  5
CDC
330
67
100
AcDbEntity
  8
文字
100
AcDbText
 10
3398.026649746193
 20
2846.818145241389
 30
0.0
 40
35.0
  1
側　塊
  7
文字
 72
     1
 11
3466.25
 21
2864.318145241389
 31
0.0
100
AcDbText
 73
     2
  0
TEXT
  5
CDD
330
67
100
AcDbEntity
  8
文字
100
AcDbText
 10
3307.062182741117
 20
1655.598257988958
 30
0.0
 40
35.0
  1
参考重量　85kg
  7
文字
 72
     1
 11
3466.25
 21
1673.098257988959
 31
0.0
100
AcDbText
 73
     2
  0
TEXT
  5
CE0
330
67
100
AcDbEntity
  8
文字
100
AcDbText
 10
3307.062182741117
 20
1065.877700836405
 30
0.0
 40
35.0
  1
参考重量　43kg
  7
文字
 72
     1
 11
3466.25
 21
1083.377700836405
 31
0.0
100
AcDbText
 73
     2
  0
LWPOLYLINE
  5
1190
330
67
100
AcDbEntity
  8
製品
100
AcDbPolyline
 90
        4
 70
     1
 43
0.0
 10
728.75
 20
2497.5
 10
1248.75
 20
2497.5
 10
1248.75
 20
1977.5
 10
728.75
 20
1977.5
  0
LWPOLYLINE
  5
1192
330
67
100
AcDbEntity
  8
製品
100
AcDbPolyline
 90
        4
 70
     1
 43
0.0
 10
728.75
 20
1072.5
 10
1248.75
 20
1072.5
 10
1248.75
 20
552.5
 10
728.75
 20
552.5
  0
LWPOLYLINE
  5
1193
330
67
100
AcDbEntity
  8
製品
100
AcDbPolyline
 90
        4
 70
     1
 43
0.0
 10
734.75
 20
2491.5
 10
1242.75
 20
2491.5
 10
1242.75
 20
1983.5
 10
734.75
 20
1983.5
  0
LWPOLYLINE
  5
1194
330
67
100
AcDbEntity
  8
製品
100
AcDbPolyline
 90
        4
 70
     1
 43
0.0
 10
731.7499999999999
 20
1069.5
 10
1245.75
 20
1069.5
 10
1245.75
 20
555.4999999999999
 10
731.7499999999999
 20
555.4999999999999
  0
LINE
  5
11BF
330
67
100
AcDbEntity
  8
製品
100
AcDbLine
 10
734.75
 20
2491.5
 30
0.0
 11
728.75
 21
2497.5
 31
0.0
  0
LINE
  5
11C0
330
67
100
AcDbEntity
  8
製品
100
AcDbLine
 10
1242.75
 20
2491.5
 30
0.0
 11
1248.75
 21
2497.5
 31
0.0
  0
LINE
  5
11C1
330
67
100
AcDbEntity
  8
製品
100
AcDbLine
 10
1248.75
 20
1977.5
 30
0.0
 11
1242.75
 21
1983.5
 31
0.0
  0
LINE
  5
11C2
330
67
100
AcDbEntity
  8
製品
100
AcDbLine
 10
728.75
 20
1977.5
 30
0.0
 11
734.75
 21
1983.5
 31
0.0
  0
LINE
  5
11C3
330
67
100
AcDbEntity
  8
製品
100
AcDbLine
 10
731.7499999999999
 20
1069.5
 30
0.0
 11
728.75
 21
1072.5
 31
0.0
  0
LINE
  5
11C4
330
67
100
AcDbEntity
  8
製品
100
AcDbLine
 10
1245.75
 20
1069.5
 30
0.0
 11
1248.75
 21
1072.5
 31
0.0
  0
LINE
  5
11C5
330
67
100
AcDbEntity
  8
製品
100
AcDbLine
 10
1248.75
 20
552.5
 30
0.0
 11
1245.75
 21
555.4999999999999
 31
0.0
  0
LINE
  5
11C6
330
67
100
AcDbEntity
  8
製品
100
AcDbLine
 10
728.75
 20
552.5
 30
0.0
 11
731.7499999999999
 21
555.4999999999999
 31
0.0
  0
LWPOLYLINE
  5
12AF
330
67
100
AcDbEntity
  8
製品2
100
AcDbPolyline
 90
        4
 70
     1
 43
0.0
 10
733.75
 20
1067.5
 10
1243.75
 20
1067.5
 10
1243.75
 20
557.5
 10
733.75
 20
557.5
  0
LWPOLYLINE
  5
12B0
330
67
100
AcDbEntity
  8
製品2
100
AcDbPolyline
 90
        4
 70
     1
 43
0.0
 10
773.7499999999999
 20
1027.5
 10
1203.75
 20
1027.5
 10
1203.75
 20
597.5
 10
773.7499999999999
 20
597.5
  0
LINE
  5
12B1
330
67
100
AcDbEntity
  8
製品
100
AcDbLine
 10
1198.75
 20
307.5
 30
0.0
 11
778.7500000000001
 21
307.5
 31
0.0
  0
LINE
  5
12B4
102
{ACAD_REACTORS
330
1304
102
}
330
67
100
AcDbEntity
  8
製品
100
AcDbLine
 10
1198.75
 20
307.5
 30
0.0
 11
1203.75
 21
312.5
 31
0.0
  0
LINE
  5
12B5
330
67
100
AcDbEntity
  8
製品
100
AcDbLine
 10
778.7500000000001
 20
307.5
 30
0.0
 11
773.7500000000001
 21
312.5
 31
0.0
  0
LWPOLYLINE
  5
12B6
330
67
100
AcDbEntity
  8
製品2
100
AcDbPolyline
 90
        4
 70
     1
 43
0.0
 10
778.75
 20
1022.5
 10
1198.75
 20
1022.5
 10
1198.75
 20
602.5
 10
778.75
 20
602.5
  0
DIMENSION
  5
12E9
102
{ACAD_XDICTIONARY
360
12F8
102
}
102
{ACAD_REACTORS
330
1304
102
}
330
67
100
AcDbEntity
  8
寸法
100
AcDbDimension
  2
*D31
 10
1355.95451629386
 20
307.5
 30
0.0
 11
1312.82951629386
 21
195.6250000000002
 31
0.0
 70
    32
 71
     5
 42
5.0
 73
     0
 74
     0
 75
     0
  3
ISO-25
100
AcDbAlignedDimension
 13
1243.75
 23
312.5
 33
0.0
 14
1198.75
 24
307.5
 34
0.0
 50
90.0
100
AcDbRotatedDimension
1001
ACAD
1000
DSTYLE
1002
{
1070
   343
1005
5EA
1070
   173
1070
     1
1070
   344
1005
0
1002
}
  0
ARC
  5
1318
330
67
100
AcDbEntity
  8
製品
100
AcDbCircle
 10
823.75
 20
2237.5
 30
0.0
 40
25.0
100
AcDbArc
 50
126.8698976458438
 51
233.1301023541562
  0
ARC
  5
131D
330
67
100
AcDbEntity
  8
製品
100
AcDbCircle
 10
823.75
 20
2290.0
 30
0.0
 40
15.0
100
AcDbArc
 50
0.0
 51
180.0
  0
ARC
  5
131E
330
67
100
AcDbEntity
  8
製品
100
AcDbCircle
 10
823.75
 20
2185.0
 30
0.0
 40
15.0
100
AcDbArc
 50
180.0
 51
0.0
  0
LINE
  5
131F
330
67
100
AcDbEntity
  8
製品
100
AcDbLine
 10
808.75
 20
2290.0
 30
0.0
 11
808.75
 21
2257.5
 31
0.0
  0
LINE
  5
1320
330
67
100
AcDbEntity
  8
製品
100
AcDbLine
 10
838.7499999999999
 20
2290.0
 30
0.0
 11
838.7499999999999
 21
2257.5
 31
0.0
  0
LINE
  5
1321
330
67
100
AcDbEntity
  8
製品
100
AcDbLine
 10
808.75
 20
2217.5
 30
0.0
 11
808.75
 21
2185.0
 31
0.0
  0
LINE
  5
1322
330
67
100
AcDbEntity
  8
製品
100
AcDbLine
 10
838.7499999999999
 20
2217.5
 30
0.0
 11
838.7499999999999
 21
2185.0
 31
0.0
  0
ARC
  5
1323
330
67
100
AcDbEntity
  8
製品
100
AcDbCircle
 10
823.75
 20
2237.5
 30
0.0
 40
25.0
100
AcDbArc
 50
306.8698976458438
 51
53.13010235415621
  0
ARC
  5
1324
330
67
100
AcDbEntity
  8
製品
100
AcDbCircle
 10
823.75
 20
2290.0
 30
0.0
 40
12.0
100
AcDbArc
 50
0.0
 51
180.0
  0
LINE
  5
1325
330
67
100
AcDbEntity
  8
製品
100
AcDbLine
 10
835.7499999999999
 20
2290.0
 30
0.0
 11
835.7499999999999
 21
2255.939088914586
 31
0.0
  0
LINE
  5
1326
330
67
100
AcDbEntity
  8
製品
100
AcDbLine
 10
811.7499999999999
 20
2290.0
 30
0.0
 11
811.7499999999999
 21
2255.939088914586
 31
0.0
  0
ARC
  5
1327
330
67
100
AcDbEntity
  8
製品
100
AcDbCircle
 10
823.75
 20
2237.5
 30
0.0
 40
22.0
100
AcDbArc
 50
123.0557311508548
 51
236.9442688491452
  0
ARC
  5
1328
330
67
100
AcDbEntity
  8
製品
100
AcDbCircle
 10
823.75
 20
2237.5
 30
0.0
 40
22.0
100
AcDbArc
 50
303.0557311508548
 51
56.94426884914521
  0
LINE
  5
1329
330
67
100
AcDbEntity
  8
製品
100
AcDbLine
 10
835.7499999999999
 20
2219.060911085414
 30
0.0
 11
835.7499999999999
 21
2185.0
 31
0.0
  0
LINE
  5
132A
330
67
100
AcDbEntity
  8
製品
100
AcDbLine
 10
811.7499999999999
 20
2219.060911085414
 30
0.0
 11
811.7499999999999
 21
2185.0
 31
0.0
  0
ARC
  5
132B
330
67
100
AcDbEntity
  8
製品
100
AcDbCircle
 10
823.75
 20
2185.0
 30
0.0
 40
12.0
100
AcDbArc
 50
180.0
 51
0.0
  0
LINE
  5
135B
330
67
100
AcDbEntity
  8
製品
100
AcDbLine
 10
798.7499999999999
 20
1787.5
 30
0.0
 11
801.75
 21
1776.5
 31
0.0
  0
LINE
  5
135C
330
67
100
AcDbEntity
  8
製品
100
AcDbLine
 10
808.75
 20
1787.5
 30
0.0
 11
811.7499999999999
 21
1776.5
 31
0.0
  0
LINE
  5
135D
330
67
100
AcDbEntity
  8
製品
100
AcDbLine
 10
838.7499999999999
 20
1787.5
 30
0.0
 11
835.7499999999999
 21
1776.5
 31
0.0
  0
LINE
  5
135E
330
67
100
AcDbEntity
  8
製品
100
AcDbLine
 10
848.75
 20
1787.5
 30
0.0
 11
845.7499999999999
 21
1776.5
 31
0.0
  0
CIRCLE
  5
1367
330
67
100
AcDbEntity
  8
製品
100
AcDbCircle
 10
823.75
 20
2184.0
 30
0.0
 40
5.0
  0
CIRCLE
  5
1368
330
67
100
AcDbEntity
  8
製品
100
AcDbCircle
 10
823.75
 20
2291.0
 30
0.0
 40
5.0
  0
ARC
  5
1369
330
67
100
AcDbEntity
  8
製品
100
AcDbCircle
 10
1153.75
 20
2237.5
 30
0.0
 40
25.0
100
AcDbArc
 50
126.8698976458454
 51
233.1301023541545
  0
ARC
  5
136A
330
67
100
AcDbEntity
  8
製品
100
AcDbCircle
 10
1153.75
 20
2237.5
 30
0.0
 40
22.0
100
AcDbArc
 50
123.055731150855
 51
236.944268849145
  0
ARC
  5
136B
330
67
100
AcDbEntity
  8
製品
100
AcDbCircle
 10
1153.75
 20
2237.5
 30
0.0
 40
25.0
100
AcDbArc
 50
306.8698976458454
 51
53.13010235415458
  0
ARC
  5
136C
330
67
100
AcDbEntity
  8
製品
100
AcDbCircle
 10
1153.75
 20
2237.5
 30
0.0
 40
22.0
100
AcDbArc
 50
303.055731150855
 51
56.944268849145
  0
ARC
  5
136D
330
67
100
AcDbEntity
  8
製品
100
AcDbCircle
 10
1153.75
 20
2290.0
 30
0.0
 40
15.0
100
AcDbArc
 50
0.0
 51
180.0
  0
ARC
  5
136E
330
67
100
AcDbEntity
  8
製品
100
AcDbCircle
 10
1153.75
 20
2290.0
 30
0.0
 40
12.0
100
AcDbArc
 50
0.0
 51
180.0
  0
ARC
  5
136F
330
67
100
AcDbEntity
  8
製品
100
AcDbCircle
 10
1153.75
 20
2185.0
 30
0.0
 40
15.0
100
AcDbArc
 50
180.0
 51
0.0
  0
ARC
  5
1370
330
67
100
AcDbEntity
  8
製品
100
AcDbCircle
 10
1153.75
 20
2185.0
 30
0.0
 40
12.0
100
AcDbArc
 50
180.0
 51
0.0
  0
LINE
  5
1371
330
67
100
AcDbEntity
  8
製品
100
AcDbLine
 10
1138.75
 20
2290.0
 30
0.0
 11
1138.75
 21
2257.5
 31
0.0
  0
LINE
  5
1372
330
67
100
AcDbEntity
  8
製品
100
AcDbLine
 10
1141.75
 20
2290.0
 30
0.0
 11
1141.75
 21
2255.939088914586
 31
0.0
  0
LINE
  5
1373
330
67
100
AcDbEntity
  8
製品
100
AcDbLine
 10
1168.75
 20
2290.0
 30
0.0
 11
1168.75
 21
2257.5
 31
0.0
  0
LINE
  5
1374
330
67
100
AcDbEntity
  8
製品
100
AcDbLine
 10
1165.75
 20
2290.0
 30
0.0
 11
1165.75
 21
2255.939088914586
 31
0.0
  0
LINE
  5
1375
330
67
100
AcDbEntity
  8
製品
100
AcDbLine
 10
1138.75
 20
2217.5
 30
0.0
 11
1138.75
 21
2185.0
 31
0.0
  0
LINE
  5
1376
330
67
100
AcDbEntity
  8
製品
100
AcDbLine
 10
1141.75
 20
2219.060911085414
 30
0.0
 11
1141.75
 21
2185.0
 31
0.0
  0
LINE
  5
1377
330
67
100
AcDbEntity
  8
製品
100
AcDbLine
 10
1168.75
 20
2217.5
 30
0.0
 11
1168.75
 21
2185.0
 31
0.0
  0
LINE
  5
1378
330
67
100
AcDbEntity
  8
製品
100
AcDbLine
 10
1165.75
 20
2219.060911085414
 30
0.0
 11
1165.75
 21
2185.0
 31
0.0
  0
CIRCLE
  5
1379
330
67
100
AcDbEntity
  8
製品
100
AcDbCircle
 10
1153.75
 20
2184.0
 30
0.0
 40
5.0
  0
CIRCLE
  5
137A
330
67
100
AcDbEntity
  8
製品
100
AcDbCircle
 10
1153.75
 20
2291.0
 30
0.0
 40
5.0
  0
LINE
  5
137D
330
67
100
AcDbEntity
  8
製品
100
AcDbLine
 10
818.75
 20
1776.5
 30
0.0
 11
818.75
 21
1737.5
 31
0.0
  0
LINE
  5
137E
330
67
100
AcDbEntity
  8
製品
100
AcDbLine
 10
828.7499999999999
 20
1776.5
 30
0.0
 11
828.7499999999999
 21
1737.5
 31
0.0
  0
LINE
  5
137F
330
67
100
AcDbEntity
  8
製品
100
AcDbLine
 10
1128.75
 20
1787.5
 30
0.0
 11
1131.75
 21
1776.5
 31
0.0
  0
LINE
  5
1380
330
67
100
AcDbEntity
  8
製品
100
AcDbLine
 10
1138.75
 20
1787.5
 30
0.0
 11
1141.75
 21
1776.5
 31
0.0
  0
LINE
  5
1381
330
67
100
AcDbEntity
  8
製品
100
AcDbLine
 10
1168.75
 20
1787.5
 30
0.0
 11
1165.75
 21
1776.5
 31
0.0
  0
LINE
  5
1382
330
67
100
AcDbEntity
  8
製品
100
AcDbLine
 10
1178.75
 20
1787.5
 30
0.0
 11
1175.75
 21
1776.5
 31
0.0
  0
LINE
  5
1383
330
67
100
AcDbEntity
  8
製品
100
AcDbLine
 10
1148.75
 20
1776.5
 30
0.0
 11
1148.75
 21
1737.5
 31
0.0
  0
LINE
  5
1384
330
67
100
AcDbEntity
  8
製品
100
AcDbLine
 10
1158.75
 20
1776.5
 30
0.0
 11
1158.75
 21
1737.5
 31
0.0
  0
ARC
  5
1390
330
67
100
AcDbEntity
  8
製品
100
AcDbCircle
 10
856.25
 20
860.0
 30
0.0
 40
22.5
100
AcDbArc
 50
0.0
 51
180.0
  0
ARC
  5
1391
330
67
100
AcDbEntity
  8
製品
100
AcDbCircle
 10
856.25
 20
765.0
 30
0.0
 40
22.5
100
AcDbArc
 50
180.0
 51
0.0
  0
LINE
  5
1392
330
67
100
AcDbEntity
  8
製品
100
AcDbLine
 10
833.75
 20
860.0
 30
0.0
 11
833.75
 21
765.0
 31
0.0
  0
LINE
  5
1393
330
67
100
AcDbEntity
  8
製品
100
AcDbLine
 10
878.7499999999999
 20
860.0
 30
0.0
 11
878.7499999999999
 21
765.0
 31
0.0
  0
ARC
  5
1394
330
67
100
AcDbEntity
  8
製品
100
AcDbCircle
 10
856.25
 20
860.0
 30
0.0
 40
19.5
100
AcDbArc
 50
0.0
 51
180.0
  0
LINE
  5
1395
330
67
100
AcDbEntity
  8
製品
100
AcDbLine
 10
875.75
 20
860.0
 30
0.0
 11
875.75
 21
765.0
 31
0.0
  0
LINE
  5
1396
330
67
100
AcDbEntity
  8
製品
100
AcDbLine
 10
836.7499999999999
 20
860.0
 30
0.0
 11
836.7499999999999
 21
765.0
 31
0.0
  0
ARC
  5
1397
330
67
100
AcDbEntity
  8
製品
100
AcDbCircle
 10
856.25
 20
765.0
 30
0.0
 40
19.5
100
AcDbArc
 50
180.0
 51
0.0
  0
ARC
  5
1398
330
67
100
AcDbEntity
  8
製品
100
AcDbCircle
 10
856.25
 20
860.0
 30
0.0
 40
17.0
100
AcDbArc
 50
0.0
 51
180.0
  0
LINE
  5
1399
330
67
100
AcDbEntity
  8
製品
100
AcDbLine
 10
873.2499999999999
 20
860.0
 30
0.0
 11
873.2499999999999
 21
765.0
 31
0.0
  0
LINE
  5
139A
330
67
100
AcDbEntity
  8
製品
100
AcDbLine
 10
839.25
 20
860.0
 30
0.0
 11
839.25
 21
765.0
 31
0.0
  0
ARC
  5
139B
330
67
100
AcDbEntity
  8
製品
100
AcDbCircle
 10
856.25
 20
765.0
 30
0.0
 40
17.0
100
AcDbArc
 50
180.0
 51
0.0
  0
ARC
  5
13A1
330
67
100
AcDbEntity
  8
製品
100
AcDbCircle
 10
1121.25
 20
860.0
 30
0.0
 40
22.5
100
AcDbArc
 50
0.0
 51
180.0
  0
ARC
  5
13A2
330
67
100
AcDbEntity
  8
製品
100
AcDbCircle
 10
1121.25
 20
860.0
 30
0.0
 40
19.5
100
AcDbArc
 50
0.0
 51
180.0
  0
ARC
  5
13A3
330
67
100
AcDbEntity
  8
製品
100
AcDbCircle
 10
1121.25
 20
860.0
 30
0.0
 40
17.0
100
AcDbArc
 50
0.0
 51
180.0
  0
ARC
  5
13A4
330
67
100
AcDbEntity
  8
製品
100
AcDbCircle
 10
1121.25
 20
765.0
 30
0.0
 40
22.5
100
AcDbArc
 50
180.0
 51
0.0
  0
ARC
  5
13A5
330
67
100
AcDbEntity
  8
製品
100
AcDbCircle
 10
1121.25
 20
765.0
 30
0.0
 40
19.5
100
AcDbArc
 50
180.0
 51
0.0
  0
ARC
  5
13A6
330
67
100
AcDbEntity
  8
製品
100
AcDbCircle
 10
1121.25
 20
765.0
 30
0.0
 40
17.0
100
AcDbArc
 50
180.0
 51
0.0
  0
LINE
  5
13A7
330
67
100
AcDbEntity
  8
製品
100
AcDbLine
 10
1098.75
 20
860.0
 30
0.0
 11
1098.75
 21
765.0
 31
0.0
  0
LINE
  5
13A8
330
67
100
AcDbEntity
  8
製品
100
AcDbLine
 10
1101.75
 20
860.0
 30
0.0
 11
1101.75
 21
765.0
 31
0.0
  0
LINE
  5
13A9
330
67
100
AcDbEntity
  8
製品
100
AcDbLine
 10
1104.25
 20
860.0
 30
0.0
 11
1104.25
 21
765.0
 31
0.0
  0
LINE
  5
13AA
330
67
100
AcDbEntity
  8
製品
100
AcDbLine
 10
1143.75
 20
860.0
 30
0.0
 11
1143.75
 21
765.0
 31
0.0
  0
LINE
  5
13AB
330
67
100
AcDbEntity
  8
製品
100
AcDbLine
 10
1140.75
 20
860.0
 30
0.0
 11
1140.75
 21
765.0
 31
0.0
  0
LINE
  5
13AC
330
67
100
AcDbEntity
  8
製品
100
AcDbLine
 10
1138.25
 20
860.0
 30
0.0
 11
1138.25
 21
765.0
 31
0.0
  0
LINE
  5
13AE
330
67
100
AcDbEntity
  8
製品
100
AcDbLine
 10
773.7500000000001
 20
312.5
 30
0.0
 11
733.7500000000001
 21
312.5
 31
0.0
  0
LINE
  5
13AF
330
67
100
AcDbEntity
  8
製品2
100
AcDbLine
 10
773.7500000000001
 20
312.5
 30
0.0
 11
1203.75
 21
312.5
 31
0.0
  0
LINE
  5
13B2
330
67
100
AcDbEntity
  8
製品
100
AcDbLine
 10
833.75
 20
362.5
 30
0.0
 11
836.7499999999999
 21
359.5
 31
0.0
  0
LINE
  5
13B3
330
67
100
AcDbEntity
  8
製品
100
AcDbLine
 10
836.7499999999999
 20
359.5
 30
0.0
 11
839.25
 21
307.5
 31
0.0
  0
LINE
  5
13B4
330
67
100
AcDbEntity
  8
製品2
100
AcDbLine
 10
878.7499999999999
 20
362.5
 30
0.0
 11
875.75
 21
359.5
 31
0.0
  0
LINE
  5
13B5
330
67
100
AcDbEntity
  8
製品2
100
AcDbLine
 10
875.75
 20
359.5
 30
0.0
 11
873.2499999999999
 21
307.5
 31
0.0
  0
LINE
  5
13B6
330
67
100
AcDbEntity
  8
製品
100
AcDbLine
 10
1098.75
 20
362.5
 30
0.0
 11
1101.75
 21
359.5000000000001
 31
0.0
  0
LINE
  5
13B7
330
67
100
AcDbEntity
  8
製品
100
AcDbLine
 10
1101.75
 20
359.5000000000001
 30
0.0
 11
1104.25
 21
307.5000000000001
 31
0.0
  0
LINE
  5
13B8
330
67
100
AcDbEntity
  8
製品2
100
AcDbLine
 10
1143.75
 20
362.5
 30
0.0
 11
1140.75
 21
359.5000000000001
 31
0.0
  0
LINE
  5
13B9
330
67
100
AcDbEntity
  8
製品2
100
AcDbLine
 10
1140.75
 20
359.5000000000001
 30
0.0
 11
1138.25
 21
307.5000000000001
 31
0.0
  0
LWPOLYLINE
  5
13BB
330
67
100
AcDbEntity
  8
製品
100
AcDbPolyline
 90
        8
 70
     1
 43
0.0
 10
1911.5
 20
2512.500000000001
 10
2543.5
 20
2512.500000000001
 10
2552.5
 20
2503.500000000001
 10
2552.5
 20
1871.499999999999
 10
2543.5
 20
1862.5
 10
1911.5
 20
1862.5
 10
1902.5
 20
1871.5
 10
1902.5
 20
2503.500000000001
  0
LINE
  5
13BD
330
67
100
AcDbEntity
  8
製品
100
AcDbLine
 10
1902.5
 20
2503.500000000001
 30
0.0
 11
2552.5
 21
2503.500000000001
 31
0.0
  0
LINE
  5
13BF
330
67
100
AcDbEntity
  8
製品
100
AcDbLine
 10
2543.5
 20
2512.500000000001
 30
0.0
 11
2543.5
 21
1862.5
 31
0.0
  0
LINE
  5
13C1
330
67
100
AcDbEntity
  8
製品
100
AcDbLine
 10
2552.5
 20
1871.5
 30
0.0
 11
1902.5
 21
1871.5
 31
0.0
  0
LINE
  5
13C3
330
67
100
AcDbEntity
  8
製品
100
AcDbLine
 10
1911.5
 20
1862.5
 30
0.0
 11
1911.5
 21
2512.500000000001
 31
0.0
  0
LWPOLYLINE
  5
13F2
330
67
100
AcDbEntity
  8
製品
100
AcDbPolyline
 90
        4
 70
     1
 43
0.0
 10
1962.5
 20
2452.500000000001
 10
2492.5
 20
2452.500000000001
 10
2492.5
 20
1922.499999999999
 10
1962.500000000001
 20
1922.5
  0
LWPOLYLINE
  5
13F3
330
67
100
AcDbEntity
  8
製品
100
AcDbPolyline
 90
        4
 70
     1
 43
0.0
 10
1967.5
 20
2447.500000000001
 10
2487.5
 20
2447.500000000001
 10
2487.5
 20
1927.499999999999
 10
1967.500000000001
 20
1927.5
  0
LWPOLYLINE
  5
13F4
330
67
100
AcDbEntity
  8
製品
100
AcDbPolyline
 90
        4
 70
     1
 43
0.0
 10
1997.5
 20
2417.5
 10
2457.5
 20
2417.5
 10
2457.5
 20
1957.499999999999
 10
1997.500000000001
 20
1957.5
  0
LWPOLYLINE
  5
13F5
330
67
100
AcDbEntity
  8
製品
100
AcDbPolyline
 90
        4
 70
     1
 43
0.0
 10
2002.5
 20
2412.5
 10
2452.500000000001
 20
2412.5
 10
2452.500000000001
 20
1962.5
 10
2002.500000000001
 20
1962.5
  0
LINE
  5
1435
330
67
100
AcDbEntity
  8
製品
100
AcDbLine
 10
801.75
 20
1776.5
 30
0.0
 11
845.7499999999999
 21
1776.5
 31
0.0
  0
LINE
  5
1436
330
67
100
AcDbEntity
  8
製品
100
AcDbLine
 10
1131.75
 20
1776.5
 30
0.0
 11
1175.75
 21
1776.5
 31
0.0
  0
LWPOLYLINE
  5
1570
330
67
100
AcDbEntity
  8
製品
100
AcDbPolyline
 90
        8
 70
     1
 43
0.0
 10
3200.25
 20
2472.5
 10
3732.25
 20
2472.5
 10
3751.250000000001
 20
2453.5
 10
3751.25
 20
1921.5
 10
3732.25
 20
1902.5
 10
3200.25
 20
1902.5
 10
3181.25
 20
1921.5
 10
3181.25
 20
2453.5
  0
LINE
  5
15A4
330
67
100
AcDbEntity
  8
製品
100
AcDbLine
 10
3269.25
 20
2412.5
 30
0.0
 11
3663.25
 21
2412.5
 31
0.0
  0
LINE
  5
15A5
330
67
100
AcDbEntity
  8
製品
100
AcDbLine
 10
3691.25
 20
2384.5
 30
0.0
 11
3691.25
 21
1990.5
 31
0.0
  0
LINE
  5
15A6
330
67
100
AcDbEntity
  8
製品
100
AcDbLine
 10
3663.25
 20
1962.5
 30
0.0
 11
3269.25
 21
1962.5
 31
0.0
  0
LINE
  5
15A7
330
67
100
AcDbEntity
  8
製品
100
AcDbLine
 10
3241.25
 20
1990.5
 30
0.0
 11
3241.25
 21
2384.5
 31
0.0
  0
ARC
  5
166B
330
67
100
AcDbEntity
  8
製品
100
AcDbCircle
 10
3663.25
 20
2384.5
 30
0.0
 40
28.0
100
AcDbArc
 50
0.0
 51
90.0
  0
ARC
  5
166C
330
67
100
AcDbEntity
  8
製品
100
AcDbCircle
 10
3269.25
 20
2384.5
 30
0.0
 40
28.0
100
AcDbArc
 50
90.0
 51
180.0
  0
ARC
  5
166D
330
67
100
AcDbEntity
  8
製品
100
AcDbCircle
 10
3269.25
 20
1990.5
 30
0.0
 40
28.0
100
AcDbArc
 50
180.0
 51
270.0
  0
ARC
  5
166E
330
67
100
AcDbEntity
  8
製品
100
AcDbCircle
 10
3663.25
 20
1990.5
 30
0.0
 40
28.0
100
AcDbArc
 50
270.0
 51
0.0
  0
LINE
  5
178D
330
67
100
AcDbEntity
  8
鉄筋
100
AcDbLine
 10
748.7499999999999
 20
2462.5
 30
0.0
 11
1228.75
 21
2462.5
 31
0.0
  0
LINE
  5
178E
330
67
100
AcDbEntity
  8
鉄筋
100
AcDbLine
 10
763.75
 20
2477.5
 30
0.0
 11
763.75
 21
1997.5
 31
0.0
  0
LINE
  5
178F
330
67
100
AcDbEntity
  8
鉄筋
100
AcDbLine
 10
748.7499999999999
 20
2352.5
 30
0.0
 11
1228.75
 21
2352.5
 31
0.0
  0
LINE
  5
1790
330
67
100
AcDbEntity
  8
鉄筋
100
AcDbLine
 10
748.7499999999999
 20
2122.5
 30
0.0
 11
1228.75
 21
2122.5
 31
0.0
  0
LINE
  5
1791
330
67
100
AcDbEntity
  8
鉄筋
100
AcDbLine
 10
748.7499999999999
 20
2012.5
 30
0.0
 11
1228.75
 21
2012.5
 31
0.0
  0
LINE
  5
1792
330
67
100
AcDbEntity
  8
鉄筋
100
AcDbLine
 10
893.75
 20
2477.5
 30
0.0
 11
893.75
 21
1997.5
 31
0.0
  0
LINE
  5
1793
330
67
100
AcDbEntity
  8
鉄筋
100
AcDbLine
 10
1083.75
 20
2477.5
 30
0.0
 11
1083.75
 21
1997.5
 31
0.0
  0
LINE
  5
1794
330
67
100
AcDbEntity
  8
鉄筋
100
AcDbLine
 10
1213.75
 20
2477.5
 30
0.0
 11
1213.75
 21
1997.5
 31
0.0
  0
LINE
  5
1798
330
67
100
AcDbEntity
  8
鉄筋
100
AcDbLine
 10
748.7499999999999
 20
1752.5
 30
0.0
 11
1228.75
 21
1752.5
 31
0.0
  0
CIRCLE
  5
1799
330
67
100
AcDbEntity
  8
鉄筋2
100
AcDbCircle
 10
763.75
 20
1755.5
 30
0.0
 40
3.0
  0
CIRCLE
  5
179A
330
67
100
AcDbEntity
  8
鉄筋2
100
AcDbCircle
 10
893.75
 20
1755.5
 30
0.0
 40
3.0
  0
CIRCLE
  5
179B
330
67
100
AcDbEntity
  8
鉄筋2
100
AcDbCircle
 10
1083.75
 20
1755.5
 30
0.0
 40
3.0
  0
CIRCLE
  5
179C
330
67
100
AcDbEntity
  8
鉄筋2
100
AcDbCircle
 10
1213.75
 20
1755.5
 30
0.0
 40
3.0
  0
LINE
  5
179D
330
67
100
AcDbEntity
  8
鉄筋
100
AcDbLine
 10
748.7500000000001
 20
1037.5
 30
0.0
 11
1228.75
 21
1037.5
 31
0.0
  0
LINE
  5
179E
330
67
100
AcDbEntity
  8
鉄筋
100
AcDbLine
 10
748.7500000000001
 20
927.5
 30
0.0
 11
1228.75
 21
927.5
 31
0.0
  0
LINE
  5
179F
330
67
100
AcDbEntity
  8
鉄筋
100
AcDbLine
 10
748.7500000000001
 20
697.5
 30
0.0
 11
1228.75
 21
697.5
 31
0.0
  0
LINE
  5
17A0
330
67
100
AcDbEntity
  8
鉄筋
100
AcDbLine
 10
748.7500000000001
 20
587.5
 30
0.0
 11
1228.75
 21
587.5
 31
0.0
  0
LINE
  5
17A1
330
67
100
AcDbEntity
  8
鉄筋
100
AcDbLine
 10
893.75
 20
1052.5
 30
0.0
 11
893.75
 21
572.5
 31
0.0
  0
LINE
  5
17A2
330
67
100
AcDbEntity
  8
鉄筋
100
AcDbLine
 10
1083.75
 20
1052.5
 30
0.0
 11
1083.75
 21
572.5
 31
0.0
  0
LINE
  5
17A3
330
67
100
AcDbEntity
  8
鉄筋
100
AcDbLine
 10
1213.75
 20
1052.5
 30
0.0
 11
1213.75
 21
572.5
 31
0.0
  0
LINE
  5
17A4
330
67
100
AcDbEntity
  8
鉄筋
100
AcDbLine
 10
748.7500000000001
 20
327.5
 30
0.0
 11
1228.75
 21
327.5
 31
0.0
  0
CIRCLE
  5
17A5
330
67
100
AcDbEntity
  8
鉄筋2
100
AcDbCircle
 10
763.7500000000001
 20
330.5
 30
0.0
 40
3.0
  0
CIRCLE
  5
17A6
330
67
100
AcDbEntity
  8
鉄筋2
100
AcDbCircle
 10
893.75
 20
330.5
 30
0.0
 40
3.0
  0
CIRCLE
  5
17A7
330
67
100
AcDbEntity
  8
鉄筋2
100
AcDbCircle
 10
1083.75
 20
330.5
 30
0.0
 40
3.0
  0
CIRCLE
  5
17A8
330
67
100
AcDbEntity
  8
鉄筋2
100
AcDbCircle
 10
1213.75
 20
330.5
 30
0.0
 40
3.0
  0
LINE
  5
17A9
330
67
100
AcDbEntity
  8
鉄筋
100
AcDbLine
 10
763.75
 20
1052.5
 30
0.0
 11
763.75
 21
572.5
 31
0.0
  0
MULTILEADER
  5
17B5
330
67
100
AcDbEntity
  8
寸法
 92
     1064
310
280400001A0000000C00000016000000000000C00C00000033000000000000000C00000013000000993A0000BC000000260000006D0F0575FD4E8F4071F48F989CDE9D40000000000000000000000000000000000000000000000000000000000000F03F000000000000F03F00000000000000000000000000000000C60300
310
0001000000010000000000000000003E40000000000000F03F0000000000000000000000000000F03F0000000000000000000000000000000000000000000000000000000001000000320000002DFF33FF200030FFB430B730C330AF30000079000000000000004600BC00000026000000E5416B5D0A56904071F48F989CDE
310
9D40000000000000000000000000000000000000000000000000000000000000F03F000000000000F03F0000000000000000000000000000000036002D003400000003000000010000000000000000003E40000000000000F03F0000000000000000000000000000F03F000000000000000000000000000000000000000000
310
000000000000000100000000000000000000007400780074002E0073006800780000000000A22DBC00000026000000E5416B5D0ABE914071F48F989CDE9D40000000000000000000000000000000000000000000000000000000000000F03F000000000000F03F000000000000000000000000000000002C67000001000000
310
010000000000000000003E40000000000000F03F0000000000000000000000000000F03F0000000000000000000000000000000000000000000000000000000001000000320000002DFF33FF200030FFB430B730C330AF3000002E0000000000000000000C00000033000000000000000C00000010000000050000000C0000
310
0016000000000000C00C00000012000000FF7F00000C00000013000000010000000C0000001400000001000000540000000700000003000000D1C85C288FBE8E406800E727F4F99E4000000000000000000000000000E68E400000000000729F40000000000000000089CB221A8F0E8F406FF7C6020CFA9E40000000000000
310
00000C00000013000000891300003C00000006000000020000002DCA3F218FE68E40EBFB561500FA9E400000000000000000109B332FE6E78E408851046A62DA9D4000000000000000000C00000013000000112700003C0000000600000002000000109B332FE6E78E408851046A62DA9D40000000000000000043CE666219
310
138F408851046A62DA9D4000000000000000000C00000016000000000000C00C00000012000000FF7F00000C00000017000000000000000C000000130000009A3A00003C000000060000000200000043CE666219138F408851046A62DA9D4000000000000000009F2A0EE9B86392408851046A62DA9D400000000000000000
310
0C00000016000000000000C00C00000012000000FF7F00000C00000017000000FFFFFFFF0C0000003300000000000000
100
AcDbMLeader
300
CONTEXT_DATA{
 40
15.0
 10
994.3873947173782
 20
1910.596107547261
 30
0.0
 41
30.0
140
30.0
145
16.35
174
     6
175
     6
176
     0
177
     0
290
     1
304
{\fMS PGothic|b0|i0|c128|p50;φ}6-4{\fMS PGothic|b0|i0|c128|p50;本}
 11
0.0
 21
0.0
 31
1.0
340
50
 12
1010.737394717378
 22
1946.59610754726
 32
0.0
 13
1.0
 23
0.0
 33
0.0
 42
0.0
 43
0.0
 44
0.0
 45
1.0
170
     1
 90
-1073741824
171
     1
172
     5
 91
-1073741824
141
0.0
 92
        0
291
     0
292
     0
173
     0
293
     0
142
0.0
143
0.0
294
     0
295
     0
296
     0
110
988.7500000000001
120
2012.5
130
0.0
111
1.0
121
0.0
131
0.0
112
0.0
122
1.0
132
0.0
297
     0
302
LEADER{
290
     1
291
     1
 10
988.9873947173782
 20
1910.596107547261
 30
0.0
 11
1.0
 21
0.0
 31
0.0
 90
        0
 40
5.399999999999999
304
LEADER_LINE{
 10
988.7500000000001
 20
2012.5
 30
0.0
 91
        0
305
}
303
}
301
}
340
62
 90
   279552
170
     1
 91
-1056964608
341
56
171
    -2
290
     1
291
     1
 41
0.36
 42
2.0
172
     2
343
50
173
     6
 95
        6
174
     1
175
     0
 92
-1056964608
292
     0
 93
-1056964608
 10
1.0
 20
1.0
 30
1.0
 43
0.0
176
     0
293
     0
294
     0
178
     0
179
     1
 45
15.0
1001
ACAD_MLEADERVER
1070
     2
  0
MTEXT
  5
17B7
330
67
100
AcDbEntity
  8
寸法
100
AcDbMText
 10
1210.5
 20
2382.5
 30
0.0
 40
30.0
 41
0.0
 46
0.0
 71
     1
 72
     5
  1

 73
     1
 44
1.0
  0
LWPOLYLINE
  5
17B9
330
67
100
AcDbEntity
  8
寸法
  6
ByBlock
370
    -2
100
AcDbPolyline
 90
        2
 70
     0
 43
0.0
 10
988.7500000000001
 20
2432.5
 10
988.7500000000001
 20
2352.5
  0
SOLID
  5
17BA
330
67
100
AcDbEntity
  8
寸法
100
AcDbTrace
 10
983.75
 20
2432.5
 30
0.0
 11
988.7500000000001
 21
2462.5
 31
0.0
 12
993.75
 22
2432.5
 32
0.0
 13
993.75
 23
2432.5
 33
0.0
  0
MTEXT
  5
17BC
330
67
100
AcDbEntity
  8
寸法
100
AcDbMText
 10
1210.5
 20
2152.5
 30
0.0
 40
30.0
 41
0.0
 46
0.0
 71
     1
 72
     5
  1

 73
     1
 44
1.0
  0
LWPOLYLINE
  5
17BE
330
67
100
AcDbEntity
  8
寸法
  6
ByBlock
370
    -2
100
AcDbPolyline
 90
        2
 70
     0
 43
0.0
 10
988.7500000000001
 20
2322.5
 10
988.7500000000001
 20
2122.5
  0
SOLID
  5
17BF
330
67
100
AcDbEntity
  8
寸法
100
AcDbTrace
 10
983.75
 20
2322.5
 30
0.0
 11
988.7500000000001
 21
2352.5
 31
0.0
 12
993.75
 22
2322.5
 32
0.0
 13
993.75
 23
2322.5
 33
0.0
  0
MTEXT
  5
17C1
330
67
100
AcDbEntity
  8
寸法
100
AcDbMText
 10
1210.5
 20
2042.5
 30
0.0
 40
30.0
 41
0.0
 46
0.0
 71
     1
 72
     5
  1

 73
     1
 44
1.0
  0
LWPOLYLINE
  5
17C3
330
67
100
AcDbEntity
  8
寸法
  6
ByBlock
370
    -2
100
AcDbPolyline
 90
        2
 70
     0
 43
0.0
 10
988.7500000000001
 20
2092.5
 10
988.7500000000001
 20
2012.5
  0
SOLID
  5
17C4
330
67
100
AcDbEntity
  8
寸法
100
AcDbTrace
 10
983.75
 20
2092.5
 30
0.0
 11
988.7500000000001
 21
2122.5
 31
0.0
 12
993.75
 22
2092.5
 32
0.0
 13
993.75
 23
2092.5
 33
0.0
  0
MULTILEADER
  5
17C6
330
67
100
AcDbEntity
  8
寸法
 92
      500
310
F4010000170000000C00000016000000000000C00C00000033000000000000000C00000013000000993A00000C00000033000000000000000C00000010000000050000000C00000016000000000000C00C00000012000000FF7F00000C00000013000000010000000C00000014000000010000005400000007000000030000
310
0000000000007F9240000000000031A04000000000000000000000000000F79240000000000027A040000000000000000000000000007F924000000000001DA04000000000000000000C00000013000000891300003C000000060000000200000000000000007F9240000000000027A04000000000000000000000000000EF
310
9040000000000027A04000000000000000000C00000013000000112700003C00000006000000020000000000000000EF9040000000000027A04000000000000000006666666666D99040000000000027A04000000000000000000C00000016000000000000C00C00000012000000FF7F00000C00000017000000000000000C
310
000000130000009A3A00003C0000000600000002000000FFFFFFFFFF979040000000000027A04000000000000000006566666666D99040000000000027A04000000000000000000C00000016000000000000C00C00000012000000FF7F00000C00000017000000FFFFFFFF0C0000003300000000000000
100
AcDbMLeader
300
CONTEXT_DATA{
 40
15.0
 10
1045.65
 20
2067.5
 30
0.0
 41
30.0
140
30.0
145
16.35
174
     6
175
     6
176
     2
177
     0
290
     1
304

 11
0.0
 21
0.0
 31
1.0
340
50
 12
1062.0
 22
2097.5
 32
0.0
 13
1.0
 23
0.0
 33
0.0
 42
0.0
 43
0.0
 44
0.0
 45
1.0
170
     1
 90
-1073741824
171
     3
172
     5
 91
-1073741824
141
0.0
 92
        0
291
     0
292
     0
173
     0
293
     0
142
0.0
143
0.0
294
     0
295
     0
296
     0
110
1213.75
120
2067.5
130
0.0
111
1.0
121
0.0
131
0.0
112
0.0
122
1.0
132
0.0
297
     0
302
LEADER{
290
     1
291
     1
 10
1083.75
 20
2067.5
 30
0.0
 11
-1.0
 21
0.0
 31
0.0
 90
        0
 40
5.399999999999999
304
LEADER_LINE{
 10
1213.75
 20
2067.5
 30
0.0
 91
        0
305
}
303
}
301
}
340
62
 90
   279552
170
     1
 91
-1056964608
341
56
171
    -2
290
     1
291
     1
 41
0.36
 42
2.0
172
     2
343
50
173
     6
 95
        6
174
     1
175
     2
 92
-1056964608
292
     0
 93
-1056964608
 10
1.0
 20
1.0
 30
1.0
 43
0.0
176
     0
293
     0
294
     0
178
     0
179
     3
 45
15.0
1001
ACAD_MLEADERVER
1070
     2
  0
MULTILEADER
  5
17C9
330
67
100
AcDbEntity
  8
寸法
 92
      500
310
F4010000170000000C00000016000000000000C00C00000033000000000000000C00000013000000993A00000C00000033000000000000000C00000010000000050000000C00000016000000000000C00C00000012000000FF7F00000C00000013000000010000000C00000014000000010000005400000007000000030000
310
000000000000779040000000000031A04000000000000000000000000000EF9040000000000027A0400000000000000000000000000077904000000000001DA04000000000000000000C00000013000000891300003C00000006000000020000000000000000779040000000000027A04000000000000000000000000000EE
310
8B40000000000027A04000000000000000000C00000013000000112700003C00000006000000020000000000000000EE8B40000000000027A0400000000000000000CDCCCCCCCCC28B40000000000027A04000000000000000000C00000016000000000000C00C00000012000000FF7F00000C00000017000000000000000C
310
000000130000009A3A00003C00000006000000020000000000000000408B40000000000027A0400000000000000000CDCCCCCCCCC28B40000000000027A04000000000000000000C00000016000000000000C00C00000012000000FF7F00000C00000017000000FFFFFFFF0C0000003300000000000000
100
AcDbMLeader
300
CONTEXT_DATA{
 40
15.0
 10
855.6499999999999
 20
2067.5
 30
0.0
 41
30.0
140
30.0
145
16.35
174
     6
175
     6
176
     2
177
     0
290
     1
304

 11
0.0
 21
0.0
 31
1.0
340
50
 12
872.0
 22
2097.5
 32
0.0
 13
1.0
 23
0.0
 33
0.0
 42
0.0
 43
0.0
 44
0.0
 45
1.0
170
     1
 90
-1073741824
171
     3
172
     5
 91
-1073741824
141
0.0
 92
        0
291
     0
292
     0
173
     0
293
     0
142
0.0
143
0.0
294
     0
295
     0
296
     0
110
1083.75
120
2067.5
130
0.0
111
1.0
121
0.0
131
0.0
112
0.0
122
1.0
132
0.0
297
     0
302
LEADER{
290
     1
291
     1
 10
893.75
 20
2067.5
 30
0.0
 11
-1.0
 21
0.0
 31
0.0
 90
        0
 40
5.399999999999999
304
LEADER_LINE{
 10
1083.75
 20
2067.5
 30
0.0
 91
        0
305
}
303
}
301
}
340
62
 90
   279552
170
     1
 91
-1056964608
341
56
171
    -2
290
     1
291
     1
 41
0.36
 42
2.0
172
     2
343
50
173
     6
 95
        6
174
     1
175
     2
 92
-1056964608
292
     0
 93
-1056964608
 10
1.0
 20
1.0
 30
1.0
 43
0.0
176
     0
293
     0
294
     0
178
     0
179
     3
 45
15.0
1001
ACAD_MLEADERVER
1070
     2
  0
MULTILEADER
  5
17CA
330
67
100
AcDbEntity
  8
寸法
 92
      500
310
F4010000170000000C00000016000000000000C00C00000033000000000000000C00000013000000993A00000C00000033000000000000000C00000010000000050000000C00000016000000000000C00C00000012000000FF7F00000C00000013000000010000000C00000014000000010000005400000007000000030000
310
000000000000FE8A40000000000031A04000000000000000000000000000EE8B40000000000027A04000000000000000000000000000FE8A4000000000001DA04000000000000000000C00000013000000891300003C00000006000000020000000000000000FE8A40000000000027A04000000000000000000000000000DE
310
8740000000000027A04000000000000000000C00000013000000112700003C00000006000000020000000000000000DE8740000000000027A0400000000000000000CDCCCCCCCCB28740000000000027A04000000000000000000C00000016000000000000C00C00000012000000FF7F00000C00000017000000000000000C
310
000000130000009A3A00003C00000006000000020000000000000000308740000000000027A0400000000000000000CDCCCCCCCCB28740000000000027A04000000000000000000C00000016000000000000C00C00000012000000FF7F00000C00000017000000FFFFFFFF0C0000003300000000000000
100
AcDbMLeader
300
CONTEXT_DATA{
 40
15.0
 10
725.6499999999999
 20
2067.5
 30
0.0
 41
30.0
140
30.0
145
16.35
174
     6
175
     6
176
     2
177
     0
290
     1
304

 11
0.0
 21
0.0
 31
1.0
340
50
 12
742.0
 22
2097.5
 32
0.0
 13
1.0
 23
0.0
 33
0.0
 42
0.0
 43
0.0
 44
0.0
 45
1.0
170
     1
 90
-1073741824
171
     3
172
     5
 91
-1073741824
141
0.0
 92
        0
291
     0
292
     0
173
     0
293
     0
142
0.0
143
0.0
294
     0
295
     0
296
     0
110
893.75
120
2067.5
130
0.0
111
1.0
121
0.0
131
0.0
112
0.0
122
1.0
132
0.0
297
     0
302
LEADER{
290
     1
291
     1
 10
763.75
 20
2067.5
 30
0.0
 11
-1.0
 21
0.0
 31
0.0
 90
        0
 40
5.399999999999999
304
LEADER_LINE{
 10
893.75
 20
2067.5
 30
0.0
 91
        0
305
}
303
}
301
}
340
62
 90
   279552
170
     1
 91
-1056964608
341
56
171
    -2
290
     1
291
     1
 41
0.36
 42
2.0
172
     2
343
50
173
     6
 95
        6
174
     1
175
     2
 92
-1056964608
292
     0
 93
-1056964608
 10
1.0
 20
1.0
 30
1.0
 43
0.0
176
     0
293
     0
294
     0
178
     0
179
     3
 45
15.0
1001
ACAD_MLEADERVER
1070
     2
  0
MULTILEADER
  5
17CC
330
67
100
AcDbEntity
  8
寸法
 92
     1064
310
280400001A0000000C00000016000000000000C00C00000033000000000000000C00000013000000993A0000BC00000026000000FD7F999680F27C4074D145171D29A040000000000000000000000000000000000000000000000000000000000000F03F000000000000F03F00000000000000000000000000000000C60300
310
0001000000010000000000000000003E40000000000000F03F0000000000000000000000000000F03F0000000000000000000000000000000000000000000000000000000001000000320000002DFF33FF200030FFB430B730C330AF30000000000000000000000000BC00000026000000B7683C22AFAC7F4074D145171D29
310
A040000000000000000000000000000000000000000000000000000000000000F03F000000000000F03F0000000000000000000000000000000036002D003400000003000000010000000000000000003E40000000000000F03F0000000000000000000000000000F03F000000000000000000000000000000000000000000
310
000000000000000100000000000000000000007400780074002E0073006800780000000000A22DBC000000260000005C341E9157A6824074D145171D29A040000000000000000000000000000000000000000000000000000000000000F03F000000000000F03F000000000000000000000000000000002C67000001000000
310
010000000000000000003E40000000000000F03F0000000000000000000000000000F03F0000000000000000000000000000000000000000000000000000000001000000320000002DFF33FF200030FFB430B730C330AF300000000000000000000000000C00000033000000000000000C00000010000000050000000C0000
310
0016000000000000C00C00000012000000FF7F00000C00000013000000010000000C00000014000000010000005400000007000000030000000000000000EE8640000000000031A04000000000000000000000000000DE8740000000000027A04000000000000000000000000000EE864000000000001DA040000000000000
310
00000C00000013000000891300003C00000006000000020000000000000000EE8640000000000027A0400000000000000000D00564A8B49F8440000000000027A04000000000000000000C00000013000000112700003C0000000600000002000000D00564A8B49F8440000000000027A04000000000000000009DD2307581
310
748440000000000027A04000000000000000000C00000016000000000000C00C00000012000000FF7F00000C00000017000000000000000C000000130000009A3A00003C00000006000000020000004497F60A52807D40000000000027A04000000000000000009DD2307581748440000000000027A0400000000000000000
310
0C00000016000000000000C00C00000012000000FF7F00000C00000017000000FFFFFFFF0C0000003300000000000000
100
AcDbMLeader
300
CONTEXT_DATA{
 40
15.0
 10
455.6700299866157
 20
2067.5
 30
0.0
 41
30.0
140
30.0
145
16.35
174
     6
175
     6
176
     2
177
     0
290
     1
304
{\fMS PGothic|b0|i0|c128|p50;φ}6-4{\fMS PGothic|b0|i0|c128|p50;本}
 11
0.0
 21
0.0
 31
1.0
340
50
 12
638.2132118047975
 22
2103.5
 32
0.0
 13
1.0
 23
0.0
 33
0.0
 42
0.0
 43
0.0
 44
0.0
 45
1.0
170
     1
 90
-1073741824
171
     3
172
     5
 91
-1073741824
141
0.0
 92
        0
291
     0
292
     0
173
     0
293
     0
142
0.0
143
0.0
294
     0
295
     0
296
     0
110
763.75
120
2067.5
130
0.0
111
1.0
121
0.0
131
0.0
112
0.0
122
1.0
132
0.0
297
     0
302
LEADER{
290
     1
291
     1
 10
659.9632118047975
 20
2067.5
 30
0.0
 11
-1.0
 21
0.0
 31
0.0
 90
        0
 40
5.399999999999999
304
LEADER_LINE{
 10
763.75
 20
2067.5
 30
0.0
 91
        0
305
}
303
}
301
}
340
62
 90
   279552
170
     1
 91
-1056964608
341
56
171
    -2
290
     1
291
     1
 41
0.36
 42
2.0
172
     2
343
50
173
     6
 95
        6
174
     1
175
     2
 92
-1056964608
292
     0
 93
-1056964608
 10
1.0
 20
1.0
 30
1.0
 43
0.0
176
     0
293
     0
294
     0
178
     0
179
     3
 45
15.0
1001
ACAD_MLEADERVER
1070
     2
  0
LWPOLYLINE
  5
17CD
330
67
100
AcDbEntity
  8
寸法
  6
ByBlock
370
    -2
100
AcDbPolyline
 90
        2
 70
     0
 43
0.0
 10
988.7500000000001
 20
1007.5
 10
988.7500000000001
 20
927.5
  0
SOLID
  5
17CE
330
67
100
AcDbEntity
  8
寸法
100
AcDbTrace
 10
983.75
 20
1007.5
 30
0.0
 11
988.7500000000001
 21
1037.5
 31
0.0
 12
993.75
 22
1007.5
 32
0.0
 13
993.75
 23
1007.5
 33
0.0
  0
LWPOLYLINE
  5
17CF
330
67
100
AcDbEntity
  8
寸法
  6
ByBlock
370
    -2
100
AcDbPolyline
 90
        2
 70
     0
 43
0.0
 10
988.7500000000001
 20
897.4999999999999
 10
988.7500000000001
 20
697.5
  0
SOLID
  5
17D0
330
67
100
AcDbEntity
  8
寸法
100
AcDbTrace
 10
983.75
 20
897.4999999999999
 30
0.0
 11
988.7500000000001
 21
927.5
 31
0.0
 12
993.75
 22
897.4999999999999
 32
0.0
 13
993.75
 23
897.4999999999999
 33
0.0
  0
LWPOLYLINE
  5
17D1
330
67
100
AcDbEntity
  8
寸法
  6
ByBlock
370
    -2
100
AcDbPolyline
 90
        2
 70
     0
 43
0.0
 10
988.7500000000001
 20
667.4999999999999
 10
988.7500000000001
 20
587.5
  0
SOLID
  5
17D2
330
67
100
AcDbEntity
  8
寸法
100
AcDbTrace
 10
983.75
 20
667.4999999999999
 30
0.0
 11
988.7500000000001
 21
697.5
 31
0.0
 12
993.75
 22
667.4999999999999
 32
0.0
 13
993.75
 23
667.4999999999999
 33
0.0
  0
MULTILEADER
  5
17D3
330
67
100
AcDbEntity
  8
寸法
 92
     1064
310
280400001A0000000C00000016000000000000C00C00000033000000000000000C00000013000000993A0000BC000000260000000DFF7B3C1F4B8F40638E7ECA9C997E40000000000000000000000000000000000000000000000000000000000000F03F000000000000F03F00000000000000000000000000000000C60300
310
0001000000010000000000000000003E40000000000000F03F0000000000000000000000000000F03F0000000000000000000000000000000000000000000000000000000001000000320000002DFF33FF200030FFB430B730C330AF30000000000000000000000000BC00000026000000B5B926411B549040638E7ECA9C99
310
7E40000000000000000000000000000000000000000000000000000000000000F03F000000000000F03F0000000000000000000000000000000036002D003400000003000000010000000000000000003E40000000000000F03F0000000000000000000000000000F03F000000000000000000000000000000000000000000
310
000000000000000100000000000000000000007400780074002E0073006800780000000000A22DBC00000026000000B5B926411BBC9140638E7ECA9C997E40000000000000000000000000000000000000000000000000000000000000F03F000000000000F03F000000000000000000000000000000002C67000001000000
310
010000000000000000003E40000000000000F03F0000000000000000000000000000F03F0000000000000000000000000000000000000000000000000000000001000000320000002DFF33FF200030FFB430B730C330AF300000000000000000000000000C00000033000000000000000C00000010000000050000000C0000
310
0016000000000000C00C00000012000000FF7F00000C00000013000000010000000C00000014000000010000005400000007000000030000009406D93967BD8E401AE15AA8196C814000000000000000000000000000E68E4000000000005C824000000000000000007CFBA129670D8F407261EFB8E66B8140000000000000
310
00000C00000013000000891300003C00000006000000020000000881BD3167E58E404621A530006C81400000000000000000B08AAAF607E48E40C0025010B4887E4000000000000000000C00000013000000112700003C0000000600000002000000B08AAAF607E48E40C0025010B4887E400000000000000000E3BDDD293B
310
0F8F40C0025010B4887E4000000000000000000C00000016000000000000C00C00000012000000FF7F00000C00000017000000000000000C000000130000009A3A00003C0000000600000002000000E3BDDD293B0F8F40C0025010B4887E4000000000000000006FA2C9CCC9619240C0025010B4887E400000000000000000
310
0C00000016000000000000C00C00000012000000FF7F00000C00000017000000FFFFFFFF0C0000003300000000000000
100
AcDbMLeader
300
CONTEXT_DATA{
 40
15.0
 10
993.9038884471486
 20
488.5439608693523
 30
0.0
 41
30.0
140
30.0
145
16.35
174
     6
175
     6
176
     0
177
     0
290
     1
304
{\fMS PGothic|b0|i0|c128|p50;φ}6-4{\fMS PGothic|b0|i0|c128|p50;本}
 11
0.0
 21
0.0
 31
1.0
340
50
 12
1010.253888447149
 22
524.5439608693523
 32
0.0
 13
1.0
 23
0.0
 33
0.0
 42
0.0
 43
0.0
 44
0.0
 45
1.0
170
     1
 90
-1073741824
171
     1
172
     5
 91
-1073741824
141
0.0
 92
        0
291
     0
292
     0
173
     0
293
     0
142
0.0
143
0.0
294
     0
295
     0
296
     0
110
988.7500000000001
120
587.5
130
0.0
111
1.0
121
0.0
131
0.0
112
0.0
122
1.0
132
0.0
297
     0
302
LEADER{
290
     1
291
     1
 10
988.5038884471487
 20
488.5439608693523
 30
0.0
 11
1.0
 21
0.0
 31
0.0
 90
        0
 40
5.399999999999999
304
LEADER_LINE{
 10
988.7500000000001
 20
587.5
 30
0.0
 91
        0
305
}
303
}
301
}
340
62
 90
   279552
170
     1
 91
-1056964608
341
56
171
    -2
290
     1
291
     1
 41
0.36
 42
2.0
172
     2
343
50
173
     6
 95
        6
174
     1
175
     0
 92
-1056964608
292
     0
 93
-1056964608
 10
1.0
 20
1.0
 30
1.0
 43
0.0
176
     0
293
     0
294
     0
178
     0
179
     1
 45
15.0
1001
ACAD_MLEADERVER
1070
     2
  0
MULTILEADER
  5
17D4
330
67
100
AcDbEntity
  8
寸法
 92
      500
310
F4010000170000000C00000016000000000000C00C00000033000000000000000C00000013000000993A00000C00000033000000000000000C00000010000000050000000C00000016000000000000C00C00000012000000FF7F00000C00000013000000010000000C00000014000000010000005400000007000000030000
310
0000000000007F924000000000003C844000000000000000000000000000F792400000000000148440000000000000000000000000007F92400000000000EC834000000000000000000C00000013000000891300003C000000060000000200000000000000007F9240000000000014844000000000000000000000000000EF
310
9040000000000014844000000000000000000C00000013000000112700003C00000006000000020000000000000000EF9040000000000014844000000000000000006666666666D99040000000000014844000000000000000000C00000016000000000000C00C00000012000000FF7F00000C00000017000000000000000C
310
000000130000009A3A00003C0000000600000002000000FFFFFFFFFF979040000000000014844000000000000000006566666666D99040000000000014844000000000000000000C00000016000000000000C00C00000012000000FF7F00000C00000017000000FFFFFFFF0C0000003300000000000000
100
AcDbMLeader
300
CONTEXT_DATA{
 40
15.0
 10
1045.65
 20
642.4999999999999
 30
0.0
 41
30.0
140
30.0
145
16.35
174
     6
175
     6
176
     2
177
     0
290
     1
304

 11
0.0
 21
0.0
 31
1.0
340
50
 12
1062.0
 22
672.5
 32
0.0
 13
1.0
 23
0.0
 33
0.0
 42
0.0
 43
0.0
 44
0.0
 45
1.0
170
     1
 90
-1073741824
171
     3
172
     5
 91
-1073741824
141
0.0
 92
        0
291
     0
292
     0
173
     0
293
     0
142
0.0
143
0.0
294
     0
295
     0
296
     0
110
1213.75
120
642.4999999999999
130
0.0
111
1.0
121
0.0
131
0.0
112
0.0
122
1.0
132
0.0
297
     0
302
LEADER{
290
     1
291
     1
 10
1083.75
 20
642.4999999999999
 30
0.0
 11
-1.0
 21
0.0
 31
0.0
 90
        0
 40
5.399999999999999
304
LEADER_LINE{
 10
1213.75
 20
642.4999999999999
 30
0.0
 91
        0
305
}
303
}
301
}
340
62
 90
   279552
170
     1
 91
-1056964608
341
56
171
    -2
290
     1
291
     1
 41
0.36
 42
2.0
172
     2
343
50
173
     6
 95
        6
174
     1
175
     2
 92
-1056964608
292
     0
 93
-1056964608
 10
1.0
 20
1.0
 30
1.0
 43
0.0
176
     0
293
     0
294
     0
178
     0
179
     3
 45
15.0
1001
ACAD_MLEADERVER
1070
     2
  0
MULTILEADER
  5
17D5
330
67
100
AcDbEntity
  8
寸法
 92
      500
310
F4010000170000000C00000016000000000000C00C00000033000000000000000C00000013000000993A00000C00000033000000000000000C00000010000000050000000C00000016000000000000C00C00000012000000FF7F00000C00000013000000010000000C00000014000000010000005400000007000000030000
310
00000000000077904000000000003C844000000000000000000000000000EF90400000000000148440000000000000000000000000007790400000000000EC834000000000000000000C00000013000000891300003C00000006000000020000000000000000779040000000000014844000000000000000000000000000EE
310
8B40000000000014844000000000000000000C00000013000000112700003C00000006000000020000000000000000EE8B4000000000001484400000000000000000CDCCCCCCCCC28B40000000000014844000000000000000000C00000016000000000000C00C00000012000000FF7F00000C00000017000000000000000C
310
000000130000009A3A00003C00000006000000020000000000000000408B4000000000001484400000000000000000CDCCCCCCCCC28B40000000000014844000000000000000000C00000016000000000000C00C00000012000000FF7F00000C00000017000000FFFFFFFF0C0000003300000000000000
100
AcDbMLeader
300
CONTEXT_DATA{
 40
15.0
 10
855.6499999999999
 20
642.4999999999999
 30
0.0
 41
30.0
140
30.0
145
16.35
174
     6
175
     6
176
     2
177
     0
290
     1
304

 11
0.0
 21
0.0
 31
1.0
340
50
 12
872.0
 22
672.5
 32
0.0
 13
1.0
 23
0.0
 33
0.0
 42
0.0
 43
0.0
 44
0.0
 45
1.0
170
     1
 90
-1073741824
171
     3
172
     5
 91
-1073741824
141
0.0
 92
        0
291
     0
292
     0
173
     0
293
     0
142
0.0
143
0.0
294
     0
295
     0
296
     0
110
1083.75
120
642.4999999999999
130
0.0
111
1.0
121
0.0
131
0.0
112
0.0
122
1.0
132
0.0
297
     0
302
LEADER{
290
     1
291
     1
 10
893.75
 20
642.4999999999999
 30
0.0
 11
-1.0
 21
0.0
 31
0.0
 90
        0
 40
5.399999999999999
304
LEADER_LINE{
 10
1083.75
 20
642.4999999999999
 30
0.0
 91
        0
305
}
303
}
301
}
340
62
 90
   279552
170
     1
 91
-1056964608
341
56
171
    -2
290
     1
291
     1
 41
0.36
 42
2.0
172
     2
343
50
173
     6
 95
        6
174
     1
175
     2
 92
-1056964608
292
     0
 93
-1056964608
 10
1.0
 20
1.0
 30
1.0
 43
0.0
176
     0
293
     0
294
     0
178
     0
179
     3
 45
15.0
1001
ACAD_MLEADERVER
1070
     2
  0
MULTILEADER
  5
17D6
330
67
100
AcDbEntity
  8
寸法
 92
      500
310
F4010000170000000C00000016000000000000C00C00000033000000000000000C00000013000000993A00000C00000033000000000000000C00000010000000050000000C00000016000000000000C00C00000012000000FF7F00000C00000013000000010000000C00000014000000010000005400000007000000030000
310
000000000000FE8A4000000000003C844000000000000000000000000000EE8B40000000000014844000000000000000000000000000FE8A400000000000EC834000000000000000000C00000013000000891300003C00000006000000020000000000000000FE8A40000000000014844000000000000000000000000000DE
310
8740000000000014844000000000000000000C00000013000000112700003C00000006000000020000000000000000DE874000000000001484400000000000000000CDCCCCCCCCB28740000000000014844000000000000000000C00000016000000000000C00C00000012000000FF7F00000C00000017000000000000000C
310
000000130000009A3A00003C0000000600000002000000000000000030874000000000001484400000000000000000CDCCCCCCCCB28740000000000014844000000000000000000C00000016000000000000C00C00000012000000FF7F00000C00000017000000FFFFFFFF0C0000003300000000000000
100
AcDbMLeader
300
CONTEXT_DATA{
 40
15.0
 10
725.6499999999999
 20
642.4999999999999
 30
0.0
 41
30.0
140
30.0
145
16.35
174
     6
175
     6
176
     2
177
     0
290
     1
304

 11
0.0
 21
0.0
 31
1.0
340
50
 12
742.0
 22
672.5
 32
0.0
 13
1.0
 23
0.0
 33
0.0
 42
0.0
 43
0.0
 44
0.0
 45
1.0
170
     1
 90
-1073741824
171
     3
172
     5
 91
-1073741824
141
0.0
 92
        0
291
     0
292
     0
173
     0
293
     0
142
0.0
143
0.0
294
     0
295
     0
296
     0
110
893.75
120
642.4999999999999
130
0.0
111
1.0
121
0.0
131
0.0
112
0.0
122
1.0
132
0.0
297
     0
302
LEADER{
290
     1
291
     1
 10
763.75
 20
642.4999999999999
 30
0.0
 11
-1.0
 21
0.0
 31
0.0
 90
        0
 40
5.399999999999999
304
LEADER_LINE{
 10
893.75
 20
642.4999999999999
 30
0.0
 91
        0
305
}
303
}
301
}
340
62
 90
   279552
170
     1
 91
-1056964608
341
56
171
    -2
290
     1
291
     1
 41
0.36
 42
2.0
172
     2
343
50
173
     6
 95
        6
174
     1
175
     2
 92
-1056964608
292
     0
 93
-1056964608
 10
1.0
 20
1.0
 30
1.0
 43
0.0
176
     0
293
     0
294
     0
178
     0
179
     3
 45
15.0
1001
ACAD_MLEADERVER
1070
     2
  0
MULTILEADER
  5
17D7
330
67
100
AcDbEntity
  8
寸法
 92
     1064
310
280400001A0000000C00000016000000000000C00C00000033000000000000000C00000013000000993A0000BC00000026000000FD7F999680F27C40D145175D741C8440000000000000000000000000000000000000000000000000000000000000F03F000000000000F03F00000000000000000000000000000000C60300
310
0001000000010000000000000000003E40000000000000F03F0000000000000000000000000000F03F0000000000000000000000000000000000000000000000000000000001000000320000002DFF33FF200030FFB430B730C330AF30000000000000000000000000BC00000026000000B7683C22AFAC7F40D145175D741C
310
8440000000000000000000000000000000000000000000000000000000000000F03F000000000000F03F0000000000000000000000000000000036002D003400000003000000010000000000000000003E40000000000000F03F0000000000000000000000000000F03F000000000000000000000000000000000000000000
310
000000000000000100000000000000000000007400780074002E0073006800780000000000A22DBC000000260000005C341E9157A68240D145175D741C8440000000000000000000000000000000000000000000000000000000000000F03F000000000000F03F000000000000000000000000000000002C67000001000000
310
010000000000000000003E40000000000000F03F0000000000000000000000000000F03F0000000000000000000000000000000000000000000000000000000001000000320000002DFF33FF200030FFB430B730C330AF300000000000000000000000000C00000033000000000000000C00000010000000050000000C0000
310
0016000000000000C00C00000012000000FF7F00000C00000013000000010000000C00000014000000010000005400000007000000030000000000000000EE864000000000003C844000000000000000000000000000DE8740000000000014844000000000000000000000000000EE86400000000000EC8340000000000000
310
00000C00000013000000891300003C00000006000000020000000000000000EE864000000000001484400000000000000000D00564A8B49F8440000000000014844000000000000000000C00000013000000112700003C0000000600000002000000D00564A8B49F8440000000000014844000000000000000009DD2307581
310
748440000000000014844000000000000000000C00000016000000000000C00C00000012000000FF7F00000C00000017000000000000000C000000130000009A3A00003C00000006000000020000004497F60A52807D40000000000014844000000000000000009DD230758174844000000000001484400000000000000000
310
0C00000016000000000000C00C00000012000000FF7F00000C00000017000000FFFFFFFF0C0000003300000000000000
100
AcDbMLeader
300
CONTEXT_DATA{
 40
15.0
 10
455.6700299866157
 20
642.4999999999999
 30
0.0
 41
30.0
140
30.0
145
16.35
174
     6
175
     6
176
     2
177
     0
290
     1
304
{\fMS PGothic|b0|i0|c128|p50;φ}6-4{\fMS PGothic|b0|i0|c128|p50;本}
 11
0.0
 21
0.0
 31
1.0
340
50
 12
638.2132118047975
 22
678.5
 32
0.0
 13
1.0
 23
0.0
 33
0.0
 42
0.0
 43
0.0
 44
0.0
 45
1.0
170
     1
 90
-1073741824
171
     3
172
     5
 91
-1073741824
141
0.0
 92
        0
291
     0
292
     0
173
     0
293
     0
142
0.0
143
0.0
294
     0
295
     0
296
     0
110
763.75
120
642.4999999999999
130
0.0
111
1.0
121
0.0
131
0.0
112
0.0
122
1.0
132
0.0
297
     0
302
LEADER{
290
     1
291
     1
 10
659.9632118047975
 20
642.4999999999999
 30
0.0
 11
-1.0
 21
0.0
 31
0.0
 90
        0
 40
5.399999999999999
304
LEADER_LINE{
 10
763.75
 20
642.4999999999999
 30
0.0
 91
        0
305
}
303
}
301
}
340
62
 90
   279552
170
     1
 91
-1056964608
341
56
171
    -2
290
     1
291
     1
 41
0.36
 42
2.0
172
     2
343
50
173
     6
 95
        6
174
     1
175
     2
 92
-1056964608
292
     0
 93
-1056964608
 10
1.0
 20
1.0
 30
1.0
 43
0.0
176
     0
293
     0
294
     0
178
     0
179
     3
 45
15.0
1001
ACAD_MLEADERVER
1070
     2
  0
LWPOLYLINE
  5
17EB
102
{ACAD_REACTORS
330
1935
102
}
330
67
100
AcDbEntity
  8
鉄筋
100
AcDbPolyline
 90
        4
 70
     1
 43
0.0
 10
1947.499999999999
 20
2467.500000000001
 10
2507.5
 20
2467.500000000001
 10
2507.5
 20
1907.499999999999
 10
1947.500000000001
 20
1907.5
  0
LWPOLYLINE
  5
17EC
102
{ACAD_REACTORS
330
1932
102
}
330
67
100
AcDbEntity
  8
鉄筋
100
AcDbPolyline
 90
        4
 70
     1
 43
0.0
 10
1987.5
 20
2427.500000000001
 10
2467.5
 20
2427.500000000001
 10
2467.5
 20
1947.499999999999
 10
1987.5
 20
1947.499999999999
  0
LWPOLYLINE
  5
17ED
102
{ACAD_REACTORS
330
1938
102
}
330
67
100
AcDbEntity
  8
鉄筋
100
AcDbPolyline
 90
        4
 70
     1
 43
0.0
 10
1917.5
 20
2497.5
 10
2537.5
 20
2497.5
 10
2537.5
 20
1877.499999999999
 10
1917.5
 20
1877.499999999999
  0
LINE
  5
180D
330
67
100
AcDbEntity
  8
鉄筋
100
AcDbLine
 10
1917.5
 20
1402.5
 30
0.0
 11
1917.5
 21
1472.5
 31
0.0
  0
LINE
  5
180E
330
67
100
AcDbEntity
  8
鉄筋
100
AcDbLine
 10
1917.5
 20
1472.5
 30
0.0
 11
1947.500000000001
 21
1472.5
 31
0.0
  0
LINE
  5
180F
330
67
100
AcDbEntity
  8
鉄筋
100
AcDbLine
 10
1947.500000000001
 20
1472.5
 30
0.0
 11
1947.500000000001
 21
1419.5
 31
0.0
  0
LINE
  5
1810
330
67
100
AcDbEntity
  8
鉄筋
100
AcDbLine
 10
1947.500000000001
 20
1419.5
 30
0.0
 11
1987.5
 21
1419.5
 31
0.0
  0
LINE
  5
1811
330
67
100
AcDbEntity
  8
鉄筋
100
AcDbLine
 10
1987.5
 20
1419.5
 30
0.0
 11
1987.5
 21
1402.5
 31
0.0
  0
LINE
  5
1812
330
67
100
AcDbEntity
  8
鉄筋
100
AcDbLine
 10
1987.5
 20
1402.5
 30
0.0
 11
1917.5
 21
1402.5
 31
0.0
  0
LINE
  5
1813
330
67
100
AcDbEntity
  8
鉄筋
100
AcDbLine
 10
2507.5
 20
1472.5
 30
0.0
 11
2537.5
 21
1472.5
 31
0.0
  0
LINE
  5
1814
330
67
100
AcDbEntity
  8
鉄筋
100
AcDbLine
 10
2537.5
 20
1472.5
 30
0.0
 11
2537.5
 21
1402.5
 31
0.0
  0
LINE
  5
1815
330
67
100
AcDbEntity
  8
鉄筋
100
AcDbLine
 10
2537.5
 20
1402.5
 30
0.0
 11
2467.5
 21
1402.5
 31
0.0
  0
LINE
  5
1816
330
67
100
AcDbEntity
  8
鉄筋
100
AcDbLine
 10
2467.5
 20
1402.5
 30
0.0
 11
2467.5
 21
1419.5
 31
0.0
  0
LINE
  5
1817
330
67
100
AcDbEntity
  8
鉄筋
100
AcDbLine
 10
2467.5
 20
1419.5
 30
0.0
 11
2507.5
 21
1419.499999999999
 31
0.0
  0
LINE
  5
1818
330
67
100
AcDbEntity
  8
鉄筋
100
AcDbLine
 10
2507.5
 20
1419.499999999999
 30
0.0
 11
2507.5
 21
1472.5
 31
0.0
  0
CIRCLE
  5
1822
330
67
100
AcDbEntity
  8
鉄筋2
100
AcDbCircle
 10
1919.5
 20
1470.5
 30
0.0
 40
2.0
  0
CIRCLE
  5
1823
330
67
100
AcDbEntity
  8
鉄筋2
100
AcDbCircle
 10
1945.500000000001
 20
1470.5
 30
0.0
 40
2.0
  0
CIRCLE
  5
1824
330
67
100
AcDbEntity
  8
鉄筋2
100
AcDbCircle
 10
1919.5
 20
1404.5
 30
0.0
 40
2.0
  0
CIRCLE
  5
1825
330
67
100
AcDbEntity
  8
鉄筋2
100
AcDbCircle
 10
1985.500000000001
 20
1404.5
 30
0.0
 40
2.0
  0
CIRCLE
  5
1826
330
67
100
AcDbEntity
  8
鉄筋2
100
AcDbCircle
 10
1985.500000000001
 20
1417.5
 30
0.0
 40
2.0
  0
CIRCLE
  5
1827
330
67
100
AcDbEntity
  8
鉄筋2
100
AcDbCircle
 10
2509.5
 20
1470.5
 30
0.0
 40
2.0
  0
CIRCLE
  5
1828
330
67
100
AcDbEntity
  8
鉄筋2
100
AcDbCircle
 10
2535.5
 20
1470.5
 30
0.0
 40
2.0
  0
CIRCLE
  5
1829
330
67
100
AcDbEntity
  8
鉄筋2
100
AcDbCircle
 10
2535.5
 20
1404.5
 30
0.0
 40
2.0
  0
CIRCLE
  5
182A
330
67
100
AcDbEntity
  8
鉄筋2
100
AcDbCircle
 10
2469.5
 20
1404.5
 30
0.0
 40
2.0
  0
CIRCLE
  5
182B
330
67
100
AcDbEntity
  8
鉄筋2
100
AcDbCircle
 10
2469.5
 20
1417.499999999999
 30
0.0
 40
2.0
  0
LINE
  5
1831
330
67
100
AcDbEntity
  8
鉄筋
100
AcDbLine
 10
1917.43181660654
 20
2290.0
 30
0.0
 11
1987.597925967138
 21
2290.0
 31
0.0
  0
LINE
  5
1832
330
67
100
AcDbEntity
  8
鉄筋
100
AcDbLine
 10
2125.0
 20
2497.5
 30
0.0
 11
2125.0
 21
2427.500000000001
 31
0.0
  0
LINE
  5
1833
330
67
100
AcDbEntity
  8
鉄筋
100
AcDbLine
 10
2330.0
 20
2497.5
 30
0.0
 11
2330.0
 21
2427.500000000001
 31
0.0
  0
LINE
  5
1834
102
{ACAD_REACTORS
330
193B
102
}
330
67
100
AcDbEntity
  8
鉄筋
100
AcDbLine
 10
2125.0
 20
1947.499999999999
 30
0.0
 11
2125.0
 21
1877.5
 31
0.0
  0
LINE
  5
1835
102
{ACAD_REACTORS
330
193E
102
}
330
67
100
AcDbEntity
  8
鉄筋
100
AcDbLine
 10
2330.0
 20
1947.499999999999
 30
0.0
 11
2330.0
 21
1877.499999999999
 31
0.0
  0
LINE
  5
1836
330
67
100
AcDbEntity
  8
鉄筋
100
AcDbLine
 10
1917.43181660654
 20
2085.0
 30
0.0
 11
1987.597925967138
 21
2085.0
 31
0.0
  0
LINE
  5
1837
330
67
100
AcDbEntity
  8
鉄筋
100
AcDbLine
 10
2467.43181660654
 20
2085.0
 30
0.0
 11
2537.597925967139
 21
2085.0
 31
0.0
  0
LINE
  5
1838
330
67
100
AcDbEntity
  8
鉄筋
100
AcDbLine
 10
2467.43181660654
 20
2290.0
 30
0.0
 11
2537.597925967139
 21
2290.0
 31
0.0
  0
LWPOLYLINE
  5
1859
330
67
100
AcDbEntity
  8
鉄筋
100
AcDbPolyline
 90
        4
 70
     1
 43
0.0
 10
3206.25
 20
2447.5
 10
3726.25
 20
2447.5
 10
3726.25
 20
1927.5
 10
3206.25
 20
1927.5
  0
CIRCLE
  5
185A
330
67
100
AcDbEntity
  8
鉄筋2
100
AcDbCircle
 10
3552.9166666
 20
1929.5
 30
0.0
 40
2.0
  0
CIRCLE
  5
185B
330
67
100
AcDbEntity
  8
鉄筋2
100
AcDbCircle
 10
3724.2499999
 20
1929.5
 30
0.0
 40
2.0
  0
CIRCLE
  5
185C
330
67
100
AcDbEntity
  8
鉄筋2
100
AcDbCircle
 10
3724.249999900001
 20
2445.5
 30
0.0
 40
2.0
  0
CIRCLE
  5
185D
330
67
100
AcDbEntity
  8
鉄筋2
100
AcDbCircle
 10
3552.916666600001
 20
2445.5
 30
0.0
 40
2.0
  0
CIRCLE
  5
185E
330
67
100
AcDbEntity
  8
鉄筋2
100
AcDbCircle
 10
3379.583333200001
 20
2445.5
 30
0.0
 40
2.0
  0
CIRCLE
  5
185F
330
67
100
AcDbEntity
  8
鉄筋2
100
AcDbCircle
 10
3208.249999900001
 20
2445.5
 30
0.0
 40
2.0
  0
CIRCLE
  5
1860
330
67
100
AcDbEntity
  8
鉄筋2
100
AcDbCircle
 10
3208.249999900001
 20
2274.1666666
 30
0.0
 40
2.0
  0
CIRCLE
  5
1861
330
67
100
AcDbEntity
  8
鉄筋2
100
AcDbCircle
 10
3208.249999900001
 20
2100.8333333
 30
0.0
 40
2.0
  0
CIRCLE
  5
1862
330
67
100
AcDbEntity
  8
鉄筋2
100
AcDbCircle
 10
3208.249999900001
 20
1929.5
 30
0.0
 40
2.0
  0
CIRCLE
  5
1863
330
67
100
AcDbEntity
  8
鉄筋2
100
AcDbCircle
 10
3379.583333200001
 20
1929.5
 30
0.0
 40
2.0
  0
CIRCLE
  5
1864
102
{ACAD_REACTORS
330
1941
102
}
330
67
100
AcDbEntity
  8
鉄筋2
100
AcDbCircle
 10
3206.249999900001
 20
1557.5
 30
0.0
 40
2.0
  0
CIRCLE
  5
1865
102
{ACAD_REACTORS
330
1944
102
}
330
67
100
AcDbEntity
  8
鉄筋2
100
AcDbCircle
 10
3206.249999900001
 20
1437.5
 30
0.0
 40
2.0
  0
CIRCLE
  5
1866
102
{ACAD_REACTORS
330
1947
102
}
330
67
100
AcDbEntity
  8
鉄筋2
100
AcDbCircle
 10
3206.249999900001
 20
1317.5
 30
0.0
 40
2.0
  0
CIRCLE
  5
1867
102
{ACAD_REACTORS
330
1959
102
}
330
67
100
AcDbEntity
  8
鉄筋2
100
AcDbCircle
 10
3206.249999900001
 20
957.4999999999997
 30
0.0
 40
2.0
  0
CIRCLE
  5
1868
330
67
100
AcDbEntity
  8
鉄筋2
100
AcDbCircle
 10
3206.249999900001
 20
867.5
 30
0.0
 40
2.0
  0
CIRCLE
  5
1869
330
67
100
AcDbEntity
  8
鉄筋2
100
AcDbCircle
 10
3726.249999899999
 20
867.5000000000002
 30
0.0
 40
2.0
  0
CIRCLE
  5
186A
330
67
100
AcDbEntity
  8
鉄筋2
100
AcDbCircle
 10
3726.249999899999
 20
957.5000000000001
 30
0.0
 40
2.0
  0
CIRCLE
  5
186B
330
67
100
AcDbEntity
  8
鉄筋2
100
AcDbCircle
 10
3726.2499999
 20
1317.5
 30
0.0
 40
2.0
  0
CIRCLE
  5
186C
330
67
100
AcDbEntity
  8
鉄筋2
100
AcDbCircle
 10
3726.2499999
 20
1437.5
 30
0.0
 40
2.0
  0
CIRCLE
  5
186D
330
67
100
AcDbEntity
  8
鉄筋2
100
AcDbCircle
 10
3726.2499999
 20
1557.5
 30
0.0
 40
2.0
  0
LINE
  5
186E
102
{ACAD_REACTORS
330
194D
102
}
330
67
100
AcDbEntity
  8
鉄筋
100
AcDbLine
 10
3724.25
 20
1572.5
 30
0.0
 11
3724.25
 21
1302.5
 31
0.0
  0
LINE
  5
186F
102
{ACAD_REACTORS
330
194A
102
}
330
67
100
AcDbEntity
  8
鉄筋
100
AcDbLine
 10
3208.25
 20
1572.5
 30
0.0
 11
3208.25
 21
1302.5
 31
0.0
  0
LINE
  5
1870
330
67
100
AcDbEntity
  8
鉄筋
100
AcDbLine
 10
3208.25
 20
972.4999999999997
 30
0.0
 11
3208.25
 21
852.5
 31
0.0
  0
LINE
  5
1871
330
67
100
AcDbEntity
  8
鉄筋
100
AcDbLine
 10
3724.249999999999
 20
972.4999999999992
 30
0.0
 11
3724.249999999999
 21
852.4999999999995
 31
0.0
  0
MULTILEADER
  5
1930
102
{ACAD_XDICTIONARY
360
1931
102
}
102
{ACAD_REACTORS
330
1932
102
}
330
67
100
AcDbEntity
  8
寸法
 92
     1064
310
280400001A0000000C00000016000000000000C00C00000033000000000000000C00000013000000993A0000BC0000002600000090EFC30CC807994039A2558D0EEA9D40000000000000000000000000000000000000000000000000000000000000F03F000000000000F03F00000000000000000000000000000000C60300
310
0001000000010000000000000000003E40000000000000F03F0000000000000000000000000000F03F0000000000000000000000000000000000000000000000000000000001000000320000002DFF33FF200030FFB430B730C330AF30000000000000000000000000BC00000026000000BEA9ACAF53B6994039A2558D0EEA
310
9D40000000000000000000000000000000000000000000000000000000000000F03F000000000000F03F0000000000000000000000000000000034002D003500000003000000010000000000000000003E40000000000000F03F0000000000000000000000000000F03F000000000000000000000000000000000000000000
310
000000000000000100000000000000000000007400780074002E0073006800780000000000A22DBC00000026000000BEA9ACAF531E9B4039A2558D0EEA9D40000000000000000000000000000000000000000000000000000000000000F03F000000000000F03F000000000000000000000000000000002C67000001000000
310
010000000000000000003E40000000000000F03F0000000000000000000000000000F03F0000000000000000000000000000000000000000000000000000000001000000320000002DFF33FF200030FFB430B730C330AF300000000000000000000000000C00000033000000000000000C00000010000000050000000C0000
310
0016000000000000C00C00000012000000FF7F00000C00000013000000010000000C0000001400000001000000540000000700000003000000C2BF324291B59E40118D09A117BBA040000000000000000001000000000E9F4078FF2A52DDE4A0400000000000000000FA89536C71D59E403613EA8402AFA040000000000000
310
00000C00000013000000891300003C0000000600000002000000DE24435781C59E4024D0F9120DB5A040000000000000000079924F3B021B9C4050FFC95ED4E59D4000000000000000000C00000013000000112700003C000000060000000200000079924F3B021B9C4050FFC95ED4E59D400000000000000000DFF8B5A168
310
059C4050FFC95ED4E59D4000000000000000000C00000016000000000000C00C00000012000000FF7F00000C00000017000000000000000C000000130000009A3A00003C00000006000000020000006135DB693C2B994050FFC95ED4E59D400000000000000000DFF8B5A168059C4050FFC95ED4E59D400000000000000000
310
0C00000016000000000000C00C00000012000000FF7F00000C00000017000000FFFFFFFF0C0000003300000000000000
100
AcDbMLeader
300
CONTEXT_DATA{
 40
15.0
 10
1594.458997559674
 20
1913.457392841537
 30
0.0
 41
30.0
140
30.0
145
16.35
174
     6
175
     6
176
     2
177
     0
290
     1
304
{\fMS PGothic|b0|i0|c128|p50;φ}4-5{\fMS PGothic|b0|i0|c128|p50;本}
 11
0.0
 21
0.0
 31
1.0
340
50
 12
1777.002179377856
 22
1949.457392841537
 32
0.0
 13
1.0
 23
0.0
 33
0.0
 42
0.0
 43
0.0
 44
0.0
 45
1.0
170
     1
 90
-1073741824
171
     3
172
     5
 91
-1073741824
141
0.0
 92
        0
291
     0
292
     0
173
     0
293
     0
142
0.0
143
0.0
294
     0
295
     0
296
     0
110
1987.5
120
2162.432267516789
130
0.0
111
1.0
121
0.0
131
0.0
112
0.0
122
1.0
132
0.0
297
     0
302
LEADER{
290
     1
291
     1
 10
1798.752179377856
 20
1913.457392841537
 30
0.0
 11
-1.0
 21
0.0
 31
0.0
 90
        0
 40
5.399999999999999
304
LEADER_LINE{
 10
1987.5
 20
2162.432267516789
 30
0.0
 91
        0
305
}
303
}
301
}
340
62
 90
   279552
170
     1
 91
-1056964608
341
56
171
    -2
290
     1
291
     1
 41
0.36
 42
2.0
172
     2
343
50
173
     6
 95
        6
174
     1
175
     2
 92
-1056964608
292
     0
 93
-1056964608
 10
1.0
 20
1.0
 30
1.0
 43
0.0
176
     0
293
     0
294
     0
178
     0
179
     3
 45
15.0
1001
ACAD_MLEADERVER
1070
     2
  0
MULTILEADER
  5
1933
102
{ACAD_XDICTIONARY
360
1934
102
}
102
{ACAD_REACTORS
330
1935
102
}
330
67
100
AcDbEntity
  8
寸法
 92
      500
310
F4010000170000000C00000016000000000000C00C00000033000000000000000C00000013000000993A00000C00000033000000000000000C00000010000000050000000C00000016000000000000C00C00000012000000FF7F00000C00000013000000010000000C00000014000000010000005400000007000000030000
310
00BE0407442D239E409F4012AD09E7A040000000000000000002000000006E9E40000000000017A140000000000000000054EF99F954469E40A0FF34327FDDA04000000000000000000C00000013000000891300003C0000000600000002000000097AD01EC1349E401FA0A36F44E2A040000000000000000079924F3B021B
310
9C4050FFC95ED4E59D4000000000000000000C00000013000000112700003C000000060000000200000079924F3B021B9C4050FFC95ED4E59D400000000000000000DFF8B5A168059C4050FFC95ED4E59D4000000000000000000C00000016000000000000C00C00000012000000FF7F00000C00000017000000000000000C
310
000000130000009A3A00003C000000060000000200000078924F3B02C49B4050FFC95ED4E59D400000000000000000DEF8B5A168059C4050FFC95ED4E59D4000000000000000000C00000016000000000000C00C00000012000000FF7F00000C00000017000000FFFFFFFF0C0000003300000000000000
100
AcDbMLeader
300
CONTEXT_DATA{
 40
15.0
 10
1760.652179377856
 20
1913.457392841537
 30
0.0
 41
30.0
140
30.0
145
16.35
174
     6
175
     6
176
     2
177
     0
290
     1
304

 11
0.0
 21
0.0
 31
1.0
340
50
 12
1777.002179377856
 22
1943.457392841537
 32
0.0
 13
1.0
 23
0.0
 33
0.0
 42
0.0
 43
0.0
 44
0.0
 45
1.0
170
     1
 90
-1073741824
171
     3
172
     5
 91
-1073741824
141
0.0
 92
        0
291
     0
292
     0
173
     0
293
     0
142
0.0
143
0.0
294
     0
295
     0
296
     0
110
1947.5
120
2187.5
130
0.0
111
1.0
121
0.0
131
0.0
112
0.0
122
1.0
132
0.0
297
     0
302
LEADER{
290
     1
291
     1
 10
1798.752179377856
 20
1913.457392841537
 30
0.0
 11
-1.0
 21
0.0
 31
0.0
 90
        0
 40
5.399999999999999
304
LEADER_LINE{
 10
1947.5
 20
2187.5
 30
0.0
 91
        0
305
}
303
}
301
}
340
62
 90
   279552
170
     1
 91
-1056964608
341
56
171
    -2
290
     1
291
     1
 41
0.36
 42
2.0
172
     2
343
50
173
     6
 95
        6
174
     1
175
     2
 92
-1056964608
292
     0
 93
-1056964608
 10
1.0
 20
1.0
 30
1.0
 43
0.0
176
     0
293
     0
294
     0
178
     0
179
     3
 45
15.0
1001
ACAD_MLEADERVER
1070
     2
  0
MULTILEADER
  5
1936
102
{ACAD_XDICTIONARY
360
1937
102
}
102
{ACAD_REACTORS
330
1938
102
}
330
67
100
AcDbEntity
  8
寸法
 92
      500
310
F4010000170000000C00000016000000000000C00C00000033000000000000000C00000013000000993A00000C00000033000000000000000C00000010000000050000000C00000016000000000000C00C00000012000000FF7F00000C00000013000000010000000C00000014000000010000005400000007000000030000
310
00AFEAE9E63FB89D40FBC9919DE327A1400000000000000000FFFFFFFFFFF59D40345DD85D4C5CA14000000000000000002406B82695DD9D400D9EB45EB520A14000000000000000000C00000013000000891300003C00000006000000020000006AF8D086EACA9D400434237E4C24A140000000000000000079924F3B021B
310
9C4050FFC95ED4E59D4000000000000000000C00000013000000112700003C000000060000000200000079924F3B021B9C4050FFC95ED4E59D400000000000000000DFF8B5A168059C4050FFC95ED4E59D4000000000000000000C00000016000000000000C00C00000012000000FF7F00000C00000017000000000000000C
310
000000130000009A3A00003C000000060000000200000078924F3B02C49B4050FFC95ED4E59D400000000000000000DEF8B5A168059C4050FFC95ED4E59D4000000000000000000C00000016000000000000C00C00000012000000FF7F00000C00000017000000FFFFFFFF0C0000003300000000000000
100
AcDbMLeader
300
CONTEXT_DATA{
 40
15.0
 10
1760.652179377856
 20
1913.457392841537
 30
0.0
 41
30.0
140
30.0
145
16.35
174
     6
175
     6
176
     2
177
     0
290
     1
304

 11
0.0
 21
0.0
 31
1.0
340
50
 12
1777.002179377856
 22
1943.457392841537
 32
0.0
 13
1.0
 23
0.0
 33
0.0
 42
0.0
 43
0.0
 44
0.0
 45
1.0
170
     1
 90
-1073741824
171
     3
172
     5
 91
-1073741824
141
0.0
 92
        0
291
     0
292
     0
173
     0
293
     0
142
0.0
143
0.0
294
     0
295
     0
296
     0
110
1917.5
120
2222.149153481844
130
0.0
111
1.0
121
0.0
131
0.0
112
0.0
122
1.0
132
0.0
297
     0
302
LEADER{
290
     1
291
     1
 10
1798.752179377856
 20
1913.457392841537
 30
0.0
 11
-1.0
 21
0.0
 31
0.0
 90
        0
 40
5.399999999999999
304
LEADER_LINE{
 10
1917.5
 20
2222.149153481844
 30
0.0
 91
        0
305
}
303
}
301
}
340
62
 90
   279552
170
     1
 91
-1056964608
341
56
171
    -2
290
     1
291
     1
 41
0.36
 42
2.0
172
     2
343
50
173
     6
 95
        6
174
     1
175
     2
 92
-1056964608
292
     0
 93
-1056964608
 10
1.0
 20
1.0
 30
1.0
 43
0.0
176
     0
293
     0
294
     0
178
     0
179
     3
 45
15.0
1001
ACAD_MLEADERVER
1070
     2
  0
MULTILEADER
  5
1939
102
{ACAD_XDICTIONARY
360
193A
102
}
102
{ACAD_REACTORS
330
193B
102
}
330
67
100
AcDbEntity
  8
寸法
 92
     1064
310
280400001A0000000C00000016000000000000C00C00000033000000000000000C00000013000000993A0000BC0000002600000093CF7EB703E8A240113DCE62C4D09B40000000000000000000000000000000000000000000000000000000000000F03F000000000000F03F00000000000000000000000000000000C60300
310
0001000000010000000000000000003E40000000000000F03F0000000000000000000000000000F03F0000000000000000000000000000000000000000000000000000000001000000320000002DFF33FF200030FFB430B730C330AF30000000000000000000000000BC00000026000000AB2CF388493FA340113DCE62C4D0
310
9B40000000000000000000000000000000000000000000000000000000000000F03F000000000000F03F0000000000000000000000000000000034002D003800000003000000010000000000000000003E40000000000000F03F0000000000000000000000000000F03F000000000000000000000000000000000000000000
310
000000000000000100000000000000000000007400780074002E0073006800780000000000A22DBC00000026000000AB2CF38849F3A340113DCE62C4D09B40000000000000000000000000000000000000000000000000000000000000F03F000000000000F03F000000000000000000000000000000002C67000001000000
310
010000000000000000003E40000000000000F03F0000000000000000000000000000F03F0000000000000000000000000000000000000000000000000000000001000000320000002DFF33FF200030FFB430B730C330AF300000000000000000000000000C00000033000000000000000C00000010000000050000000C0000
310
0016000000000000C00C00000012000000FF7F00000C00000013000000010000000C0000001400000001000000540000000700000003000000487F84421ECEA04092CD9D4F134C9D40000000000000000000000000009AA0403983199ECD8A9D4000000000000000004473371B79D5A04016C931C445719D40000000000000
310
00000C00000013000000891300003C000000060000000200000046F9DDAECBD1A04054CBE789AC5E9D4000000000000000007C720AE63DCEA240289A42348ACC9B4000000000000000000C00000013000000112700003C00000006000000020000007C720AE63DCEA240289A42348ACC9B400000000000000000493FD7B20A
310
D9A240289A42348ACC9B4000000000000000000C00000016000000000000C00C00000012000000FF7F00000C00000017000000000000000C000000130000009A3A00003C0000000600000002000000493FD7B20AD9A240289A42348ACC9B40000000000000000008A1C4CE2046A440289A42348ACC9B400000000000000000
310
0C00000016000000000000C00C00000012000000FF7F00000C00000017000000FFFFFFFF0C0000003300000000000000
100
AcDbMLeader
300
CONTEXT_DATA{
 40
15.0
 10
2412.520895697094
 20
1779.134964981707
 30
0.0
 41
30.0
140
30.0
145
16.35
174
     6
175
     6
176
     0
177
     0
290
     1
304
{\fMS PGothic|b0|i0|c128|p50;φ}4-8{\fMS PGothic|b0|i0|c128|p50;本}
 11
0.0
 21
0.0
 31
1.0
340
50
 12
2428.870895697093
 22
1815.134964981707
 32
0.0
 13
1.0
 23
0.0
 33
0.0
 42
0.0
 43
0.0
 44
0.0
 45
1.0
170
     1
 90
-1073741824
171
     1
172
     5
 91
-1073741824
141
0.0
 92
        0
291
     0
292
     0
173
     0
293
     0
142
0.0
143
0.0
294
     0
295
     0
296
     0
110
2125.0
120
1890.700798414835
130
0.0
111
1.0
121
0.0
131
0.0
112
0.0
122
1.0
132
0.0
297
     0
302
LEADER{
290
     1
291
     1
 10
2407.120895697093
 20
1779.134964981707
 30
0.0
 11
1.0
 21
0.0
 31
0.0
 90
        0
 40
5.399999999999999
304
LEADER_LINE{
 10
2125.0
 20
1890.700798414835
 30
0.0
 91
        0
305
}
303
}
301
}
340
62
 90
   279552
170
     1
 91
-1056964608
341
56
171
    -2
290
     1
291
     1
 41
0.36
 42
2.0
172
     2
343
50
173
     6
 95
        6
174
     1
175
     0
 92
-1056964608
292
     0
 93
-1056964608
 10
1.0
 20
1.0
 30
1.0
 43
0.0
176
     0
293
     0
294
     0
178
     0
179
     1
 45
15.0
1001
ACAD_MLEADERVER
1070
     2
  0
MULTILEADER
  5
193C
102
{ACAD_XDICTIONARY
360
193D
102
}
102
{ACAD_REACTORS
330
193E
102
}
330
67
100
AcDbEntity
  8
寸法
 92
      500
310
F4010000170000000C00000016000000000000C00C00000033000000000000000C00000013000000993A00000C00000033000000000000000C00000010000000050000000C00000016000000000000C00C00000012000000FF7F00000C00000013000000010000000C00000014000000010000005400000007000000030000
310
004C117B2AB24DA240FBA28349F11F9D400000000000000000000000000034A240D84032B5358E9D4000000000000000007300CF2B305EA240E5A8F11092369D4000000000000000000C00000013000000891300003C0000000600000002000000E008252BF155A240F0A53AAD412B9D4000000000000000007C720AE63DCE
310
A240289A42348ACC9B4000000000000000000C00000013000000112700003C00000006000000020000007C720AE63DCEA240289A42348ACC9B400000000000000000493FD7B20AD9A240289A42348ACC9B4000000000000000000C00000016000000000000C00C00000012000000FF7F00000C00000017000000000000000C
310
000000130000009A3A00003C0000000600000002000000493FD7B20AD9A240289A42348ACC9B4000000000000000007C720AE6BDF9A240289A42348ACC9B4000000000000000000C00000016000000000000C00C00000012000000FF7F00000C00000017000000FFFFFFFF0C0000003300000000000000
100
AcDbMLeader
300
CONTEXT_DATA{
 40
15.0
 10
2412.520895697094
 20
1779.134964981707
 30
0.0
 41
30.0
140
30.0
145
16.35
174
     6
175
     6
176
     0
177
     0
290
     1
304

 11
0.0
 21
0.0
 31
1.0
340
50
 12
2428.870895697093
 22
1809.134964981707
 32
0.0
 13
1.0
 23
0.0
 33
0.0
 42
0.0
 43
0.0
 44
0.0
 45
1.0
170
     1
 90
-1073741824
171
     1
172
     5
 91
-1073741824
141
0.0
 92
        0
291
     0
292
     0
173
     0
293
     0
142
0.0
143
0.0
294
     0
295
     0
296
     0
110
2330.0
120
1891.552449021537
130
0.0
111
1.0
121
0.0
131
0.0
112
0.0
122
1.0
132
0.0
297
     0
302
LEADER{
290
     1
291
     1
 10
2407.120895697093
 20
1779.134964981707
 30
0.0
 11
1.0
 21
0.0
 31
0.0
 90
        0
 40
5.399999999999999
304
LEADER_LINE{
 10
2330.0
 20
1891.552449021537
 30
0.0
 91
        0
305
}
303
}
301
}
340
62
 90
   279552
170
     1
 91
-1056964608
341
56
171
    -2
290
     1
291
     1
 41
0.36
 42
2.0
172
     2
343
50
173
     6
 95
        6
174
     1
175
     0
 92
-1056964608
292
     0
 93
-1056964608
 10
1.0
 20
1.0
 30
1.0
 43
0.0
176
     0
293
     0
294
     0
178
     0
179
     1
 45
15.0
1001
ACAD_MLEADERVER
1070
     2
  0
MULTILEADER
  5
193F
102
{ACAD_XDICTIONARY
360
1940
102
}
102
{ACAD_REACTORS
330
1941
102
}
330
67
100
AcDbEntity
  8
寸法
 92
     1064
310
280400001A0000000C00000016000000000000C00C00000033000000000000000C00000013000000993A0000BC0000002600000037BAF2677BD5A6408106B16720239440000000000000000000000000000000000000000000000000000000000000F03F000000000000F03F00000000000000000000000000000000C60300
310
0001000000010000000000000000003E40000000000000F03F0000000000000000000000000000F03F0000000000000000000000000000000000000000000000000000000001000000320000002DFF33FF200030FFB430B730C330AF30000000000000000000000000BC000000260000004F176739C12CA7408106B1672023
310
9440000000000000000000000000000000000000000000000000000000000000F03F000000000000F03F0000000000000000000000000000000034002D003300000003000000010000000000000000003E40000000000000F03F0000000000000000000000000000F03F000000000000000000000000000000000000000000
310
000000000000000100000000000000000000007400780074002E0073006800780000000000A22DBC000000260000004F176739C1E0A7408106B16720239440000000000000000000000000000000000000000000000000000000000000F03F000000000000F03F000000000000000000000000000000002C67000001000000
310
010000000000000000003E40000000000000F03F0000000000000000000000000000F03F0000000000000000000000000000000000000000000000000000000001000000320000002DFF33FF200030FFB430B730C330AF300000000000000000000000000C00000033000000000000000C00000010000000050000000C0000
310
0016000000000000C00C00000012000000FF7F00000C00000013000000010000000C0000001400000001000000540000000700000003000000A1C22D6F87EFA8403317FB7C2FE297400000000000000000D86972296C0BA940B20DD6B34B4E98400000000000000000500F4E749102A940F36B2DADEFD59740000000000000
310
00000C00000013000000891300003C0000000600000002000000F9E8BD710CF9A840934114950FDC97400000000000000000AC8B387F185FA84098632539E61E944000000000000000000C00000013000000112700003C0000000600000002000000AC8B387F185FA84098632539E61E94400000000000000000DFBE6BB24B
310
54A84098632539E61E944000000000000000000C00000016000000000000C00C00000012000000FF7F00000C00000017000000000000000C000000130000009A3A00003C0000000600000002000000205D7E9635E7A64098632539E61E94400000000000000000DFBE6BB24B54A84098632539E61E94400000000000000000
310
0C00000016000000000000C00C00000012000000FF7F00000C00000017000000FFFFFFFF0C0000003300000000000000
100
AcDbMLeader
300
CONTEXT_DATA{
 40
15.0
 10
2915.254663800114
 20
1287.724827369884
 30
0.0
 41
30.0
140
30.0
145
16.35
174
     6
175
     6
176
     2
177
     0
290
     1
304
{\fMS PGothic|b0|i0|c128|p50;φ}4-3{\fMS PGothic|b0|i0|c128|p50;本}
 11
0.0
 21
0.0
 31
1.0
340
50
 12
3097.797845618296
 22
1323.724827369884
 32
0.0
 13
1.0
 23
0.0
 33
0.0
 42
0.0
 43
0.0
 44
0.0
 45
1.0
170
     1
 90
-1073741824
171
     3
172
     5
 91
-1073741824
141
0.0
 92
        0
291
     0
292
     0
173
     0
293
     0
142
0.0
143
0.0
294
     0
295
     0
296
     0
110
3205.711253714962
120
1555.573928207956
130
0.0
111
1.0
121
0.0
131
0.0
112
0.0
122
1.0
132
0.0
297
     0
302
LEADER{
290
     1
291
     1
 10
3119.547845618296
 20
1287.724827369884
 30
0.0
 11
-1.0
 21
0.0
 31
0.0
 90
        0
 40
5.399999999999999
304
LEADER_LINE{
 10
3205.711253714962
 20
1555.573928207956
 30
0.0
 91
        0
305
}
303
}
301
}
340
62
 90
   279552
170
     1
 91
-1056964608
341
56
171
    -2
290
     1
291
     1
 41
0.36
 42
2.0
172
     2
343
50
173
     6
 95
        6
174
     1
175
     2
 92
-1056964608
292
     0
 93
-1056964608
 10
1.0
 20
1.0
 30
1.0
 43
0.0
176
     0
293
     0
294
     0
178
     0
179
     3
 45
15.0
1001
ACAD_MLEADERVER
1070
     2
  0
MULTILEADER
  5
1942
102
{ACAD_XDICTIONARY
360
1943
102
}
102
{ACAD_REACTORS
330
1944
102
}
330
67
100
AcDbEntity
  8
寸法
 92
      500
310
F4010000170000000C00000016000000000000C00C00000033000000000000000C00000013000000993A00000C00000033000000000000000C00000010000000050000000C00000016000000000000C00C00000012000000FF7F00000C00000013000000010000000C00000014000000010000005400000007000000030000
310
0099B453359FE4A84034760950AB10964000000000000000009FFEAF057B0BA940328B34A1436E9640000000000000000062468262E6F5A840C8CA30D485FC954000000000000000000C00000013000000891300003C00000006000000020000007DFDEACB42EDA8407E201D92980696400000000000000000AC8B387F185F
310
A84098632539E61E944000000000000000000C00000013000000112700003C0000000600000002000000AC8B387F185FA84098632539E61E94400000000000000000DFBE6BB24B54A84098632539E61E944000000000000000000C00000016000000000000C00C00000012000000FF7F00000C00000017000000000000000C
310
000000130000009A3A00003C0000000600000002000000AC8B387F9833A84098632539E61E94400000000000000000DFBE6BB24B54A84098632539E61E944000000000000000000C00000016000000000000C00C00000012000000FF7F00000C00000017000000FFFFFFFF0C0000003300000000000000
100
AcDbMLeader
300
CONTEXT_DATA{
 40
15.0
 10
3081.447845618296
 20
1287.724827369884
 30
0.0
 41
30.0
140
30.0
145
16.35
174
     6
175
     6
176
     2
177
     0
290
     1
304

 11
0.0
 21
0.0
 31
1.0
340
50
 12
3097.797845618296
 22
1317.724827369884
 32
0.0
 13
1.0
 23
0.0
 33
0.0
 42
0.0
 43
0.0
 44
0.0
 45
1.0
170
     1
 90
-1073741824
171
     3
172
     5
 91
-1073741824
141
0.0
 92
        0
291
     0
292
     0
173
     0
293
     0
142
0.0
143
0.0
294
     0
295
     0
296
     0
110
3205.740277767021
120
1435.566044636722
130
0.0
111
1.0
121
0.0
131
0.0
112
0.0
122
1.0
132
0.0
297
     0
302
LEADER{
290
     1
291
     1
 10
3119.547845618296
 20
1287.724827369884
 30
0.0
 11
-1.0
 21
0.0
 31
0.0
 90
        0
 40
5.399999999999999
304
LEADER_LINE{
 10
3205.740277767021
 20
1435.566044636722
 30
0.0
 91
        0
305
}
303
}
301
}
340
62
 90
   279552
170
     1
 91
-1056964608
341
56
171
    -2
290
     1
291
     1
 41
0.36
 42
2.0
172
     2
343
50
173
     6
 95
        6
174
     1
175
     2
 92
-1056964608
292
     0
 93
-1056964608
 10
1.0
 20
1.0
 30
1.0
 43
0.0
176
     0
293
     0
294
     0
178
     0
179
     3
 45
15.0
1001
ACAD_MLEADERVER
1070
     2
  0
MULTILEADER
  5
1945
102
{ACAD_XDICTIONARY
360
1946
102
}
102
{ACAD_REACTORS
330
1947
102
}
330
67
100
AcDbEntity
  8
寸法
 92
      500
310
F4010000170000000C00000016000000000000C00C00000033000000000000000C00000013000000993A00000C00000033000000000000000C00000010000000050000000C00000016000000000000C00C00000012000000FF7F00000C00000013000000010000000C00000014000000010000005400000007000000030000
310
005513004281CDA840DA684FEB8D7D944000000000000000005CB0A7E49609A9407A7CAB298390944000000000000000003E0AC5B5D3D3A84023FDCBFA9A57944000000000000000000C00000013000000891300003C0000000600000002000000CA8EE27BAAD0A840FFB20D73946A94400000000000000000AC8B387F185F
310
A84098632539E61E944000000000000000000C00000013000000112700003C0000000600000002000000AC8B387F185FA84098632539E61E94400000000000000000DFBE6BB24B54A84098632539E61E944000000000000000000C00000016000000000000C00C00000012000000FF7F00000C00000017000000000000000C
310
000000130000009A3A00003C0000000600000002000000AC8B387F9833A84098632539E61E94400000000000000000DFBE6BB24B54A84098632539E61E944000000000000000000C00000016000000000000C00C00000012000000FF7F00000C00000017000000FFFFFFFF0C0000003300000000000000
100
AcDbMLeader
300
CONTEXT_DATA{
 40
15.0
 10
3081.447845618296
 20
1287.724827369884
 30
0.0
 41
30.0
140
30.0
145
16.35
174
     6
175
     6
176
     2
177
     0
290
     1
304

 11
0.0
 21
0.0
 31
1.0
340
50
 12
3097.797845618296
 22
1317.724827369884
 32
0.0
 13
1.0
 23
0.0
 33
0.0
 42
0.0
 43
0.0
 44
0.0
 45
1.0
170
     1
 90
-1073741824
171
     3
172
     5
 91
-1073741824
141
0.0
 92
        0
291
     0
292
     0
173
     0
293
     0
142
0.0
143
0.0
294
     0
295
     0
296
     0
110
3204.794713249472
120
1316.128088645432
130
0.0
111
1.0
121
0.0
131
0.0
112
0.0
122
1.0
132
0.0
297
     0
302
LEADER{
290
     1
291
     1
 10
3119.547845618296
 20
1287.724827369884
 30
0.0
 11
-1.0
 21
0.0
 31
0.0
 90
        0
 40
5.399999999999999
304
LEADER_LINE{
 10
3204.794713249472
 20
1316.128088645432
 30
0.0
 91
        0
305
}
303
}
301
}
340
62
 90
   279552
170
     1
 91
-1056964608
341
56
171
    -2
290
     1
291
     1
 41
0.36
 42
2.0
172
     2
343
50
173
     6
 95
        6
174
     1
175
     2
 92
-1056964608
292
     0
 93
-1056964608
 10
1.0
 20
1.0
 30
1.0
 43
0.0
176
     0
293
     0
294
     0
178
     0
179
     3
 45
15.0
1001
ACAD_MLEADERVER
1070
     2
  0
MULTILEADER
  5
1948
102
{ACAD_XDICTIONARY
360
1949
102
}
102
{ACAD_REACTORS
330
194A
102
}
330
67
100
AcDbEntity
  8
寸法
 92
     1068
310
2C0400001A0000000C00000016000000000000C00C00000033000000000000000C00000013000000993A0000BC00000026000000CB172FF1AA9FAD405587A01956979240000000000000000000000000000000000000000000000000000000000000F03F000000000000F03F00000000000000000000000000000000C60300
310
0001000000010000000000000000003E40000000000000F03F0000000000000000000000000000F03F0000000000000000000000000000000000000000000000000000000001000000320000002DFF33FF200030FFB430B730C330AF30000000000000000000000000C000000026000000E374A3C2F0F6AD405587A0195697
310
9240000000000000000000000000000000000000000000000000000000000000F03F000000000000F03F0000000000000000000000000000000034002D00310032000000000004000000010000000000000000003E40000000000000F03F0000000000000000000000000000F03F0000000000000000000000000000000000
310
00000000000000000000000100000000000000000000007400780074002E00730068007800000000000000BC00000026000000E374A3C2F0D2AE405587A01956979240000000000000000000000000000000000000000000000000000000000000F03F000000000000F03F000000000000000000000000000000002C670000
310
01000000010000000000000000003E40000000000000F03F0000000000000000000000000000F03F0000000000000000000000000000000000000000000000000000000001000000320000002DFF33FF200030FFB430B730C330AF300000000000000000000000000C00000033000000000000000C00000010000000050000
310
000C00000016000000000000C00C00000012000000FF7F00000C00000013000000010000000C0000001400000001000000540000000700000003000000D0A24FFDE746A940FFC20546121B95400000000000000000000000008010A940E8BD33D8795195400000000000000000D66175A6C94CA9408BC49C7C4D4195400000
310
0000000000000C00000013000000891300003C00000006000000020000005382E2D1D849A940C54351E12F2E95400000000000000000B4BABA1FE585AD406CE414EB1B93924000000000000000000C00000013000000112700003C0000000600000002000000B4BABA1FE585AD406CE414EB1B939240000000000000000081
310
8787ECB190AD406CE414EB1B93924000000000000000000C00000016000000000000C00C00000012000000FF7F00000C00000017000000000000000C000000130000009A3A00003C0000000600000002000000818787ECB190AD406CE414EB1B939240000000000000000040E97408C825AF406CE414EB1B93924000000000
310
000000000C00000016000000000000C00C00000012000000FF7F00000C00000017000000FFFFFFFF0C0000003300000000000000
100
AcDbMLeader
300
CONTEXT_DATA{
 40
15.0
 10
3784.347507701198
 20
1188.777263952676
 30
0.0
 41
30.0
140
30.0
145
16.35
174
     6
175
     6
176
     0
177
     0
290
     1
304
{\fMS PGothic|b0|i0|c128|p50;φ}4-12{\fMS PGothic|b0|i0|c128|p50;本}
 11
0.0
 21
0.0
 31
1.0
340
50
 12
3800.697507701198
 22
1224.777263952676
 32
0.0
 13
1.0
 23
0.0
 33
0.0
 42
0.0
 43
0.0
 44
0.0
 45
1.0
170
     1
 90
-1073741824
171
     1
172
     5
 91
-1073741824
141
0.0
 92
        0
291
     0
292
     0
173
     0
293
     0
142
0.0
143
0.0
294
     0
295
     0
296
     0
110
3208.25
120
1364.368988808122
130
0.0
111
1.0
121
0.0
131
0.0
112
0.0
122
1.0
132
0.0
297
     0
302
LEADER{
290
     1
291
     1
 10
3778.947507701198
 20
1188.777263952676
 30
0.0
 11
1.0
 21
0.0
 31
0.0
 90
        0
 40
5.399999999999999
304
LEADER_LINE{
 10
3208.25
 20
1364.368988808122
 30
0.0
 91
        0
305
}
303
}
301
}
340
62
 90
   279552
170
     1
 91
-1056964608
341
56
171
    -2
290
     1
291
     1
 41
0.36
 42
2.0
172
     2
343
50
173
     6
 95
        6
174
     1
175
     0
 92
-1056964608
292
     0
 93
-1056964608
 10
1.0
 20
1.0
 30
1.0
 43
0.0
176
     0
293
     0
294
     0
178
     0
179
     1
 45
15.0
1001
ACAD_MLEADERVER
1070
     2
  0
MULTILEADER
  5
194B
102
{ACAD_XDICTIONARY
360
194C
102
}
102
{ACAD_REACTORS
330
194D
102
}
330
67
100
AcDbEntity
  8
寸法
 92
      500
310
F4010000170000000C00000016000000000000C00C00000033000000000000000C00000013000000993A00000C00000033000000000000000C00000010000000050000000C00000016000000000000C00C00000012000000FF7F00000C00000013000000010000000C00000014000000010000005400000007000000030000
310
007DB72ADD6721AD40A8ACC97EE9C094400000000000000000FEFFFFFF7F18AD40046D6CA3413995400000000000000000D1720B8B7034AD406E6586A131CD944000000000000000000C00000013000000891300003C000000060000000200000027151B34EC2AAD400B0928900DC794400000000000000000B4BABA1FE585
310
AD406CE414EB1B93924000000000000000000C00000013000000112700003C0000000600000002000000B4BABA1FE585AD406CE414EB1B9392400000000000000000818787ECB190AD406CE414EB1B93924000000000000000000C00000016000000000000C00C00000012000000FF7F00000C00000017000000000000000C
310
000000130000009A3A00003C0000000600000002000000818787ECB190AD406CE414EB1B9392400000000000000000B4BABA1F65B1AD406CE414EB1B93924000000000000000000C00000016000000000000C00C00000012000000FF7F00000C00000017000000FFFFFFFF0C0000003300000000000000
100
AcDbMLeader
300
CONTEXT_DATA{
 40
15.0
 10
3784.347507701198
 20
1188.777263952676
 30
0.0
 41
30.0
140
30.0
145
16.35
174
     6
175
     6
176
     0
177
     0
290
     1
304

 11
0.0
 21
0.0
 31
1.0
340
50
 12
3800.697507701198
 22
1218.777263952677
 32
0.0
 13
1.0
 23
0.0
 33
0.0
 42
0.0
 43
0.0
 44
0.0
 45
1.0
170
     1
 90
-1073741824
171
     1
172
     5
 91
-1073741824
141
0.0
 92
        0
291
     0
292
     0
173
     0
293
     0
142
0.0
143
0.0
294
     0
295
     0
296
     0
110
3724.25
120
1358.314099973825
130
0.0
111
1.0
121
0.0
131
0.0
112
0.0
122
1.0
132
0.0
297
     0
302
LEADER{
290
     1
291
     1
 10
3778.947507701198
 20
1188.777263952676
 30
0.0
 11
1.0
 21
0.0
 31
0.0
 90
        0
 40
5.399999999999999
304
LEADER_LINE{
 10
3724.25
 20
1358.314099973825
 30
0.0
 91
        0
305
}
303
}
301
}
340
62
 90
   279552
170
     1
 91
-1056964608
341
56
171
    -2
290
     1
291
     1
 41
0.36
 42
2.0
172
     2
343
50
173
     6
 95
        6
174
     1
175
     0
 92
-1056964608
292
     0
 93
-1056964608
 10
1.0
 20
1.0
 30
1.0
 43
0.0
176
     0
293
     0
294
     0
178
     0
179
     1
 45
15.0
1001
ACAD_MLEADERVER
1070
     2
  0
MULTILEADER
  5
194E
330
67
100
AcDbEntity
  8
寸法
 92
     1068
310
2C0400001A0000000C00000016000000000000C00C00000033000000000000000C00000013000000993A0000BC00000026000000CB172FF1AA9FAD40D892D982B80F8740000000000000000000000000000000000000000000000000000000000000F03F000000000000F03F00000000000000000000000000000000C60300
310
0001000000010000000000000000003E40000000000000F03F0000000000000000000000000000F03F0000000000000000000000000000000000000000000000000000000001000000320000002DFF33FF200030FFB430B730C330AF30000000000000000000000000C000000026000000E374A3C2F0F6AD40D892D982B80F
310
8740000000000000000000000000000000000000000000000000000000000000F03F000000000000F03F0000000000000000000000000000000034002D00310032000000000004000000010000000000000000003E40000000000000F03F0000000000000000000000000000F03F0000000000000000000000000000000000
310
00000000000000000000000100000000000000000000007400780074002E00730068007800000000000000BC00000026000000E374A3C2F0D2AE40D892D982B80F8740000000000000000000000000000000000000000000000000000000000000F03F000000000000F03F000000000000000000000000000000002C670000
310
01000000010000000000000000003E40000000000000F03F0000000000000000000000000000F03F0000000000000000000000000000000000000000000000000000000001000000320000002DFF33FF200030FFB430B730C330AF300000000000000000000000000C00000033000000000000000C00000010000000050000
310
000C00000016000000000000C00C00000012000000FF7F00000C00000013000000010000000C0000001400000001000000540000000700000003000000D0A24FFDE746A9402C0AA4DB30178C400000000000000000000000008010A940FFFFFFFFFF838C400000000000000000D66175A6C94CA940450DD248A7638C400000
310
0000000000000C00000013000000891300003C00000006000000020000005382E2D1D849A940B90B3B126C3D8C400000000000000000B4BABA1FE585AD40074DC2254407874000000000000000000C00000013000000112700003C0000000600000002000000B4BABA1FE585AD40074DC22544078740000000000000000081
310
8787ECB190AD40074DC2254407874000000000000000000C00000016000000000000C00C00000012000000FF7F00000C00000017000000000000000C000000130000009A3A00003C0000000600000002000000818787ECB190AD40074DC22544078740000000000000000040E97408C825AF40074DC2254407874000000000
310
000000000C00000016000000000000C00C00000012000000FF7F00000C00000017000000FFFFFFFF0C0000003300000000000000
100
AcDbMLeader
300
CONTEXT_DATA{
 40
15.0
 10
3784.347507701198
 20
736.9082751445538
 30
0.0
 41
30.0
140
30.0
145
16.35
174
     6
175
     6
176
     0
177
     0
290
     1
304
{\fMS PGothic|b0|i0|c128|p50;φ}4-12{\fMS PGothic|b0|i0|c128|p50;本}
 11
0.0
 21
0.0
 31
1.0
340
50
 12
3800.697507701198
 22
772.9082751445538
 32
0.0
 13
1.0
 23
0.0
 33
0.0
 42
0.0
 43
0.0
 44
0.0
 45
1.0
170
     1
 90
-1073741824
171
     1
172
     5
 91
-1073741824
141
0.0
 92
        0
291
     0
292
     0
173
     0
293
     0
142
0.0
143
0.0
294
     0
295
     0
296
     0
110
3208.25
120
912.4999999999998
130
0.0
111
1.0
121
0.0
131
0.0
112
0.0
122
1.0
132
0.0
297
     0
302
LEADER{
290
     1
291
     1
 10
3778.947507701198
 20
736.9082751445538
 30
0.0
 11
1.0
 21
0.0
 31
0.0
 90
        0
 40
5.399999999999999
304
LEADER_LINE{
 10
3208.25
 20
912.4999999999998
 30
0.0
 91
        0
305
}
303
}
301
}
340
62
 90
   279552
170
     1
 91
-1056964608
341
56
171
    -2
290
     1
291
     1
 41
0.36
 42
2.0
172
     2
343
50
173
     6
 95
        6
174
     1
175
     0
 92
-1056964608
292
     0
 93
-1056964608
 10
1.0
 20
1.0
 30
1.0
 43
0.0
176
     0
293
     0
294
     0
178
     0
179
     1
 45
15.0
1001
ACAD_MLEADERVER
1070
     2
  0
MULTILEADER
  5
1951
330
67
100
AcDbEntity
  8
寸法
 92
      500
310
F4010000170000000C00000016000000000000C00C00000033000000000000000C00000013000000993A00000C00000033000000000000000C00000010000000050000000C00000016000000000000C00C00000012000000FF7F00000C00000013000000010000000C00000014000000010000005400000007000000030000
310
007DB72ADD6721AD407FDD2B4DDF628B400000000000000000FEFFFFFF7F18AD40375E71968F538C400000000000000000D1720B8B7034AD400C4FA5926F7B8B4000000000000000000C00000013000000891300003C000000060000000200000027151B34EC2AAD404696E86F276F8B400000000000000000B4BABA1FE585
310
AD40074DC2254407874000000000000000000C00000013000000112700003C0000000600000002000000B4BABA1FE585AD40074DC225440787400000000000000000818787ECB190AD40074DC2254407874000000000000000000C00000016000000000000C00C00000012000000FF7F00000C00000017000000000000000C
310
000000130000009A3A00003C0000000600000002000000818787ECB190AD40074DC225440787400000000000000000B4BABA1F65B1AD40074DC2254407874000000000000000000C00000016000000000000C00C00000012000000FF7F00000C00000017000000FFFFFFFF0C0000003300000000000000
100
AcDbMLeader
300
CONTEXT_DATA{
 40
15.0
 10
3784.347507701198
 20
736.9082751445538
 30
0.0
 41
30.0
140
30.0
145
16.35
174
     6
175
     6
176
     0
177
     0
290
     1
304

 11
0.0
 21
0.0
 31
1.0
340
50
 12
3800.697507701198
 22
766.9082751445538
 32
0.0
 13
1.0
 23
0.0
 33
0.0
 42
0.0
 43
0.0
 44
0.0
 45
1.0
170
     1
 90
-1073741824
171
     1
172
     5
 91
-1073741824
141
0.0
 92
        0
291
     0
292
     0
173
     0
293
     0
142
0.0
143
0.0
294
     0
295
     0
296
     0
110
3724.25
120
906.4451111657024
130
0.0
111
1.0
121
0.0
131
0.0
112
0.0
122
1.0
132
0.0
297
     0
302
LEADER{
290
     1
291
     1
 10
3778.947507701198
 20
736.9082751445538
 30
0.0
 11
1.0
 21
0.0
 31
0.0
 90
        0
 40
5.399999999999999
304
LEADER_LINE{
 10
3724.25
 20
906.4451111657024
 30
0.0
 91
        0
305
}
303
}
301
}
340
62
 90
   279552
170
     1
 91
-1056964608
341
56
171
    -2
290
     1
291
     1
 41
0.36
 42
2.0
172
     2
343
50
173
     6
 95
        6
174
     1
175
     0
 92
-1056964608
292
     0
 93
-1056964608
 10
1.0
 20
1.0
 30
1.0
 43
0.0
176
     0
293
     0
294
     0
178
     0
179
     1
 45
15.0
1001
ACAD_MLEADERVER
1070
     2
  0
MULTILEADER
  5
1954
330
67
100
AcDbEntity
  8
寸法
 92
      500
310
F4010000170000000C00000016000000000000C00C00000033000000000000000C00000013000000993A00000C00000033000000000000000C00000010000000050000000C00000016000000000000C00C00000012000000FF7F00000C00000013000000010000000C00000014000000010000005400000007000000030000
310
00FC07555D6ACCA840C0D8478315F68A40000000000000000003A5FCFF7F08A94000000000001C8B400000000000000000E5FE19D1BCD2A840520141A22FAA8A4000000000000000000C00000013000000891300003C00000006000000020000007183379793CFA840096DC49222D08A40000000000000000053808D9A015E
310
A8403CCEF31EC6388A4000000000000000000C00000013000000112700003C000000060000000200000053808D9A015EA8403CCEF31EC6388A40000000000000000086B3C0CD3453A8403CCEF31EC6388A4000000000000000000C00000016000000000000C00C00000012000000FF7F00000C00000017000000000000000C
310
000000130000009A3A00003C000000060000000200000053808D9A8132A8403CCEF31EC6388A40000000000000000086B3C0CD3453A8403CCEF31EC6388A4000000000000000000C00000016000000000000C00C00000012000000FF7F00000C00000017000000FFFFFFFF0C0000003300000000000000
100
AcDbMLeader
300
CONTEXT_DATA{
 40
15.0
 10
3080.903132268824
 20
839.0967387244522
 30
0.0
 41
30.0
140
30.0
145
16.35
174
     6
175
     6
176
     2
177
     0
290
     1
304

 11
0.0
 21
0.0
 31
1.0
340
50
 12
3097.253132268825
 22
869.0967387244523
 32
0.0
 13
1.0
 23
0.0
 33
0.0
 42
0.0
 43
0.0
 44
0.0
 45
1.0
170
     1
 90
-1073741824
171
     3
172
     5
 91
-1073741824
141
0.0
 92
        0
291
     0
292
     0
173
     0
293
     0
142
0.0
143
0.0
294
     0
295
     0
296
     0
110
3204.249999900001
120
867.5
130
0.0
111
1.0
121
0.0
131
0.0
112
0.0
122
1.0
132
0.0
297
     0
302
LEADER{
290
     1
291
     1
 10
3119.003132268824
 20
839.0967387244522
 30
0.0
 11
-1.0
 21
0.0
 31
0.0
 90
        0
 40
5.399999999999999
304
LEADER_LINE{
 10
3204.249999900001
 20
867.5
 30
0.0
 91
        0
305
}
303
}
301
}
340
62
 90
   279552
170
     1
 91
-1056964608
341
56
171
    -2
290
     1
291
     1
 41
0.36
 42
2.0
172
     2
343
50
173
     6
 95
        6
174
     1
175
     2
 92
-1056964608
292
     0
 93
-1056964608
 10
1.0
 20
1.0
 30
1.0
 43
0.0
176
     0
293
     0
294
     0
178
     0
179
     3
 45
15.0
1001
ACAD_MLEADERVER
1070
     2
  0
MULTILEADER
  5
1957
102
{ACAD_XDICTIONARY
360
1958
102
}
102
{ACAD_REACTORS
330
1959
102
}
330
67
100
AcDbEntity
  8
寸法
 92
     1064
310
280400001A0000000C00000016000000000000C00C00000033000000000000000C00000013000000993A0000BC00000026000000DEAE478364D4A6400D140B7C3A418A40000000000000000000000000000000000000000000000000000000000000F03F000000000000F03F00000000000000000000000000000000C60300
310
0001000000010000000000000000003E40000000000000F03F0000000000000000000000000000F03F0000000000000000000000000000000000000000000000000000000001000000320000002DFF33FF200030FFB430B730C330AF30000000000000000000000000BC00000026000000F60BBC54AA2BA7400D140B7C3A41
310
8A40000000000000000000000000000000000000000000000000000000000000F03F000000000000F03F0000000000000000000000000000000034002D003200000003000000010000000000000000003E40000000000000F03F0000000000000000000000000000F03F000000000000000000000000000000000000000000
310
000000000000000100000000000000000000007400780074002E00730068007800000000000000BC00000026000000F60BBC54AADFA7400D140B7C3A418A40000000000000000000000000000000000000000000000000000000000000F03F000000000000F03F000000000000000000000000000000002C67000001000000
310
010000000000000000003E40000000000000F03F0000000000000000000000000000F03F0000000000000000000000000000000000000000000000000000000001000000320000002DFF33FF200030FFB430B730C330AF300000000000000000000000000C00000033000000000000000C00000010000000050000000C0000
310
0016000000000000C00C00000012000000FF7F00000C00000013000000010000000C0000001400000001000000540000000700000003000000B1046072E6DDA8403E3243E2D1378D4000000000000000008FC09A996509A9407F826B6AE7E18D400000000000000000DE3ECEBD0AEEA840885E3EE095088D40000000000000
310
00000C00000013000000891300003C0000000600000002000000C7211798F8E5A84063C840E133208D40000000000000000053808D9A015EA8403CCEF31EC6388A4000000000000000000C00000013000000112700003C000000060000000200000053808D9A015EA8403CCEF31EC6388A40000000000000000086B3C0CD34
310
53A8403CCEF31EC6388A4000000000000000000C00000016000000000000C00C00000012000000FF7F00000C00000017000000000000000C000000130000009A3A00003C0000000600000002000000C751D3B11EE6A6403CCEF31EC6388A40000000000000000086B3C0CD3453A8403CCEF31EC6388A400000000000000000
310
0C00000016000000000000C00C00000012000000FF7F00000C00000017000000FFFFFFFF0C0000003300000000000000
100
AcDbMLeader
300
CONTEXT_DATA{
 40
15.0
 10
2914.709950450643
 20
839.0967387244522
 30
0.0
 41
30.0
140
30.0
145
16.35
174
     6
175
     6
176
     2
177
     0
290
     1
304
{\fMS PGothic|b0|i0|c128|p50;φ}4-2{\fMS PGothic|b0|i0|c128|p50;本}
 11
0.0
 21
0.0
 31
1.0
340
50
 12
3097.253132268825
 22
875.0967387244523
 32
0.0
 13
1.0
 23
0.0
 33
0.0
 42
0.0
 43
0.0
 44
0.0
 45
1.0
170
     1
 90
-1073741824
171
     3
172
     5
 91
-1073741824
141
0.0
 92
        0
291
     0
292
     0
173
     0
293
     0
142
0.0
143
0.0
294
     0
295
     0
296
     0
110
3204.698437534338
120
956.2379959487151
130
0.0
111
1.0
121
0.0
131
0.0
112
0.0
122
1.0
132
0.0
297
     0
302
LEADER{
290
     1
291
     1
 10
3119.003132268824
 20
839.0967387244522
 30
0.0
 11
-1.0
 21
0.0
 31
0.0
 90
        0
 40
5.399999999999999
304
LEADER_LINE{
 10
3204.698437534338
 20
956.2379959487151
 30
0.0
 91
        0
305
}
303
}
301
}
340
62
 90
   279552
170
     1
 91
-1056964608
341
56
171
    -2
290
     1
291
     1
 41
0.36
 42
2.0
172
     2
343
50
173
     6
 95
        6
174
     1
175
     2
 92
-1056964608
292
     0
 93
-1056964608
 10
1.0
 20
1.0
 30
1.0
 43
0.0
176
     0
293
     0
294
     0
178
     0
179
     3
 45
15.0
1001
ACAD_MLEADERVER
1070
     2
  0
ENDSEC
  0
SECTION
  2
OBJECTS
  0
DICTIONARY
  5
C
330
0
100
AcDbDictionary
281
     1
  3
ACAD_CIP_PREVIOUS_PRODUCT_INFO
350
14E
  3
ACAD_COLOR
350
5E
  3
ACAD_GROUP
350
D
  3
ACAD_LAYOUT
350
5D
  3
ACAD_MATERIAL
350
10
  3
ACAD_MLEADERSTYLE
350
61
  3
ACAD_MLINESTYLE
350
5A
  3
ACAD_PLOTSETTINGS
350
5C
  3
ACAD_PLOTSTYLENAME
350
E
  3
ACAD_SCALELIST
350
3D
  3
ACAD_TABLESTYLE
350
5F
  3
ACAD_VISUALSTYLE
350
29
  3
ACDB_RECOMPOSE_DATA
350
198D
  3
AcDbVariableDictionary
350
8E
  0
DICTIONARY
  5
A1
330
2
100
AcDbDictionary
280
     1
281
     1
  3
ACAD_LAYERSTATES
360
A2
  0
DICTIONARY
  5
9C
330
67
100
AcDbDictionary
280
     1
281
     1
  3
ACAD_SORTENTS
360
9D
  0
DICTIONARY
  5
33F
330
330
100
AcDbDictionary
280
     1
281
     1
  3
ACAD_DIMASSOC
360
34B
  0
DICTIONARY
  5
359
330
34C
100
AcDbDictionary
280
     1
281
     1
  3
ACAD_DIMASSOC
360
363
  0
DICTIONARY
  5
493
330
484
100
AcDbDictionary
280
     1
281
     1
  3
ACAD_DIMASSOC
360
49F
  0
DICTIONARY
  5
4AF
330
4A0
100
AcDbDictionary
280
     1
281
     1
  3
ACAD_DIMASSOC
360
4BB
  0
DICTIONARY
  5
12F8
330
12E9
100
AcDbDictionary
280
     1
281
     1
  3
ACAD_DIMASSOC
360
1304
  0
DICTIONARY
  5
1931
330
1930
100
AcDbDictionary
280
     1
281
     1
  3
ACAD_DIMASSOC
360
1932
  0
DICTIONARY
  5
1934
330
1933
100
AcDbDictionary
280
     1
281
     1
  3
ACAD_DIMASSOC
360
1935
  0
DICTIONARY
  5
1937
330
1936
100
AcDbDictionary
280
     1
281
     1
  3
ACAD_DIMASSOC
360
1938
  0
DICTIONARY
  5
193A
330
1939
100
AcDbDictionary
280
     1
281
     1
  3
ACAD_DIMASSOC
360
193B
  0
DICTIONARY
  5
193D
330
193C
100
AcDbDictionary
280
     1
281
     1
  3
ACAD_DIMASSOC
360
193E
  0
DICTIONARY
  5
1940
330
193F
100
AcDbDictionary
280
     1
281
     1
  3
ACAD_DIMASSOC
360
1941
  0
DICTIONARY
  5
1943
330
1942
100
AcDbDictionary
280
     1
281
     1
  3
ACAD_DIMASSOC
360
1944
  0
DICTIONARY
  5
1946
330
1945
100
AcDbDictionary
280
     1
281
     1
  3
ACAD_DIMASSOC
360
1947
  0
DICTIONARY
  5
1949
330
1948
100
AcDbDictionary
280
     1
281
     1
  3
ACAD_DIMASSOC
360
194A
  0
DICTIONARY
  5
194C
330
194B
100
AcDbDictionary
280
     1
281
     1
  3
ACAD_DIMASSOC
360
194D
  0
DICTIONARY
  5
1958
330
1957
100
AcDbDictionary
280
     1
281
     1
  3
ACAD_DIMASSOC
360
1959
  0
XRECORD
  5
14E
102
{ACAD_REACTORS
330
C
102
}
330
C
100
AcDbXrecord
280
     1
300
ACDLT
300
2012
300

  0
DICTIONARY
  5
5E
102
{ACAD_REACTORS
330
C
102
}
330
C
100
AcDbDictionary
281
     1
  0
DICTIONARY
  5
D
102
{ACAD_REACTORS
330
C
102
}
330
C
100
AcDbDictionary
281
     1
  0
DICTIONARY
  5
5D
102
{ACAD_REACTORS
330
C
102
}
330
C
100
AcDbDictionary
281
     1
  3
Model
350
6A
  3
レイアウト1
350
66
  3
レイアウト2
350
6E
  0
DICTIONARY
  5
10
102
{ACAD_REACTORS
330
C
102
}
330
C
100
AcDbDictionary
281
     1
  3
ByBlock
350
19
  3
ByLayer
350
11
  3
Global
350
21
  0
DICTIONARY
  5
61
102
{ACAD_REACTORS
330
C
102
}
330
C
100
AcDbDictionary
281
     1
  3
Standard
350
62
  0
DICTIONARY
  5
5A
102
{ACAD_REACTORS
330
C
102
}
330
C
100
AcDbDictionary
281
     1
  3
Standard
350
5B
  0
DICTIONARY
  5
5C
102
{ACAD_REACTORS
330
C
102
}
330
C
100
AcDbDictionary
281
     1
  0
ACDBDICTIONARYWDFLT
  5
E
102
{ACAD_REACTORS
330
C
102
}
330
C
100
AcDbDictionary
281
     1
  3
Normal
350
F
100
AcDbDictionaryWithDefault
340
F
  0
DICTIONARY
  5
3D
102
{ACAD_REACTORS
330
C
102
}
330
C
100
AcDbDictionary
281
     1
  3
A0
350
3E
  3
A1
350
3F
  3
A2
350
40
  3
A3
350
41
  3
A4
350
42
  3
A5
350
43
  3
A6
350
44
  3
A7
350
45
  3
A8
350
46
  3
A9
350
47
  3
B0
350
48
  3
B1
350
49
  3
B2
350
4A
  3
B3
350
4B
  3
B4
350
4C
  3
B5
350
4D
  3
B6
350
4E
  0
DICTIONARY
  5
5F
102
{ACAD_REACTORS
330
C
102
}
330
C
100
AcDbDictionary
281
     1
  3
Standard
350
60
  0
DICTIONARY
  5
29
102
{ACAD_REACTORS
330
C
102
}
330
C
100
AcDbDictionary
281
     1
  3
2dWireframe
350
2F
  3
3D Hidden
350
31
  3
3dWireframe
350
30
  3
Basic
350
2E
  3
Brighten
350
35
  3
ColorChange
350
39
  3
Conceptual
350
32
  3
Dim
350
34
  3
EdgeColorOff
350
3C
  3
Facepattern
350
38
  3
Flat
350
2A
  3
FlatWithEdges
350
2B
  3
Gouraud
350
2C
  3
GouraudWithEdges
350
2D
  3
Hidden
350
142
  3
JitterOff
350
3A
  3
Linepattern
350
37
  3
OverhangOff
350
3B
  3
Realistic
350
33
  3
Shaded
350
147
  3
Shaded with edges
350
146
  3
Shades of Gray
350
143
  3
Sketchy
350
144
  3
Thicken
350
36
  3
Wireframe
350
141
  3
X-Ray
350
145
  0
XRECORD
  5
198D
102
{ACAD_REACTORS
330
C
102
}
330
C
100
AcDbXrecord
280
     1
 90
        1
330
60
330
330
330
484
330
4A0
330
5B8
330
604
330
65A
330
676
330
6EA
330
70F
330
72B
330
78D
330
7A9
330
7FE
330
9F9
  0
DICTIONARY
  5
8E
102
{ACAD_REACTORS
330
C
102
}
330
C
100
AcDbDictionary
281
     1
  3
CANNOSCALE
350
91
  3
CMLEADERSTYLE
350
90
  3
CTABLESTYLE
350
8F
  3
MLEADERSCALE
350
831
  3
XCLIPFRAME
350
198B
  0
DICTIONARY
  5
A2
102
{ACAD_REACTORS
330
A1
102
}
330
A1
100
AcDbDictionary
281
     1
  0
SORTENTSTABLE
  5
9D
102
{ACAD_REACTORS
330
9C
102
}
330
9C
100
AcDbSortentsTable
330
67
331
C6
  5
C6
331
2A7
  5
1314
331
2A3
  5
1312
331
3F9
  5
131D
331
131F
  5
1384
331
15A4
  5
128C
331
1382
  5
13AF
331
4A0
  5
1328
331
1194
  5
6EA
331
179E
  5
17A1
331
137E
  5
13AA
331
1190
  5
484
331
13C1
  5
110C
331
179A
  5
179D
331
137A
  5
13A8
331
1570
  5
128B
331
1838
  5
1838
331
17D5
  5
17D7
331
17D1
  5
17D3
331
1834
  5
1834
331
1792
  5
1798
331
26F
  5
11C4
331
26B
  5
1165
331
13BD
  5
E6B
331
1376
  5
13A4
331
9A
  5
9A
331
CE0
  5
1370
331
13B9
  5
166C
331
1372
  5
139B
331
180
  5
D81
331
CDC
  5
136D
331
13B5
  5
15A5
331
17CD
  5
17CF
331
178E
  5
1790
331
136E
  5
1397
331
17C9
  5
17CC
331
136A
  5
1393
331
1828
  5
182A
331
1824
  5
1826
331
17C1
  5
17C3
331
25B
  5
1163
331
17C
  5
9F9
331
484
  5
1327
331
174
  5
78D
331
46C
  5
1326
331
13A9
  5
13F5
331
2EA
  5
1317
331
13A5
  5
13C4
331
135E
  5
138F
331
970
  5
1369
331
13A1
  5
13C0
331
17B9
  5
17BA
331
13F4
  5
E38
331
186F
  5
186F
331
1818
  5
1823
331
17B5
  5
17C9
331
186B
  5
186B
331
1814
  5
181F
331
1810
  5
181B
331
24F
  5
110F
331
D1
  5
D1
331
454
  5
1325
331
12AF
  5
604
331
2D2
  5
1316
331
CD
  5
CD
331
395
  5
131A
331
C9
  5
C9
331
958
  5
1364
331
132A
  5
1389
331
1399
  5
13BF
331
7A9
  5
135A
331
1395
  5
13BE
331
1326
  5
1385
331
1867
  5
1867
331
11C3
  5
1375
331
6EA
  5
1355
331
1391
  5
13B6
331
1322
  5
138A
331
166B
  5
12AD
331
1863
  5
1863
331
17A9
  5
17B5
331
185F
  5
185F
331
17A5
  5
17A8
331
185B
  5
185B
331
17EC
  5
E68
331
17A1
  5
17A4
331
C5
  5
C5
331
11BF
  5
1371
331
2A6
  5
1313
331
2A2
  5
1311
331
15A7
  5
12B5
331
131E
  5
1382
331
1381
  5
13AE
331
78D
  5
1359
331
137D
  5
13A9
331
179D
  5
17A0
331
1193
  5
4A0
331
1379
  5
13A7
331
1799
  5
179C
331
1837
  5
1837
331
17D4
  5
17D6
331
17D0
  5
17D2
331
1833
  5
1833
331
1791
  5
1794
331
676
  5
1344
331
26E
  5
11C3
331
1375
  5
13A3
331
13B8
  5
166B
331
1371
  5
139A
331
65A
  5
132B
331
13B4
  5
15A4
331
136D
  5
1396
331
17CC
  5
17CE
331
178D
  5
178F
331
CDB
  5
136C
331
1369
  5
1392
331
182B
  5
182D
331
1827
  5
1829
331
17C4
  5
17C6
331
1823
  5
1825
331
17F
  5
CDD
331
17B
  5
970
331
177
  5
847
331
13AC
  5
1517
331
173
  5
747
331
13A8
  5
13F4
331
12B6
  5
676
331
13A4
  5
13C3
331
135D
  5
138E
331
17BC
  5
17BD
331
13F3
  5
E36
331
186E
  5
186E
331
1817
  5
1822
331
186A
  5
186A
331
1813
  5
181E
331
24E
  5
110E
331
D4
  5
D4
331
D0
  5
D0
331
398
  5
131B
331
CC
  5
CC
331
C8
  5
C8
331
1398
  5
13B5
331
1329
  5
138B
331
11C6
  5
1378
331
1394
  5
13B4
331
1325
  5
1387
331
166E
  5
12B1
331
1866
  5
1866
331
180F
  5
181A
331
11C2
  5
1374
331
1390
  5
13B3
331
1321
  5
1388
331
1862
  5
1862
331
17A8
  5
17B3
331
185E
  5
185E
331
17A4
  5
17A7
331
185A
  5
185A
331
17EB
  5
E34
331
17A0
  5
17A3
331
C4
  5
C4
331
236
  5
D85
331
1384
  5
13B2
331
15A6
  5
12AE
331
847
  5
1363
331
2A1
  5
12E9
331
131D
  5
1380
331
1380
  5
13AC
331
13C3
  5
110D
331
179C
  5
179F
331
1192
  5
5B8
331
1378
  5
13A6
331
17D7
  5
17D9
331
1798
  5
179B
331
17D3
  5
17D5
331
1836
  5
1836
331
1794
  5
179A
331
1832
  5
1832
331
1790
  5
1793
331
275
  5
11EE
331
34C
  5
1319
331
13BF
  5
10EC
331
26D
  5
11C2
331
13BB
  5
E30
331
1436
  5
178E
331
1374
  5
139D
331
13B7
  5
15A7
331
1370
  5
1399
331
17CF
  5
17D1
331
13B3
  5
1571
331
136C
  5
1395
331
CDA
  5
136B
331
1368
  5
1391
331
182A
  5
182C
331
1826
  5
1828
331
17C3
  5
17C5
331
1822
  5
1824
331
25D
  5
1164
331
17E
  5
CDC
331
17A
  5
958
331
13AF
  5
1519
331
330
  5
1318
331
176
  5
83A
331
251
  5
111C
331
13AB
  5
1436
331
12E9
  5
137B
331
172
  5
72B
331
17BF
  5
17C2
331
13A7
  5
13F3
331
12B5
  5
137A
331
13A3
  5
13C2
331
135C
  5
138D
331
12B1
  5
D38
331
17B7
  5
17B7
331
1871
  5
1871
331
13F2
  5
E32
331
186D
  5
186D
331
1816
  5
1821
331
1869
  5
1869
331
1812
  5
181D
331
D3
  5
D3
331
CF
  5
CF
331
CB
  5
CB
331
139B
  5
13B8
331
241
  5
DCC
331
1397
  5
13B7
331
1328
  5
137F
331
11C5
  5
1377
331
2A8
  5
1315
331
1393
  5
13BD
331
1324
  5
1381
331
166D
  5
12B4
331
1865
  5
1865
331
180E
  5
1819
331
11C1
  5
1373
331
17A7
  5
17AA
331
1861
  5
1861
331
1320
  5
1386
331
17A3
  5
17A6
331
185D
  5
185D
331
1859
  5
1859
331
C7
  5
C7
331
235
  5
D83
331
1383
  5
13B1
331
15A5
  5
12AB
331
179F
  5
17A2
331
137F
  5
13AB
331
179B
  5
179E
331
1318
  5
137C
331
17D6
  5
17D8
331
17D2
  5
17D4
331
1835
  5
1835
331
1793
  5
1799
331
1831
  5
1831
331
274
  5
11EB
331
270
  5
11C5
331
1377
  5
13A5
331
83A
  5
1362
331
9B
  5
9B
331
1435
  5
178D
331
1373
  5
139C
331
747
  5
1358
331
181
  5
D82
331
13B6
  5
15A6
331
17CE
  5
17D0
331
178F
  5
1791
331
136F
  5
1398
331
CDD
  5
136F
331
13B2
  5
1570
331
17CA
  5
17CD
331
136B
  5
1394
331
1829
  5
182B
331
17C6
  5
17CA
331
1825
  5
1827
331
25C
  5
1110
331
17D
  5
CDB
331
604
  5
132A
331
13AE
  5
CE0
331
1367
  5
1390
331
72B
  5
1357
331
175
  5
7FE
331
250
  5
1111
331
13AA
  5
1435
331
9F9
  5
136A
331
17BE
  5
17C0
331
13A6
  5
13F2
331
12B4
  5
1379
331
13A2
  5
13C1
331
135B
  5
138C
331
17BA
  5
17BC
331
13F5
  5
E67
331
12B0
  5
659
331
1870
  5
1870
331
186C
  5
186C
331
1815
  5
1820
331
1868
  5
1868
331
1811
  5
181C
331
39E
  5
131C
331
D2
  5
D2
331
7FE
  5
1361
331
70F
  5
1356
331
CE
  5
CE
331
5B8
  5
1329
331
CA
  5
CA
331
139A
  5
13BC
331
132B
  5
1383
331
240
  5
DCA
331
1396
  5
13BB
331
1327
  5
137D
331
11C4
  5
1376
331
411
  5
1320
331
1392
  5
13B9
331
1323
  5
137E
331
1864
  5
1864
331
180D
  5
1818
331
166C
  5
12B6
331
11C0
  5
1372
331
1860
  5
1860
331
17A6
  5
17A9
331
185C
  5
185C
331
17ED
  5
1817
331
17A2
  5
17A5
  0
DIMASSOC
  5
34B
102
{ACAD_REACTORS
330
33F
102
}
330
33F
100
AcDbDimAssoc
330
330
 90
        3
 70
     0
 71
     0
  1
AcDbOsnapPointRef
 72
    13
331
177
 73
     2
 91
        0
 40
0.0
 10
0.0
 20
0.0
 30
2.000000000000000E+50
 75
     0
  1
AcDbOsnapPointRef
 72
    13
331
175
 73
     2
 91
        0
 40
0.0
 10
0.0
 20
0.0
 30
2.000000000000000E+50
 75
     0
  0
DIMASSOC
  5
363
102
{ACAD_REACTORS
330
359
102
}
330
359
100
AcDbDimAssoc
330
34C
 90
        1
 70
     0
 71
     0
  1
AcDbOsnapPointRef
 72
     1
331
177
 73
     2
 91
        0
 40
1.0
 10
0.0
 20
0.0
 30
2.000000000000000E+50
 75
     0
  0
DIMASSOC
  5
49F
102
{ACAD_REACTORS
330
493
102
}
330
493
100
AcDbDimAssoc
330
484
 90
        1
 70
     0
 71
     0
  1
AcDbOsnapPointRef
 72
     1
331
26D
 73
     2
 91
        0
 40
1.0
 10
0.0
 20
0.0
 30
2.000000000000000E+50
 75
     0
  0
DIMASSOC
  5
4BB
102
{ACAD_REACTORS
330
4AF
102
}
330
4AF
100
AcDbDimAssoc
330
4A0
 90
        1
 70
     0
 71
     0
  1
AcDbOsnapPointRef
 72
    13
331
26E
 73
     2
 91
        0
 40
0.0
 10
0.0
 20
0.0
 30
2.000000000000000E+50
 75
     0
  0
DIMASSOC
  5
1304
102
{ACAD_REACTORS
330
12F8
102
}
330
12F8
100
AcDbDimAssoc
330
12E9
 90
        2
 70
     0
 71
     0
  1
AcDbOsnapPointRef
 72
    13
331
12B4
 73
     2
 91
        0
 40
0.0
 10
0.0
 20
0.0
 30
2.000000000000000E+50
 75
     0
  0
DIMASSOC
  5
1932
102
{ACAD_REACTORS
330
1931
102
}
330
1931
100
AcDbDimAssoc
330
1930
 90
        1
 70
     0
 71
     0
  1
AcDbOsnapPointRef
 72
    10
331
17EC
 73
     2
 91
        4
 40
0.4477755573266448
 10
0.0
 20
0.0
 30
0.0
 75
     0
  0
DIMASSOC
  5
1935
102
{ACAD_REACTORS
330
1934
102
}
330
1934
100
AcDbDimAssoc
330
1933
 90
        1
 70
     0
 71
     0
  1
AcDbOsnapPointRef
 72
     2
331
17EB
 73
     2
 91
        4
 40
0.4999999999999999
 10
0.0
 20
0.0
 30
0.0
 75
     0
  0
DIMASSOC
  5
1938
102
{ACAD_REACTORS
330
1937
102
}
330
1937
100
AcDbDimAssoc
330
1936
 90
        1
 70
     0
 71
     0
  1
AcDbOsnapPointRef
 72
    10
331
17ED
 73
     2
 91
        4
 40
0.5558857314223279
 10
0.0
 20
0.0
 30
0.0
 75
     0
  0
DIMASSOC
  5
193B
102
{ACAD_REACTORS
330
193A
102
}
330
193A
100
AcDbDimAssoc
330
1939
 90
        1
 70
     0
 71
     0
  1
AcDbOsnapPointRef
 72
    10
331
1834
 73
     2
 91
        0
 40
0.8114171655023515
 10
0.0
 20
0.0
 30
0.0
 75
     0
  0
DIMASSOC
  5
193E
102
{ACAD_REACTORS
330
193D
102
}
330
193D
100
AcDbDimAssoc
330
193C
 90
        1
 70
     0
 71
     0
  1
AcDbOsnapPointRef
 72
    10
331
1835
 73
     2
 91
        0
 40
0.7992507282637429
 10
0.0
 20
0.0
 30
0.0
 75
     0
  0
DIMASSOC
  5
1941
102
{ACAD_REACTORS
330
1940
102
}
330
1940
100
AcDbDimAssoc
330
193F
 90
        1
 70
     0
 71
     0
  1
AcDbOsnapPointRef
 72
     8
331
1864
 73
     2
 91
        0
 40
4.439646978243532
 10
0.0
 20
0.0
 30
0.0
 75
     0
  0
DIMASSOC
  5
1944
102
{ACAD_REACTORS
330
1943
102
}
330
1943
100
AcDbDimAssoc
330
1942
 90
        1
 70
     0
 71
     0
  1
AcDbOsnapPointRef
 72
     8
331
1865
 73
     2
 91
        0
 40
4.454684957992522
 10
0.0
 20
0.0
 30
0.0
 75
     0
  0
DIMASSOC
  5
1947
102
{ACAD_REACTORS
330
1946
102
}
330
1946
100
AcDbDimAssoc
330
1945
 90
        1
 70
     0
 71
     0
  1
AcDbOsnapPointRef
 72
    10
331
1866
 73
     2
 91
        0
 40
3.897508927740676
 10
0.0
 20
0.0
 30
0.0
 75
     0
  0
DIMASSOC
  5
194A
102
{ACAD_REACTORS
330
1949
102
}
330
1949
100
AcDbDimAssoc
330
1948
 90
        1
 70
     0
 71
     0
  1
AcDbOsnapPointRef
 72
    10
331
186F
 73
     2
 91
        0
 40
0.7708555970069534
 10
0.0
 20
0.0
 30
0.0
 75
     0
  0
DIMASSOC
  5
194D
102
{ACAD_REACTORS
330
194C
102
}
330
194C
100
AcDbDimAssoc
330
194B
 90
        1
 70
     0
 71
     0
  1
AcDbOsnapPointRef
 72
    10
331
186E
 73
     2
 91
        0
 40
0.7932811112080555
 10
0.0
 20
0.0
 30
0.0
 75
     0
  0
DIMASSOC
  5
1959
102
{ACAD_REACTORS
330
1958
102
}
330
1958
100
AcDbDimAssoc
330
1957
 90
        1
 70
     0
 71
     0
  1
AcDbOsnapPointRef
 72
    10
331
1867
 73
     2
 91
        0
 40
3.82443682211117
 10
0.0
 20
0.0
 30
0.0
 75
     0
  0
LAYOUT
  5
6A
102
{ACAD_XDICTIONARY
360
A7
102
}
102
{ACAD_REACTORS
330
5D
102
}
330
5D
100
AcDbPlotSettings
  1

  2
EPSON LP-S2000
  4
A4
  6

 40
5.873749732971191
 41
5.873748779296875
 42
5.873733520507812
 43
5.873748779296875
 44
209.9733276367187
 45
297.0106506347656
 46
1.278988826145763
 47
0.0
 48
150.0
 49
150.0
140
4305.0
141
3000.0
142
1.0
143
14.56549840101683
 70
 11956
 72
     1
 73
     1
 74
     4
  7

 75
     0
147
0.0686553918354204
 76
     0
 77
     2
 78
   300
148
-150.0
149
-150.0
100
AcDbLayout
  1
Model
 70
     1
 71
     0
 10
0.0
 20
0.0
 11
12.0
 21
9.0
 12
0.0
 22
0.0
 32
0.0
 14
0.0
 24
0.0
 34
0.0
 15
0.0
 25
0.0
 35
0.0
146
0.0
 13
0.0
 23
0.0
 33
0.0
 16
1.0
 26
0.0
 36
0.0
 17
0.0
 27
1.0
 37
0.0
 76
     0
330
67
331
52
1001
ACAD_PSEXT
1000
EPSON LP-S2000
1000
EPSON LP-S2000
1000
USB002
1000

1070
     0
  0
LAYOUT
  5
66
102
{ACAD_REACTORS
330
5D
102
}
330
5D
100
AcDbPlotSettings
  1

  2
Microsoft XPS Document Writer
  4

  6

 40
0.0
 41
0.0
 42
0.0
 43
0.0
 44
0.0
 45
0.0
 46
0.0
 47
0.0
 48
0.0
 49
0.0
140
0.0
141
0.0
142
1.0
143
1.0
 70
   688
 72
     0
 73
     0
 74
     5
  7

 75
    16
147
1.0
 76
     0
 77
     2
 78
   300
148
0.0
149
0.0
100
AcDbLayout
  1
レイアウト1
 70
     1
 71
     1
 10
0.0
 20
0.0
 11
420.0
 21
297.0
 12
0.0
 22
0.0
 32
0.0
 14
1.000000000000000E+20
 24
1.000000000000000E+20
 34
1.000000000000000E+20
 15
-1.000000000000000E+20
 25
-1.000000000000000E+20
 35
-1.000000000000000E+20
146
0.0
 13
0.0
 23
0.0
 33
0.0
 16
1.0
 26
0.0
 36
0.0
 17
0.0
 27
1.0
 37
0.0
 76
     0
330
63
  0
LAYOUT
  5
6E
102
{ACAD_REACTORS
330
5D
102
}
330
5D
100
AcDbPlotSettings
  1

  2
Microsoft XPS Document Writer
  4

  6

 40
0.0
 41
0.0
 42
0.0
 43
0.0
 44
0.0
 45
0.0
 46
0.0
 47
0.0
 48
0.0
 49
0.0
140
0.0
141
0.0
142
1.0
143
1.0
 70
   688
 72
     0
 73
     0
 74
     5
  7

 75
    16
147
1.0
 76
     0
 77
     2
 78
   300
148
0.0
149
0.0
100
AcDbLayout
  1
レイアウト2
 70
     1
 71
     2
 10
0.0
 20
0.0
 11
12.0
 21
9.0
 12
0.0
 22
0.0
 32
0.0
 14
0.0
 24
0.0
 34
0.0
 15
0.0
 25
0.0
 35
0.0
146
0.0
 13
0.0
 23
0.0
 33
0.0
 16
1.0
 26
0.0
 36
0.0
 17
0.0
 27
1.0
 37
0.0
 76
     0
330
6B
  0
MATERIAL
  5
19
102
{ACAD_XDICTIONARY
360
1A
102
}
102
{ACAD_REACTORS
330
10
102
}
330
10
100
AcDbMaterial
  1
ByBlock
 72
     0
 43
0.0208333333333333
 43
0.0
 43
0.0
 43
0.0
 43
0.0
 43
0.0208333333333333
 43
0.0
 43
0.0
 43
0.0
 43
0.0
 43
1.0
 43
0.0
 43
0.0
 43
0.0
 43
0.0
 43
1.0
 77
     0
 47
0.0208333333333333
 47
0.0
 47
0.0
 47
0.0
 47
0.0
 47
0.0208333333333333
 47
0.0
 47
0.0
 47
0.0
 47
0.0
 47
1.0
 47
0.0
 47
0.0
 47
0.0
 47
0.0
 47
1.0
171
     0
 49
0.0208333333333333
 49
0.0
 49
0.0
 49
0.0
 49
0.0
 49
0.0208333333333333
 49
0.0
 49
0.0
 49
0.0
 49
0.0
 49
1.0
 49
0.0
 49
0.0
 49
0.0
 49
0.0
 49
1.0
175
     0
142
0.0208333333333333
142
0.0
142
0.0
142
0.0
142
0.0
142
0.0208333333333333
142
0.0
142
0.0
142
0.0
142
0.0
142
1.0
142
0.0
142
0.0
142
0.0
142
0.0
142
1.0
179
     0
144
0.0208333333333333
144
0.0
144
0.0
144
0.0
144
0.0
144
0.0208333333333333
144
0.0
144
0.0
144
0.0
144
0.0
144
1.0
144
0.0
144
0.0
144
0.0
144
0.0
144
1.0
147
0.0208333333333333
147
0.0
147
0.0
147
0.0
147
0.0
147
0.0208333333333333
147
0.0
147
0.0
147
0.0
147
0.0
147
1.0
147
0.0
147
0.0
147
0.0
147
0.0
147
1.0
  0
MATERIAL
  5
11
102
{ACAD_XDICTIONARY
360
12
102
}
102
{ACAD_REACTORS
330
10
102
}
330
10
100
AcDbMaterial
  1
ByLayer
 72
     0
 43
0.0208333333333333
 43
0.0
 43
0.0
 43
0.0
 43
0.0
 43
0.0208333333333333
 43
0.0
 43
0.0
 43
0.0
 43
0.0
 43
1.0
 43
0.0
 43
0.0
 43
0.0
 43
0.0
 43
1.0
 77
     0
 47
0.0208333333333333
 47
0.0
 47
0.0
 47
0.0
 47
0.0
 47
0.0208333333333333
 47
0.0
 47
0.0
 47
0.0
 47
0.0
 47
1.0
 47
0.0
 47
0.0
 47
0.0
 47
0.0
 47
1.0
171
     0
 49
0.0208333333333333
 49
0.0
 49
0.0
 49
0.0
 49
0.0
 49
0.0208333333333333
 49
0.0
 49
0.0
 49
0.0
 49
0.0
 49
1.0
 49
0.0
 49
0.0
 49
0.0
 49
0.0
 49
1.0
175
     0
142
0.0208333333333333
142
0.0
142
0.0
142
0.0
142
0.0
142
0.0208333333333333
142
0.0
142
0.0
142
0.0
142
0.0
142
1.0
142
0.0
142
0.0
142
0.0
142
0.0
142
1.0
179
     0
144
0.0208333333333333
144
0.0
144
0.0
144
0.0
144
0.0
144
0.0208333333333333
144
0.0
144
0.0
144
0.0
144
0.0
144
1.0
144
0.0
144
0.0
144
0.0
144
0.0
144
1.0
147
0.0208333333333333
147
0.0
147
0.0
147
0.0
147
0.0
147
0.0208333333333333
147
0.0
147
0.0
147
0.0
147
0.0
147
1.0
147
0.0
147
0.0
147
0.0
147
0.0
147
1.0
  0
MATERIAL
  5
21
102
{ACAD_XDICTIONARY
360
22
102
}
102
{ACAD_REACTORS
330
10
102
}
330
10
100
AcDbMaterial
  1
Global
 72
     0
 43
0.0208333333333333
 43
0.0
 43
0.0
 43
0.0
 43
0.0
 43
0.0208333333333333
 43
0.0
 43
0.0
 43
0.0
 43
0.0
 43
1.0
 43
0.0
 43
0.0
 43
0.0
 43
0.0
 43
1.0
 77
     0
 47
0.0208333333333333
 47
0.0
 47
0.0
 47
0.0
 47
0.0
 47
0.0208333333333333
 47
0.0
 47
0.0
 47
0.0
 47
0.0
 47
1.0
 47
0.0
 47
0.0
 47
0.0
 47
0.0
 47
1.0
171
     0
 49
0.0208333333333333
 49
0.0
 49
0.0
 49
0.0
 49
0.0
 49
0.0208333333333333
 49
0.0
 49
0.0
 49
0.0
 49
0.0
 49
1.0
 49
0.0
 49
0.0
 49
0.0
 49
0.0
 49
1.0
175
     0
142
0.0208333333333333
142
0.0
142
0.0
142
0.0
142
0.0
142
0.0208333333333333
142
0.0
142
0.0
142
0.0
142
0.0
142
1.0
142
0.0
142
0.0
142
0.0
142
0.0
142
1.0
179
     0
144
0.0208333333333333
144
0.0
144
0.0
144
0.0
144
0.0
144
0.0208333333333333
144
0.0
144
0.0
144
0.0
144
0.0
144
1.0
144
0.0
144
0.0
144
0.0
144
0.0
144
1.0
147
0.0208333333333333
147
0.0
147
0.0
147
0.0
147
0.0
147
0.0208333333333333
147
0.0
147
0.0
147
0.0
147
0.0
147
1.0
147
0.0
147
0.0
147
0.0
147
0.0
147
1.0
  0
MLEADERSTYLE
  5
62
102
{ACAD_REACTORS
330
61
330
17B5
330
17C6
330
17C9
330
17CA
330
17CC
330
17D3
330
17D4
330
17D5
330
17D6
330
17D7
330
1930
330
1933
330
1936
330
1939
330
193C
330
193F
330
1942
330
1945
330
1948
330
194B
330
194E
330
1951
330
1954
330
1957
102
}
330
61
100
AcDbMLeaderStyle
170
     2
171
     1
172
     0
 90
        2
 40
0.0
 41
0.0
173
     1
 91
-1056964608
340
56
 92
       -2
290
     1
 42
1.09
291
     1
 43
0.36
  3
Standard
 44
2.0
300

342
50
174
     6
178
     6
175
     1
176
     0
 93
-1056964608
 45
2.0
292
     0
297
     0
 46
0.18
 94
-1056964608
 47
1.0
 49
1.0
140
1.0
293
     1
141
0.0
294
     1
177
     0
142
15.0
295
     0
296
     0
143
1.125
1001
ACAD_MLEADERVER
1070
     2
  0
MLINESTYLE
  5
5B
102
{ACAD_REACTORS
330
5A
102
}
330
5A
100
AcDbMlineStyle
  2
STANDARD
 70
     0
  3

 62
   256
 51
90.0
 52
90.0
 71
     2
 49
0.5
 62
   256
  6
BYLAYER
 49
-0.5
 62
   256
  6
BYLAYER
  0
ACDBPLACEHOLDER
  5
F
102
{ACAD_REACTORS
330
E
102
}
330
E
  0
SCALE
  5
3E
102
{ACAD_REACTORS
330
3D
102
}
330
3D
100
AcDbScale
 70
     0
300
1:1
140
1.0
141
1.0
290
     1
  0
SCALE
  5
3F
102
{ACAD_REACTORS
330
3D
102
}
330
3D
100
AcDbScale
 70
     0
300
1:2
140
1.0
141
2.0
290
     0
  0
SCALE
  5
40
102
{ACAD_REACTORS
330
3D
102
}
330
3D
100
AcDbScale
 70
     0
300
1:4
140
1.0
141
4.0
290
     0
  0
SCALE
  5
41
102
{ACAD_REACTORS
330
3D
102
}
330
3D
100
AcDbScale
 70
     0
300
1:5
140
1.0
141
5.0
290
     0
  0
SCALE
  5
42
102
{ACAD_REACTORS
330
3D
102
}
330
3D
100
AcDbScale
 70
     0
300
1:8
140
1.0
141
8.0
290
     0
  0
SCALE
  5
43
102
{ACAD_REACTORS
330
3D
102
}
330
3D
100
AcDbScale
 70
     0
300
1:10
140
1.0
141
10.0
290
     0
  0
SCALE
  5
44
102
{ACAD_REACTORS
330
3D
102
}
330
3D
100
AcDbScale
 70
     0
300
1:16
140
1.0
141
16.0
290
     0
  0
SCALE
  5
45
102
{ACAD_REACTORS
330
3D
102
}
330
3D
100
AcDbScale
 70
     0
300
1:20
140
1.0
141
20.0
290
     0
  0
SCALE
  5
46
102
{ACAD_REACTORS
330
3D
102
}
330
3D
100
AcDbScale
 70
     0
300
1:30
140
1.0
141
30.0
290
     0
  0
SCALE
  5
47
102
{ACAD_REACTORS
330
3D
102
}
330
3D
100
AcDbScale
 70
     0
300
1:40
140
1.0
141
40.0
290
     0
  0
SCALE
  5
48
102
{ACAD_REACTORS
330
3D
102
}
330
3D
100
AcDbScale
 70
     0
300
1:50
140
1.0
141
50.0
290
     0
  0
SCALE
  5
49
102
{ACAD_REACTORS
330
3D
102
}
330
3D
100
AcDbScale
 70
     0
300
1:100
140
1.0
141
100.0
290
     0
  0
SCALE
  5
4A
102
{ACAD_REACTORS
330
3D
102
}
330
3D
100
AcDbScale
 70
     0
300
2:1
140
2.0
141
1.0
290
     0
  0
SCALE
  5
4B
102
{ACAD_REACTORS
330
3D
102
}
330
3D
100
AcDbScale
 70
     0
300
4:1
140
4.0
141
1.0
290
     0
  0
SCALE
  5
4C
102
{ACAD_REACTORS
330
3D
102
}
330
3D
100
AcDbScale
 70
     0
300
8:1
140
8.0
141
1.0
290
     0
  0
SCALE
  5
4D
102
{ACAD_REACTORS
330
3D
102
}
330
3D
100
AcDbScale
 70
     0
300
10:1
140
10.0
141
1.0
290
     0
  0
SCALE
  5
4E
102
{ACAD_REACTORS
330
3D
102
}
330
3D
100
AcDbScale
 70
     0
300
100:1
140
100.0
141
1.0
290
     0
  0
TABLESTYLE
  5
60
102
{ACAD_XDICTIONARY
360
ED
102
}
102
{ACAD_REACTORS
330
5F
102
}
330
5F
100
AcDbTableStyle
  3
Standard
 70
     0
 71
     0
 40
1.5
 41
1.5
280
     0
281
     0
  7
Standard
140
4.5
170
     2
 62
     0
 63
     7
283
     0
 90
      512
 91
        0
  1

274
    -2
284
     1
 64
     0
275
    -2
285
     1
 65
     0
276
    -2
286
     1
 66
     0
277
    -2
287
     1
 67
     0
278
    -2
288
     1
 68
     0
279
    -2
289
     1
 69
     0
  7
Standard
140
6.0
170
     5
 62
     0
 63
     7
283
     0
 90
      512
 91
        0
  1

274
    -2
284
     1
 64
     0
275
    -2
285
     1
 65
     0
276
    -2
286
     1
 66
     0
277
    -2
287
     1
 67
     0
278
    -2
288
     1
 68
     0
279
    -2
289
     1
 69
     0
  7
Standard
140
4.5
170
     5
 62
     0
 63
     7
283
     0
 90
      512
 91
        0
  1

274
    -2
284
     1
 64
     0
275
    -2
285
     1
 65
     0
276
    -2
286
     1
 66
     0
277
    -2
287
     1
 67
     0
278
    -2
288
     1
 68
     0
279
    -2
289
     1
 69
     0
  0
VISUALSTYLE
  5
2F
102
{ACAD_XDICTIONARY
360
1998
102
}
102
{ACAD_REACTORS
330
29
102
}
330
29
100
AcDbVisualStyle
  2
2dWireframe
 70
     4
 71
     0
 72
     2
 73
     0
 90
        0
 40
-0.6
 41
-30.0
 62
     5
 63
     7
421
 16777215
 74
     1
 91
        4
 64
     7
 65
   257
 75
     1
175
     1
 42
1.0
 92
        0
 66
   257
 43
1.0
 76
     1
 77
     6
 78
     2
 67
     7
 79
     5
170
     0
171
     0
290
     0
174
     0
 93
        1
 44
0.0
173
     0
291
     0
 45
0.0
1001
ACAD
1000
AcDbSavedByObjectVersion
1070
     0
  0
VISUALSTYLE
  5
31
102
{ACAD_XDICTIONARY
360
199C
102
}
102
{ACAD_REACTORS
330
29
102
}
330
29
100
AcDbVisualStyle
  2
3D Hidden
 70
     6
 71
     1
 72
     2
 73
     2
 90
        0
 40
-0.6
 41
-30.0
 62
     5
 63
     7
421
 16777215
 74
     2
 91
        2
 64
     7
 65
   257
 75
     2
175
     1
 42
179.0
 92
        0
 66
   257
 43
1.0
 76
     1
 77
     6
 78
     2
 67
     7
 79
     3
170
     0
171
     0
290
     0
174
     0
 93
        1
 44
0.0
173
     0
291
     0
 45
0.0
1001
ACAD
1000
AcDbSavedByObjectVersion
1070
     0
  0
VISUALSTYLE
  5
30
102
{ACAD_XDICTIONARY
360
199A
102
}
102
{ACAD_REACTORS
330
29
102
}
330
29
100
AcDbVisualStyle
  2
3dWireframe
 70
     5
 71
     0
 72
     2
 73
     0
 90
        0
 40
-0.6
 41
-30.0
 62
     5
 63
     7
421
 16777215
 74
     1
 91
        4
 64
     7
 65
   257
 75
     1
175
     1
 42
1.0
 92
        0
 66
   257
 43
1.0
 76
     1
 77
     6
 78
     2
 67
     7
 79
     5
170
     0
171
     0
290
     0
174
     0
 93
        1
 44
0.0
173
     0
291
     0
 45
0.0
1001
ACAD
1000
AcDbSavedByObjectVersion
1070
     0
  0
VISUALSTYLE
  5
2E
102
{ACAD_XDICTIONARY
360
1996
102
}
102
{ACAD_REACTORS
330
29
102
}
330
29
100
AcDbVisualStyle
  2
Basic
 70
     7
 71
     1
 72
     0
 73
     1
 90
        0
 40
-0.6
 41
-30.0
 62
     5
 63
     7
421
 16777215
 74
     0
 91
        4
 64
     7
 65
   257
 75
     1
175
     1
 42
1.0
 92
        8
 66
     7
 43
1.0
 76
     1
 77
     6
 78
     2
 67
     7
 79
     5
170
     0
171
     0
290
     0
174
     0
 93
        1
 44
0.0
173
     0
291
     1
 45
0.0
1001
ACAD
1000
AcDbSavedByObjectVersion
1070
     0
  0
VISUALSTYLE
  5
35
102
{ACAD_XDICTIONARY
360
19A4
102
}
102
{ACAD_REACTORS
330
29
102
}
330
29
100
AcDbVisualStyle
  2
Brighten
 70
    12
 71
     2
 72
     2
 73
     0
 90
        0
 40
-0.6
 41
-30.0
 62
     5
 63
     7
421
 16777215
 74
     1
 91
        4
 64
     7
 65
   257
 75
     1
175
     1
 42
1.0
 92
        8
 66
     7
 43
1.0
 76
     1
 77
     6
 78
     2
 67
     7
 79
     5
170
     0
171
     0
290
     0
174
     0
 93
        1
 44
50.0
173
     0
291
     1
 45
0.0
1001
ACAD
1000
AcDbSavedByObjectVersion
1070
     0
  0
VISUALSTYLE
  5
39
102
{ACAD_XDICTIONARY
360
19AC
102
}
102
{ACAD_REACTORS
330
29
102
}
330
29
100
AcDbVisualStyle
  2
ColorChange
 70
    16
 71
     2
 72
     2
 73
     3
 90
        0
 40
-0.6
 41
-30.0
 62
     5
 63
     8
421
  8421504
 74
     1
 91
        4
 64
     7
 65
   257
 75
     1
175
     1
 42
1.0
 92
        8
 66
     8
424
  8421504
 43
1.0
 76
     1
 77
     6
 78
     2
 67
     7
 79
     5
170
     0
171
     0
290
     0
174
     0
 93
        1
 44
0.0
173
     0
291
     1
 45
0.0
1001
ACAD
1000
AcDbSavedByObjectVersion
1070
     0
  0
VISUALSTYLE
  5
32
102
{ACAD_XDICTIONARY
360
199E
102
}
102
{ACAD_REACTORS
330
29
102
}
330
29
100
AcDbVisualStyle
  2
Conceptual
 70
     9
 71
     3
 72
     2
 73
     0
 90
        0
 40
-0.6
 41
-30.0
 62
     5
 63
     7
421
 16777215
 74
     2
 91
        2
 64
     7
 65
   257
 75
     1
175
     1
 42
179.0
 92
        8
 66
     7
 43
1.0
 76
     1
 77
     6
 78
     2
 67
     7
 79
     3
170
     0
171
     0
290
     0
174
     0
 93
        1
 44
0.0
173
     0
291
     0
 45
0.0
1001
ACAD
1000
AcDbSavedByObjectVersion
1070
     0
  0
VISUALSTYLE
  5
34
102
{ACAD_XDICTIONARY
360
19A2
102
}
102
{ACAD_REACTORS
330
29
102
}
330
29
100
AcDbVisualStyle
  2
Dim
 70
    11
 71
     2
 72
     2
 73
     0
 90
        0
 40
-0.6
 41
-30.0
 62
     5
 63
     7
421
 16777215
 74
     1
 91
        4
 64
     7
 65
   257
 75
     1
175
     1
 42
1.0
 92
        8
 66
     7
 43
1.0
 76
     1
 77
     6
 78
     2
 67
     7
 79
     5
170
     0
171
     0
290
     0
174
     0
 93
        1
 44
-50.0
173
     0
291
     1
 45
0.0
1001
ACAD
1000
AcDbSavedByObjectVersion
1070
     0
  0
VISUALSTYLE
  5
3C
102
{ACAD_XDICTIONARY
360
19B2
102
}
102
{ACAD_REACTORS
330
29
102
}
330
29
100
AcDbVisualStyle
  2
EdgeColorOff
 70
    22
 71
     2
 72
     2
 73
     0
 90
        0
 40
-0.6
 41
-30.0
 62
     5
 63
     7
421
 16777215
 74
     1
 91
        4
 64
     7
 65
   257
 75
     1
175
     1
 42
1.0
 92
        8
 66
     7
 43
1.0
 76
     1
 77
     6
 78
     2
 67
     7
 79
     5
170
     0
171
     0
290
     0
174
     0
 93
        1
 44
0.0
173
     0
291
     1
 45
0.0
1001
ACAD
1000
AcDbSavedByObjectVersion
1070
     0
  0
VISUALSTYLE
  5
38
102
{ACAD_XDICTIONARY
360
19AA
102
}
102
{ACAD_REACTORS
330
29
102
}
330
29
100
AcDbVisualStyle
  2
Facepattern
 70
    15
 71
     2
 72
     2
 73
     0
 90
        0
 40
-0.6
 41
-30.0
 62
     5
 63
     7
421
 16777215
 74
     1
 91
        4
 64
     7
 65
   257
 75
     1
175
     1
 42
1.0
 92
        8
 66
     7
 43
1.0
 76
     1
 77
     6
 78
     2
 67
     7
 79
     5
170
     0
171
     0
290
     0
174
     0
 93
        1
 44
0.0
173
     0
291
     1
 45
0.0
1001
ACAD
1000
AcDbSavedByObjectVersion
1070
     0
  0
VISUALSTYLE
  5
2A
102
{ACAD_XDICTIONARY
360
198E
102
}
102
{ACAD_REACTORS
330
29
102
}
330
29
100
AcDbVisualStyle
  2
Flat
 70
     0
 71
     2
 72
     1
 73
     1
 90
        2
 40
-0.6
 41
30.0
 62
     5
 63
     7
421
 16777215
 74
     0
 91
        4
 64
     7
 65
   257
 75
     1
175
     1
 42
1.0
 92
        8
 66
     7
 43
1.0
 76
     1
 77
     6
 78
     2
 67
     7
 79
     5
170
     0
171
     0
290
     0
174
     0
 93
       13
 44
0.0
173
     0
291
     1
 45
0.0
1001
ACAD
1000
AcDbSavedByObjectVersion
1070
     0
  0
VISUALSTYLE
  5
2B
102
{ACAD_XDICTIONARY
360
1990
102
}
102
{ACAD_REACTORS
330
29
102
}
330
29
100
AcDbVisualStyle
  2
FlatWithEdges
 70
     1
 71
     2
 72
     1
 73
     1
 90
        2
 40
-0.6
 41
30.0
 62
     5
 63
     7
421
 16777215
 74
     1
 91
        4
 64
     7
 65
   257
 75
     1
175
     1
 42
1.0
 92
        0
 66
   257
 43
1.0
 76
     1
 77
     6
 78
     2
 67
     7
 79
     5
170
     0
171
     0
290
     0
174
     0
 93
       13
 44
0.0
173
     0
291
     1
 45
0.0
1001
ACAD
1000
AcDbSavedByObjectVersion
1070
     0
  0
VISUALSTYLE
  5
2C
102
{ACAD_XDICTIONARY
360
1992
102
}
102
{ACAD_REACTORS
330
29
102
}
330
29
100
AcDbVisualStyle
  2
Gouraud
 70
     2
 71
     2
 72
     2
 73
     1
 90
        2
 40
-0.6
 41
30.0
 62
     5
 63
     7
421
 16777215
 74
     0
 91
        4
 64
     7
 65
   257
 75
     1
175
     1
 42
1.0
 92
        0
 66
     7
 43
1.0
 76
     1
 77
     6
 78
     2
 67
     7
 79
     5
170
     0
171
     0
290
     0
174
     0
 93
       13
 44
0.0
173
     0
291
     1
 45
0.0
1001
ACAD
1000
AcDbSavedByObjectVersion
1070
     0
  0
VISUALSTYLE
  5
2D
102
{ACAD_XDICTIONARY
360
1994
102
}
102
{ACAD_REACTORS
330
29
102
}
330
29
100
AcDbVisualStyle
  2
GouraudWithEdges
 70
     3
 71
     2
 72
     2
 73
     1
 90
        2
 40
-0.6
 41
30.0
 62
     5
 63
     7
421
 16777215
 74
     1
 91
        4
 64
     7
 65
   257
 75
     1
175
     1
 42
1.0
 92
        0
 66
   257
 43
1.0
 76
     1
 77
     6
 78
     2
 67
     7
 79
     5
170
     0
171
     0
290
     0
174
     0
 93
       13
 44
0.0
173
     0
291
     1
 45
0.0
1001
ACAD
1000
AcDbSavedByObjectVersion
1070
     0
  0
VISUALSTYLE
  5
142
102
{ACAD_XDICTIONARY
360
19B6
102
}
102
{ACAD_REACTORS
330
29
102
}
330
29
100
AcDbVisualStyle
  2
Hidden
 70
     6
 71
     1
 72
     2
 73
     2
 90
        0
 40
-0.6
 41
-30.0
 62
     5
 63
     7
421
 16777215
 74
     2
 91
        2
 64
     7
 65
   257
 75
     2
175
     1
 42
40.0
 92
        0
 66
   257
 43
1.0
 76
     1
 77
     6
 78
     2
 67
     7
 79
     3
170
     0
171
     0
290
     0
174
     0
 93
        1
 44
0.0
173
     0
291
     0
 45
0.0
1001
ACAD
1000
AcDbSavedByObjectVersion
1070
     0
  0
VISUALSTYLE
  5
3A
102
{ACAD_XDICTIONARY
360
19AE
102
}
102
{ACAD_REACTORS
330
29
102
}
330
29
100
AcDbVisualStyle
  2
JitterOff
 70
    20
 71
     2
 72
     2
 73
     0
 90
        0
 40
-0.6
 41
-30.0
 62
     5
 63
     7
421
 16777215
 74
     1
 91
        4
 64
     7
 65
   257
 75
     1
175
     1
 42
1.0
 92
       10
 66
     7
 43
1.0
 76
     1
 77
     6
 78
     2
 67
     7
 79
     5
170
     0
171
     0
290
     0
174
     0
 93
        1
 44
0.0
173
     0
291
     1
 45
0.0
1001
ACAD
1000
AcDbSavedByObjectVersion
1070
     0
  0
VISUALSTYLE
  5
37
102
{ACAD_XDICTIONARY
360
19A8
102
}
102
{ACAD_REACTORS
330
29
102
}
330
29
100
AcDbVisualStyle
  2
Linepattern
 70
    14
 71
     2
 72
     2
 73
     0
 90
        0
 40
-0.6
 41
-30.0
 62
     5
 63
     7
421
 16777215
 74
     1
 91
        4
 64
     7
 65
   257
 75
     7
175
     7
 42
1.0
 92
        8
 66
     7
 43
1.0
 76
     1
 77
     6
 78
     2
 67
     7
 79
     5
170
     0
171
     0
290
     0
174
     0
 93
        1
 44
0.0
173
     0
291
     1
 45
0.0
1001
ACAD
1000
AcDbSavedByObjectVersion
1070
     0
  0
VISUALSTYLE
  5
3B
102
{ACAD_XDICTIONARY
360
19B0
102
}
102
{ACAD_REACTORS
330
29
102
}
330
29
100
AcDbVisualStyle
  2
OverhangOff
 70
    21
 71
     2
 72
     2
 73
     0
 90
        0
 40
-0.6
 41
-30.0
 62
     5
 63
     7
421
 16777215
 74
     1
 91
        4
 64
     7
 65
   257
 75
     1
175
     1
 42
1.0
 92
        9
 66
     7
 43
1.0
 76
     1
 77
     6
 78
     2
 67
     7
 79
     5
170
     0
171
     0
290
     0
174
     0
 93
        1
 44
0.0
173
     0
291
     1
 45
0.0
1001
ACAD
1000
AcDbSavedByObjectVersion
1070
     0
  0
VISUALSTYLE
  5
33
102
{ACAD_XDICTIONARY
360
19A0
102
}
102
{ACAD_REACTORS
330
29
102
}
330
29
100
AcDbVisualStyle
  2
Realistic
 70
     8
 71
     2
 72
     2
 73
     0
 90
        0
 40
-0.6
 41
-30.0
 62
     5
 63
     7
421
 16777215
 74
     1
 91
        0
 64
     7
 65
   257
 75
     1
175
     1
 42
1.0
 92
        8
 66
     8
424
  7895160
 43
1.0
 76
     1
 77
     6
 78
     2
 67
     7
 79
     5
170
     0
171
     0
290
     0
174
     0
 93
       13
 44
0.0
173
     0
291
     0
 45
0.0
1001
ACAD
1000
AcDbSavedByObjectVersion
1070
     0
  0
VISUALSTYLE
  5
147
102
{ACAD_XDICTIONARY
360
19C0
102
}
102
{ACAD_REACTORS
330
29
102
}
330
29
100
AcDbVisualStyle
  2
Shaded
 70
    27
 71
     2
 72
     2
 73
     1
 90
        2
 40
-0.6
 41
30.0
 62
     5
 63
     7
421
 16777215
 74
     0
 91
        4
 64
     7
 65
   257
 75
     1
175
     1
 42
1.0
 92
        8
 66
   257
 43
1.0
 76
     1
 77
     6
 78
     2
 67
     8
425
  7895160
 79
     3
170
     0
171
     0
290
     0
174
     0
 93
        5
 44
0.0
173
     0
291
     0
 45
0.0
1001
ACAD
1000
AcDbSavedByObjectVersion
1070
     0
  0
VISUALSTYLE
  5
146
102
{ACAD_XDICTIONARY
360
19BE
102
}
102
{ACAD_REACTORS
330
29
102
}
330
29
100
AcDbVisualStyle
  2
Shaded with edges
 70
    26
 71
     2
 72
     2
 73
     1
 90
        2
 40
-0.6
 41
30.0
 62
     5
 63
     7
421
 16777215
 74
     1
 91
       10
 64
     7
 65
   257
 75
     2
175
     1
 42
1.0
 92
        8
 66
   257
 43
1.0
 76
     1
 77
     6
 78
     2
 67
     7
 79
     3
170
     0
171
     0
290
     0
174
     0
 93
        5
 44
0.0
173
     0
291
     0
 45
0.0
1001
ACAD
1000
AcDbSavedByObjectVersion
1070
     0
  0
VISUALSTYLE
  5
143
102
{ACAD_XDICTIONARY
360
19B8
102
}
102
{ACAD_REACTORS
330
29
102
}
330
29
100
AcDbVisualStyle
  2
Shades of Gray
 70
    23
 71
     2
 72
     2
 73
     3
 90
        0
 40
-0.6
 41
-30.0
 62
     5
 63
     7
421
 16777215
 74
     2
 91
        2
 64
     7
 65
     7
 75
     1
175
     1
 42
40.0
 92
        8
 66
     7
 43
1.0
 76
     1
 77
     6
 78
     2
 67
     7
 79
     3
170
     0
171
     0
290
     0
174
     0
 93
        1
 44
0.0
173
     0
291
     0
 45
0.0
1001
ACAD
1000
AcDbSavedByObjectVersion
1070
     0
  0
VISUALSTYLE
  5
144
102
{ACAD_XDICTIONARY
360
19BA
102
}
102
{ACAD_REACTORS
330
29
102
}
330
29
100
AcDbVisualStyle
  2
Sketchy
 70
    24
 71
     1
 72
     2
 73
     2
 90
        0
 40
-0.6
 41
-30.0
 62
     5
 63
     7
421
 16777215
 74
     2
 91
        2
 64
     7
 65
     7
 75
     1
175
     1
 42
40.0
 92
       11
 66
     7
 43
1.0
 76
     1
 77
     6
 78
     2
 67
     7
 79
     6
170
     0
171
     0
290
     0
174
     0
 93
        1
 44
0.0
173
     0
291
     0
 45
0.0
1001
ACAD
1000
AcDbSavedByObjectVersion
1070
     0
  0
VISUALSTYLE
  5
36
102
{ACAD_XDICTIONARY
360
19A6
102
}
102
{ACAD_REACTORS
330
29
102
}
330
29
100
AcDbVisualStyle
  2
Thicken
 70
    13
 71
     2
 72
     2
 73
     0
 90
        0
 40
-0.6
 41
-30.0
 62
     5
 63
     7
421
 16777215
 74
     1
 91
        4
 64
     7
 65
   257
 75
     1
175
     1
 42
1.0
 92
       12
 66
     7
 43
1.0
 76
     1
 77
     6
 78
     2
 67
     7
 79
     5
170
     0
171
     0
290
     0
174
     0
 93
        1
 44
0.0
173
     0
291
     1
 45
0.0
1001
ACAD
1000
AcDbSavedByObjectVersion
1070
     0
  0
VISUALSTYLE
  5
141
102
{ACAD_XDICTIONARY
360
19B4
102
}
102
{ACAD_REACTORS
330
29
102
}
330
29
100
AcDbVisualStyle
  2
Wireframe
 70
     5
 71
     0
 72
     2
 73
     0
 90
        0
 40
-0.6
 41
-30.0
 62
     5
 63
     7
421
 16777215
 74
     1
 91
        4
 64
     7
 65
   257
 75
     1
175
     1
 42
1.0
 92
        0
 66
   257
 43
1.0
 76
     1
 77
     6
 78
     2
 67
     7
 79
     3
170
     0
171
     0
290
     0
174
     0
 93
        1
 44
0.0
173
     0
291
     0
 45
0.0
1001
ACAD
1000
AcDbSavedByObjectVersion
1070
     0
  0
VISUALSTYLE
  5
145
102
{ACAD_XDICTIONARY
360
19BC
102
}
102
{ACAD_REACTORS
330
29
102
}
330
29
100
AcDbVisualStyle
  2
X-Ray
 70
    25
 71
     2
 72
     2
 73
     1
 90
        1
 40
0.5
 41
-30.0
 62
     5
 63
     7
421
 16777215
 74
     1
 91
        0
 64
     7
 65
   257
 75
     1
175
     1
 42
1.0
 92
        8
 66
     7
 43
1.0
 76
     1
 77
     6
 78
     2
 67
     7
 79
     3
170
     0
171
     0
290
     0
174
     0
 93
       13
 44
0.0
173
     0
291
     0
 45
0.0
1001
ACAD
1000
AcDbSavedByObjectVersion
1070
     0
  0
DICTIONARYVAR
  5
91
102
{ACAD_REACTORS
330
8E
102
}
330
8E
100
DictionaryVariables
280
     0
  1
1:1
  0
DICTIONARYVAR
  5
90
102
{ACAD_REACTORS
330
8E
102
}
330
8E
100
DictionaryVariables
280
     0
  1
STANDARD
  0
DICTIONARYVAR
  5
8F
102
{ACAD_REACTORS
330
8E
102
}
330
8E
100
DictionaryVariables
280
     0
  1
STANDARD
  0
DICTIONARYVAR
  5
831
102
{ACAD_REACTORS
330
8E
102
}
330
8E
100
DictionaryVariables
280
     0
  1
15.000000
  0
DICTIONARYVAR
  5
198B
102
{ACAD_REACTORS
330
8E
102
}
330
8E
100
DictionaryVariables
280
     0
  1
2
  0
DICTIONARY
  5
A7
330
6A
100
AcDbDictionary
280
     1
281
     1
  3
ADSK_XREC_LAYOUTTHUMBNAIL
360
A8
  0
DICTIONARY
  5
1A
330
19
100
AcDbDictionary
280
     1
281
     1
  3
BUMPTILE
360
1C
  3
DIFFUSETILE
360
1B
  3
OPACITYTILE
360
1F
  3
REFLECTIONTILE
360
1E
  3
REFRACTIONTILE
360
20
  3
SPECULARTILE
360
1D
  0
DICTIONARY
  5
12
330
11
100
AcDbDictionary
280
     1
281
     1
  3
BUMPTILE
360
14
  3
DIFFUSETILE
360
13
  3
OPACITYTILE
360
17
  3
REFLECTIONTILE
360
16
  3
REFRACTIONTILE
360
18
  3
SPECULARTILE
360
15
  0
DICTIONARY
  5
22
330
21
100
AcDbDictionary
280
     1
281
     1
  3
BUMPTILE
360
24
  3
DIFFUSETILE
360
23
  3
OPACITYTILE
360
27
  3
REFLECTIONTILE
360
26
  3
REFRACTIONTILE
360
28
  3
SPECULARTILE
360
25
  0
DICTIONARY
  5
ED
330
60
100
AcDbDictionary
280
     1
281
     1
  3
ACAD_ROUNDTRIP_2008_TABLESTYLE_CELLSTYLEMAP
360
198C
  0
DICTIONARY
  5
1998
330
2F
100
AcDbDictionary
280
     1
281
     1
  3
ACAD_XREC_ROUNDTRIP
360
1999
  0
DICTIONARY
  5
199C
330
31
100
AcDbDictionary
280
     1
281
     1
  3
ACAD_XREC_ROUNDTRIP
360
199D
  0
DICTIONARY
  5
199A
330
30
100
AcDbDictionary
280
     1
281
     1
  3
ACAD_XREC_ROUNDTRIP
360
199B
  0
DICTIONARY
  5
1996
330
2E
100
AcDbDictionary
280
     1
281
     1
  3
ACAD_XREC_ROUNDTRIP
360
1997
  0
DICTIONARY
  5
19A4
330
35
100
AcDbDictionary
280
     1
281
     1
  3
ACAD_XREC_ROUNDTRIP
360
19A5
  0
DICTIONARY
  5
19AC
330
39
100
AcDbDictionary
280
     1
281
     1
  3
ACAD_XREC_ROUNDTRIP
360
19AD
  0
DICTIONARY
  5
199E
330
32
100
AcDbDictionary
280
     1
281
     1
  3
ACAD_XREC_ROUNDTRIP
360
199F
  0
DICTIONARY
  5
19A2
330
34
100
AcDbDictionary
280
     1
281
     1
  3
ACAD_XREC_ROUNDTRIP
360
19A3
  0
DICTIONARY
  5
19B2
330
3C
100
AcDbDictionary
280
     1
281
     1
  3
ACAD_XREC_ROUNDTRIP
360
19B3
  0
DICTIONARY
  5
19AA
330
38
100
AcDbDictionary
280
     1
281
     1
  3
ACAD_XREC_ROUNDTRIP
360
19AB
  0
DICTIONARY
  5
198E
330
2A
100
AcDbDictionary
280
     1
281
     1
  3
ACAD_XREC_ROUNDTRIP
360
198F
  0
DICTIONARY
  5
1990
330
2B
100
AcDbDictionary
280
     1
281
     1
  3
ACAD_XREC_ROUNDTRIP
360
1991
  0
DICTIONARY
  5
1992
330
2C
100
AcDbDictionary
280
     1
281
     1
  3
ACAD_XREC_ROUNDTRIP
360
1993
  0
DICTIONARY
  5
1994
330
2D
100
AcDbDictionary
280
     1
281
     1
  3
ACAD_XREC_ROUNDTRIP
360
1995
  0
DICTIONARY
  5
19B6
330
142
100
AcDbDictionary
280
     1
281
     1
  3
ACAD_XREC_ROUNDTRIP
360
19B7
  0
DICTIONARY
  5
19AE
330
3A
100
AcDbDictionary
280
     1
281
     1
  3
ACAD_XREC_ROUNDTRIP
360
19AF
  0
DICTIONARY
  5
19A8
330
37
100
AcDbDictionary
280
     1
281
     1
  3
ACAD_XREC_ROUNDTRIP
360
19A9
  0
DICTIONARY
  5
19B0
330
3B
100
AcDbDictionary
280
     1
281
     1
  3
ACAD_XREC_ROUNDTRIP
360
19B1
  0
DICTIONARY
  5
19A0
330
33
100
AcDbDictionary
280
     1
281
     1
  3
ACAD_XREC_ROUNDTRIP
360
19A1
  0
DICTIONARY
  5
19C0
330
147
100
AcDbDictionary
280
     1
281
     1
  3
ACAD_XREC_ROUNDTRIP
360
19C1
  0
DICTIONARY
  5
19BE
330
146
100
AcDbDictionary
280
     1
281
     1
  3
ACAD_XREC_ROUNDTRIP
360
19BF
  0
DICTIONARY
  5
19B8
330
143
100
AcDbDictionary
280
     1
281
     1
  3
ACAD_XREC_ROUNDTRIP
360
19B9
  0
DICTIONARY
  5
19BA
330
144
100
AcDbDictionary
280
     1
281
     1
  3
ACAD_XREC_ROUNDTRIP
360
19BB
  0
DICTIONARY
  5
19A6
330
36
100
AcDbDictionary
280
     1
281
     1
  3
ACAD_XREC_ROUNDTRIP
360
19A7
  0
DICTIONARY
  5
19B4
330
141
100
AcDbDictionary
280
     1
281
     1
  3
ACAD_XREC_ROUNDTRIP
360
19B5
  0
DICTIONARY
  5
19BC
330
145
100
AcDbDictionary
280
     1
281
     1
  3
ACAD_XREC_ROUNDTRIP
360
19BD
  0
XRECORD
  5
A8
102
{ACAD_REACTORS
330
A7
102
}
330
A7
100
AcDbXrecord
280
     1
310
28000000000100006F0000000100080000000000006F0000000000000000000000010000000000003028210000000000C8C8C8000000000000000000000000000000000000000000000000000000000000000000330000006600000099000000CC000000FF00000000330000333300006633000099330000CC330000FF3300
310
0000660000336600006666000099660000CC660000FF66000000990000339900006699000099990000CC990000FF99000000CC000033CC000066CC000099CC0000CCCC0000FFCC000000FF000033FF000066FF000099FF0000CCFF0000FFFF000000003300330033006600330099003300CC003300FF003300003333003333
310
33006633330099333300CC333300FF33330000663300336633006666330099663300CC663300FF66330000993300339933006699330099993300CC993300FF99330000CC330033CC330066CC330099CC3300CCCC3300FFCC330000FF330033FF330066FF330099FF3300CCFF3300FFFF330000006600330066006600660099
310
006600CC006600FF00660000336600333366006633660099336600CC336600FF33660000666600336666006666660099666600CC666600FF66660000996600339966006699660099996600CC996600FF99660000CC660033CC660066CC660099CC6600CCCC6600FFCC660000FF660033FF660066FF660099FF6600CCFF6600
310
FFFF660000009900330099006600990099009900CC009900FF00990000339900333399006633990099339900CC339900FF33990000669900336699006666990099669900CC669900FF66990000999900339999006699990099999900CC999900FF99990000CC990033CC990066CC990099CC9900CCCC9900FFCC990000FF99
310
0033FF990066FF990099FF9900CCFF9900FFFF99000000CC003300CC006600CC009900CC00CC00CC00FF00CC000033CC003333CC006633CC009933CC00CC33CC00FF33CC000066CC003366CC006666CC009966CC00CC66CC00FF66CC000099CC003399CC006699CC009999CC00CC99CC00FF99CC0000CCCC0033CCCC0066CC
310
CC0099CCCC00CCCCCC00FFCCCC0000FFCC0033FFCC0066FFCC0099FFCC00CCFFCC00FFFFCC000000FF003300FF006600FF009900FF00CC00FF00FF00FF000033FF003333FF006633FF009933FF00CC33FF00FF33FF000066FF003366FF006666FF009966FF00CC66FF00FF66FF000099FF003399FF006699FF009999FF00CC
310
99FF00FF99FF0000CCFF0033CCFF0066CCFF0099CCFF00CCCCFF00FFCCFF0000FFFF0033FFFF0066FFFF0099FFFF00CCFFFF00FFFFFF00000000000D0D0D001A1A1A00282828003535350043434300505050005D5D5D006B6B6B00787878008686860093939300A1A1A100AEAEAE00BBBBBB00C9C9C900D6D6D600E4E4E400
310
F1F1F100FFFFFF000000000000000000000000000000000000000000000000000000000000000000000000000000000000000000000000000000000000000000000000000000000000000000000000000000000000000000000000000000000000000000000000000000000000000000000000000000000000000000000000
310
00000000000000000000000000000000000000000000000000000000000000000000000000000000000000000000000000000000000000000000000000000000000000000000000000000000000000000000000000000000000000000000000000000000000000000000000000000000000000000000000000000000000000
310
00000000000000000000000000000000000000000000000000000000000000000000000000000000000000000000000000000000000000000000000000000000000000000000000000000000000000000000000000000000000000000000000000000000000000000000000000000000000000000000000000000000000000
310
00000000000000000000000000000000000000000000000000000000000000000000000000000000000000000000000000000000000000000000000000000000000000000000000000000000000000000000000000000000000000000000000000000000000000000000000000000000000000000000000000000000000000
310
0000000000000000000000000000000000000000000000000000000000000000000000000000000000000000000000000000000000000000000000000000000000000000000000000000000000000000000000000000000000000000000000000000000000000000002D2D2D2D2D2D2D2D2D2D2D2D2D2D2D2D2D2D2D2D2D2D
310
2D2D2D2D2D2D2D2D2D2D2D2D2D2D2D2D2D2D2D2D2D2D2D2D2D2D2D2D2D2D2D2D2D2D2D2D2D2D2D2D2D2D2D2D2D2D2D2D2D2D2D2D2D2D2D2D2D2D2D2D2D2D2D2D2D2D2D2D2D2D2D2D2D2D2D2D2D2D2D2D2D2D2D2D2D2D2D2D2D2D2D2D2D2D2D2D2D2D2D2D2D2D2D2D2D2D2D2D2D2D2D2D2D2D2D2D2D2D000000000000000000
310
00000000000000000000000000000000000000000000000000000000000000000000000000000000000000000000000000000000000000000000000000000000000000000000000000000000000000000000000000000000000000000000000000000000000000000000002D00000000000000000000000000000000000000
310
00000000000000000000000000000000000000000000000000000000000000000000000000000000000000000000000000000000000000000000000000000000000000000000000000000000000000000000000000000000000000000000000000000000000000000000000000000000000000000000002D00000000000000
310
000000000000000000000000000000000000000000000000000000000000000000000000000000000000000000000000000000000000000000000000000000000000000000000000000000000000000000000000000000000000000000000000000000000000000000000000002D0000000000000000000000000000000000
310
000000000000000000000000000000000000000000000000000000000000000000000000000000000000000000000000000000000000000000000000000000000000000000000000000000000000000000000000000000000000000000000000000000000000000000000000000000000000000000000000002D0000000000
310
0000000000000000000000000000000000000000000000000000000000000000000000000000000000000000000000000000000000000000000000000000000000000000000000000000000000000000000000000000000000000000000000000000000000000000000000000000002D000000000000000000000000000000
310
0000000000000000000000000000000000000000000000000000000000000000000000000000000000000000000000000000000000000000000000000000000000000000000000000000000000000000000000000000000000000000000000000000000000000000000000000000000000000000000000000000002D000000
310
00000000000000000000000000000000000000000000000000000000000000000000000000000000000000000000000000000000000000000000000000000000000000000000000000000000000000000000000000000000000000000000000000000000000000000000000000000000002D000000000F0F0F0F0F0F0F0F0F
310
0F0F0F0F0F0F0F0F0F0F0F0F0F0F0F0F0F0F0F0F0F0F0F0F0F0F0F0F0F0F0F0F0F0F0F0F0F0F0F0F0F0F0F0F0F0F0F0F0F0F0F0F0F0F0F0F0F0F0F0F0F0F0F0F0F0F0F0F0F0F0F0F0F0F0F0F0F0F0F0F0F0F0F0F0F0F0F0F0F0F0F0F0F0F0F0F0F0F0F0F0F0F0F0F0F0F0F0F0F0F0F0F0F0F0F0F0F0F0F0F0F000000002D00
310
000000000000000000000000000000000000000000000000000000000000000000000000000000000000000000000000000000000000000000000000000000000000000000000000000000000000000000000000000000000000000000000000000000000000000000000000000000000000002D000000000F000000000000
310
00000000000000000000000000000000000000000000000000000000F5F5F5000000000000000000000000000000000000000000000000000000000000000000000000000000000000000000000000000000000F00000000000000000000000F0F0F0F0F0F0F0F0F0F0F0F0F0F0F0000000000000000000000000F00000000
310
2D00000000000000000000000000000000000000000000000000000000000000000000000000000000000000000000000000000000000000000000000000000000000000000000000000000000000000000000000000000000000000000000000000000000000000000000000000000000000000002D000000000F00000000
310
00000000000000000000000000F5F5F5F5F5F5F5F5F5F5F5F5F5F5F5F5F5F5F5F5000000000000000000000000000000000000000000000000000000000000000000000000000000000000000000000000000000000F00000000000000000000000000000000000000000000000000000000000000000000000000000F0000
310
00002D00000000000000000000000000000000000000000000000000000000000000000000000000000000000000000000000000000000000000000000000000000000000000000000000000000000000000000000000000000000000000000000000000000000000000000000000000000000000000002D000000000F0000
310
000000000000000000000000000000F5F50000000000F5F5F50000000000F5F50000F5000000000000000000000000000000000000000000000000000000000000000000000000000000000000000000000000000000000F0F0F0F0F0F0F0F0F0F0F0F0F0F0F0F0F0F0F0F0F0F0F0F0F0F0F0F0F0F0F0F0F0F0F0F0F0F0F0F
310
000000002D00000000000000000000000000000000000000000000000000000000000000000000000000000000000000000000000000000000000000000000000000000000000000000000000000000000000000000000000000000000000000000000000000000000000000000000000000000000000000002D000000000F
310
0000000000000000000000000000000000F5000000000000F5F5F5000000000000F50000F5000000000000000000000000000000000000000000000000000000000000000000000000000000000000000000000000000000000F0000000000000000000000000000000000000000000000000F0000000000000F000F0F0F0F
310
000F000000002D00000000000000000000000000000000000000000000000000000000000000000000000000000000000000000000000000000000000000000000000000000000000000000000000000000000000000000000000000000000000000000000000000000000000000000000000000000000000000002D000000
310
000F0000000000000000000000000000000000F5F5F5F5F5F5F5F5F5F5F5F5F5F5F5F5F5F5F5F5F5F500000000000000000000000000000000000000000000000000000000000000000000000000000000000000000000000000000F0F0F0F0F0F0F0F0F0F0F0F0F0F0F0F0F0F0F0F0F0F0F0F0F0F0F0F0F0F0F0F0F0F0F0F
310
0F0F0F0F000000002D00000000000000000000000000000000000000000000000000000000000000000000000000000000000000000000000000000000000000000000000000000000000000000000000000000000000000000000000000000000000000000000000000000000000000000000000000000000000000002D00
310
0000000F0000000000000000000000000000000000C3C3C3C3C3C3C3C3C3C3C3C3C3C3C3C3F50000F5F5F500000000000000000000000000000000000000000000000000000000000000000000000000000000000000000000000000000F00000000000F0F0F0F0F0F0F0F0F0F0F0F0F0000000000000F000F0F0F0F000F00
310
0F0F0F0F000F000000002D0000000000000000000000000000000000000000000000000000000000000000000000000000000000000000000000000000000000000000000000000000000000000000000000000000000000000000000000000000000000000000000000000000000000000000000000000000000000000000
310
2D000000000F0000000000000000000000000000000000F5F5F5F5F5F5F5F5F5F5F5F5F5F5F5F5F5F5F5F5F5F500000000000000000000000000000000000000000000000000000000000000000000000000000000000000000000000000000F0F0F0F0F0F0F0F0F0F0F0F0F0F0F0F0F0F0F0F0F0F0F0F0F0F0F0F0F0F0F0F
310
0F0F0F0F0F0F0F0F000000002D000000000000000000000000000000000000000000000000000000000000000000000000000000000000000000000000000000000000000000000000000000000000000000000000000000000000000000000000000000000000000000000000000000000000000000000000000000000000
310
00002D000000000F000000000000000000000000000000000000000000000000000000000000000000000000F5000000000000000000000000000000000000000000000000000000000000000000000000000000000000000000000000000000000F0000000000000F00000000000000000000000000000000000000000000
310
0000000000000000000F000000002D00000000000000000000000000000000000000000000000000000000000000000000000000000000000000000000000000000000000000000000000000000000000000000000000000000000000000000000000000000000000000000000000000000000000000000000000000000000
310
000000002D000000000F000000000000000000000000000000000000000000000000000000000000000000000000F5000000000000000000000000000000000000000000000000000000000000000000000000000000000000000000000000000000000F0F0F0F0F0F000F000000000F0F0F0F0F0F0F0F0F0F0F0F0F0F0F0F
310
0F0F0F0F0F0F00000000000F000000002D0000000000000000000000000000000000000000000000000000000000000000000000000000000000000000000000000000000000000000000000000000000000000000000000000000000000000000000000000000000000000000000000000000000000000000000000000000
310
0000000000002D000000000F00000000000000000000000000000000000000000000000000F5F5F500F5F5F50000000000000000000000000000000000000000000000000000000000000000000000000000000000000000000000000000000000000000000F0F0F0F0F0F000F000000000F0F0F0F0F0F0F0F0F0F0F0F0F0F
310
0F0F0F0F0F0F0F0F00000000000F000000002D000000000000000000000000000000000000000000000000000000000000000000000000000000000000000000000000000000000000000000000000000000000000000000000000000000000000000000000000000000000000000000000000000000000000000000000000
310
00000000000000002D000000000F00000000000000000000000000000000000000000000000000F5F5F5F5F5F5F50000000000000000000000000000000000000000000000000000000000000000000000000000000000000000000000000000000000000000000F0000000000000F00000000000000000000000000000000
310
0000000000000000000000000000000F000000002D00000000000000000000000000000000000000000000000000000000000000000000000000000000000000000000000000000000000000000000000000000000000000000000000000000000000000000000000000000000000000000000000000000000000000000000
310
000000000000000000002D000000000F00000000000000000000000000000000000000000000000000F500F500F500000000000000000000000000000000000000000000000000000000000000000000000000000000000000000000000000000000000000000000000F0F0F0F0F0F0F0F0F0F0F0F0F0F0F0F0F0F0F0F0F0F
310
0F0F0F0F0F0F0F0F0F0F0F0F0F0F0F0F0F0F000000002D0000000000000000000000000000000000000000000000000000000000000000000000000000000000000000000000000000000000000000000000000000000000000000000000000000000000000000000000000000000000000000000000000000000000000000
310
0000000000000000000000002D000000000F0000000000000000000000000000000000F5C3F5F5F5C3F5F5F5F5F5C3F5F5F5C3F5F5F5F5F50000000000000000000000000000000000000000000000000000000000000000000000000000000000000000000000000000000000000000000000000000000000000000000000
310
000000000000000000000000000000000000000F000000002D000000000000000000000000000000000000000000000000000000000000000000000000000000000000000000000000000000000000000000000000000000000000000000000000000000000000000000000000000000000000000000000000000000000000
310
00000000000000000000000000002D000000000F0000000000000000000000000000000000C3C3C3C3C3C3C3C3F5C3C3C3C3C3C3C3F50000F500000000000000000000000000000000000000000000000000000000000000000000000000000000000000000000000000000000000000000000000000000000000000000000
310
0000000000000000000000000000000000000000000F000000002D00000000000000000000000000000000000000000000000000000000000000000000000000000000000000000000000000000000000000000000000000000000000000000000000000000000000000000000000000000000000000000000000000000000
310
000000000000000000000000000000002D000000000F0000000000000000F5F5F50000F5F50000F5C30000F5C30000F500F5C30000F5C3F50000F50000000000000000000000000000000000000000000000000000000000000000000000000000000000000000000000000000000000000000000000000000000000000000
310
00000000000000000000000000000000000000000000000F000000002D0000000000000000000000000000000000000000000000000000000000000000000000000000000000000000000000000000000000000000000000000000000000000000000000000000000000000000000000000000000000000000000000000000
310
0000000000000000000000000000000000002D000000000F0000000000000000F5F5F5F5F5F5F5F5F5F5F5F5F5F5F5F5F5F5F5F5F5F5F5F5F5F50000F5000000000000000000000000000000000000000000000000000000000000000000000000000000000000000000000000000000000000000000000000000000000000
310
000000000000000000000000000000000000000000000000000F000000002D000000000000000000000000000000000000000000000000000000000000000000000000000000000000000000000000000000000000000000000000000000000000000000000000000000000000000000000000000000000000000000000000
310
00000000000000000000000000000000000000002D000000000F00000000000000000000F500F500000000C3C3C3C3C3C3C3C3F5C3C3C3C3C3C3C3F50000F500000000000000000000000000000000000000000000000000000000000000000000000000000000000000000000000000000000000000000000000000000000
310
0000000000000000000000000000000000000000000000000000000F000000002D00000000000000000000000000000000000000000000000000000000000000000000000000000000000000000000000000000000000000000000000000000000000000000000000000000000000000000000000000000000000000000000
310
000000000000000000000000000000000000000000002D000000000F0000000000000000000000000000000000F5C3000000C30000F50000C30000F5C3F50000F50000000000000000000000000000000000000000000000000000000000000000000000000000000000000000000000000000000000000000000000000000
310
00000000000000000000000000F5F5F50000F5F50000000000000000000F000000002D0000000000000000000000000000000000000000000000000000000000000000000000000000000000000000000000000000000000000000000000000000000000000000000000000000000000000000000000000000000000000000
310
0000000000000000000000000000000000000000000000002D000000000F0000000000000000000000000000000000F5C300F5F5C30000F50000C3F5F5F5C3F5F5F5F5000000000000000000000000000000000000000000000000000000000000000000000000000000000000000000000000000000000000000000000000
310
0000000000000000000000000000F5F5F5F5F5F5F5F50000000000000000000F000000002D000000000000000000000000000000000000000000000000000000000000000000000000000000000000000000000000000000000000000000000000000000000000000000000000000000000000000000000000000000000000
310
00000000000000000000000000000000000000000000000000002D000000000F0000000000000000000000000000000000F5C300F5F5C30000F50000C3F5F5F5C3F5F5F5F500000000000000000000000000000000000000000000000000000000000000000000000000000000000000000000000000000000000000000000
310
000000000000000000000000F5F5F5F500F500F500F5F5000000000000000000000F000000002D00000000000000000000000000000000000000000000000000000000000000000000000000000000000000000000000000000000000000000000000000000000000000000000000000000000000000000000000000000000
310
000000000000000000000000000000000000000000000000000000002D000000000F0000000000000000000000000000000000F5C300F5F5C30000F50000C3F5F5F5C3F5F5F5F5000000000000000000000000000000000000000000000000000000000000000000000000000000000000000000000000F5F5F500F5F5F500
310
0000000000000000000000F5F5F50000000000F50000000000000000000000000000000F000000002D0000000000000000000000000000000000000000000000000000000000000000000000000000000000000000000000000000000000000000000000000000000000000000000000000000000000000000000000000000
310
0000000000000000000000000000000000000000000000000000000000002D000000000F0000000000000000000000000000000000F5C300F5F5C30000F50000C3F5F5F5C3F5F5F5F5000000000000000000000000000000000000000000000000000000000000000000000000000000000000000000000000F5F5F5F5F5F5
310
F5F5F5C3F5F5F5F5F5F5F5F5F5F5F5F5F5F5F5C3F5F5F5F5F50000000000000000000000000F000000002D000000000000000000000000000000000000000000000000000000000000000000000000000000000000000000000000000000000000000000000000000000000000000000000000000000000000000000000000
310
00000000000000000000000000000000000000000000000000000000000000002D000000000F0000000000000000000000000000000000F5C300F5F5C30000F50000C3F5F5F5C3F50000F50000000000000000000000000000000000000000000000000000000000000000000000000000000000000000000000000000F5F5
310
F50000F5F5F5F500F5F5F5F50000000000000000F5F5F5F5F5F5F50000000000000000000000000F000000002D00000000000000000000000000000000000000000000000000000000000000000000000000000000000000000000000000000000000000000000000000000000000000000000000000000000000000000000
310
000000000000000000000000000000000000000000000000000000000000000000002D000000000F0000000000000000000000000000000000C3C3C3C3C3C3C3C3F5C3C3C3C3C3C3C3F50000F50000000000000000000000000000000000000000000000000000000000000000000000000000000000000000000000000000
310
0000000000F5F5F5F5F5000000000000000000000000F5F5F5F5F5F5000000000000000000000000000F000000002D0000000000000000000000000000000000000000000000000000000000000000000000000000000000000000000000000000000000000000000000000000000000000000000000000000000000000000
310
0000000000000000000000000000000000000000000000000000000000000000000000002D000000000F0000000000000000000000000000000000F5C3000000C30000F50000C30000F5C3F50000F5000000000000000000000000000000000000000000000000000000000000000000000000000000000000000000000000
310
0000000000000000F5F5F500000000000000000000000000F5C3F5F5F5F5F50000000000000000000000000F000000002D000000000000000000000000000000000000000000000000000000000000000000000000000000000000000000000000000000000000000000000000000000000000000000000000000000000000
310
00000000000000000000000000000000000000000000000000000000000000000000000000002D000000000F0000000000000000000000000000000000F5C3000000C30000F50000C30000F5C3F50000F500000000000000000000000000000000000000000000000000000000000000000000000000000000000000000000
310
00000000000000000000F5C3F5F5F5F5F5F5F5F5F5F5F5F5F5F5F5C3F5F5F5F5F50000000000000000000000000F000000002D00000000000000000000000000000000000000000000000000000000000000000000000000000000000000000000000000000000000000000000000000000000000000000000000000000000
310
000000000000000000000000000000000000000000000000000000000000000000000000000000002D000000000F0000000000000000000000000000000000F5C3F5F5F5C3F5F5F5F5F5C3F5F5F5C3F50000F50000000000000000000000000000000000000000000000000000000000000000000000000000000000000000
310
00000000000000000000000000000000000000000000000000000000000000000000000000000000000000000000000F000000002D0000000000000000000000000000000000000000000000000000000000000000000000000000000000000000000000000000000000000000000000000000000000000000000000000000
310
0000000000000000000000000000000000000000000000000000000000000000000000000000000000002D000000000F0000000000000000000000000000000000C3C3C3C3C3C3C3C3F5C3C3C3C3C3C3C3F50000F5000000000000000000000000000000000000000000000000000000000000000000000000000000000000
310
000000000000000000000000000000000000000000000000000000000000000000000000000000000000000000000000000F000000002D000000000000000000000000000000000000000000000000000000000000000000000000000000000000000000000000000000000000000000000000000000000000000000000000
310
00000000000000000000000000000000000000000000000000000000000000000000000000000000000000002D000000000F0000000000000000000000000000000000F5F5F5F5F5F5F5F5F5F5F5F5F5F5F5F5F5F5F5F5F5000000000000000000000000000000000000000000000000000000000000000000000000000000
310
0000000000000000000000000000000000000000F5F5F5F5F5F5F5F5F5F50000000000000000000000000000000000000000000F000000002D00000000000000000000000000000000000000000000000000000000000000000000000000000000000000000000000000000000000000000000000000000000000000000000
310
000000000000000000000000000000000000000000000000000000000000000000000000000000000000000000002D000000000F0000000000000000000000000000000000F5000000000000000000000000000000F50000000000000000000000000000000000000000000000000000000000000000000000000000000000
310
00000000000000000000000000000000000000000000000000000000000000000000000000000000000000000000000000000000000F000000002D0000000000000000000000000000000000000000000000000000000000000000000000000000000000000000000000000000000000000000000000000000000000000000
310
0000000000000000000000000000000000000000000000000000000000000000000000000000000000000000000000002D000000000F0000000000000000000000000000000000F5F5F5F5F5F5F5F5F5F5F5F5F5F5F5F5F5000000000000000000000000000000000000000000000000000000000000000000000000000000
310
000000000000000000000000000000000000000000000000000000000000000000000000000000000000000000000000000000000000000F000000002D000000000000000000000000000000000000000000000000000000000000000000000000000000000000000000000000000000000000000000000000000000000000
310
00000000000000000000000000000000000000000000000000000000000000000000000000000000000000000000000000002D000000000F0000000000000000000000000000000000F5F500000000F5F5F5F50000000000F5F500000000000000000000000000000000000000000000000000000000000000000000000000
310
0000000000000000000000000000000000000000000000000000000000000000000000000000000000F5F5F50000F5F50000000000000000000F000000002D00000000000000000000000000000000000000000000000000000000000000000000000000000000000000000000000000000000000000000000000000000000
310
000000000000000000000000000000000000000000000000000000000000000000000000000000000000000000000000000000002D000000000F0000000000000000000000000000000000000000000000F5F5F5F5000000000000000000000000000000000000000000000000000000000000000000000000000000000000
310
000000000000000000000000000000000000000000000000000000000000000000000000000000000000F5F5F5F5F5F5F5F50000000000000000000F000000002D0000000000000000000000000000000000000000000000000000000000000000000000000000000000000000000000000000000000000000000000000000
310
0000000000000000000000000000000000000000000000000000000000000000000000000000000000000000000000000000000000002D000000000F00000000000000000000000000000000000000000000000000000000000000000000000000000000000000000000000000000000000000000000000000000000000000
310
00000000000000000000000000000000000000000000000000000000000000000000000000000000F5F5F5F500F500F500F5F5000000000000000000000F000000002D000000000000000000000000000000000000000000000000000000000000000000000000000000000000000000000000000000000000000000000000
310
00000000000000000000000000000000000000000000000000000000000000000000000000000000000000000000000000000000000000002D000000000F0000000000000000000000000000000000000000F5F5F5F5F5F5F5F5F5F50000000000000000000000000000000000000000000000000000000000000000000000
310
0000000000000000000000000000000000000000F5F5F500F5F5F5000000000000000000000000F5F5F50000000000F50000000000000000000000000000000F000000002D00000000000000000000000000000000000000000000000000000000000000000000000000000000000000000000000000000000000000000000
310
000000000000000000000000000000000000000000000000000000000000000000000000000000000000000000000000000000000000000000002D000000000F000000000000000000000000000000000000000000000000000000000000000000000000000000000000000000000000000000000000000000000000000000
310
00000000000000000000000000F500F5F50000000000F5F5F5F5F5F5F5F5F5F5F5F5F5F5F5F5F5F5F5F5F5F5F5F5F5C3F5F5F5F5F50000000000000000000000000F000000002D0000000000000000000000000000000000000000000000000000000000000000000000000000000000000000000000000000000000000000
310
0000000000000000000000000000000000000000000000000000000000000000000000000000000000000000000000000000000000000000000000002D000000000F00000000000000000000000000000000000000000000000000000000000000000000000000000000000000000000000000000000000000000000000000
310
000000000000000000000000000000F5F5F5F500000000000000F500F500F5F5F5C3F500F5F5F5F50000000000000000F5F5F50000F5F50000000000000000000000000F000000002D000000000000000000000000000000000000000000000000000000000000000000000000000000000000000000000000000000000000
310
00000000000000000000000000000000000000000000000000000000000000000000000000000000000000000000000000000000000000000000000000002D000000000F0000000000000000000000000000000000000000000000F5F5F5F50000000000000000000000000000000000000000000000000000000000000000
310
0000000000000000000000000000000000F5F5F5F5000000000000000000000000F5F5F5F5F5000000000000000000000000F5F5F50000F5000000000000000000000000000F000000002D00000000000000000000000000000000000000000000000000000000000000000000000000000000000000000000000000000000
310
000000000000000000000000000000000000000000000000000000000000000000000000000000000000000000000000000000000000000000000000000000002D000000000F0000000000000000000000000000000000000000000000000000000000000000000000000000000000000000000000000000000000F5C3C3C3
310
F5F5F5F5F5F5F5F5F5F5F5F5F5F5C3C3C3F5F5F5F5F5F5F5F500000000000000000000F5F5F5F500000000000000000000000000F5C3F5F5F5F5000000000000000000000000000F000000002D0000000000000000000000000000000000000000000000000000000000000000000000000000000000000000000000000000
310
0000000000000000000000000000000000000000000000000000000000000000000000000000000000000000000000000000000000000000000000000000000000002D000000000F0000000000000000000000000000000000000000000000000000000000000000000000000000000000000000000000000000000000F5C3
310
C3C3F5F5F5F5F5F5F5F5F5F5F5F5F5F5C3C3C3F5F5F5F500F5F5F50000000000000000000000F5F5F500000000000000000000000000F5C3F5F5F5F5000000000000000000000000000F000000002D000000000000000000000000000000000000000000000000000000000000000000000000000000000000000000000000
310
00000000000000000000000000000000000000000000000000000000000000000000000000000000000000000000000000000000000000000000000000000000000000002D000000000F0000000000000000000000000000000000000000000000000000000000000000000000000000000000000000000000000000000000
310
F5C3C300000000000000000000000000000000C3C3F500F50000F5F5F50000000000000000000000F5C3F500000000000000000000000000F5C3F5F5F5F5000000000000000000000000000F000000002D00000000000000000000000000000000000000000000000000000000000000000000000000000000000000000000
310
000000000000000000000000000000000000000000000000000000000000000000000000000000000000000000000000000000000000000000000000000000000000000000002D000000000F000000000000000000000000000000000000000000000000000000000000000000000000000000000000000000000000000000
310
0000F5F5F5F5F5F5F5F5F5F5F5F5F5F5F5F5F5F5F5F5F5F5F5F5F5F5F500000000000000000000000000F5F5F500000000000000000000000000F5C3F500F5F5000000000000000000000000000F000000002D0000000000000000000000000000000000000000000000000000000000000000000000000000000000000000
310
0000000000000000000000000000000000000000000000000000000000000000000000000000000000000000000000000000000000000000000000000000000000000000000000002D000000000F00000000000000000000000000000000000000000000000000000000000000000000000000000000000000000000000000
310
0000F5F5F5F5F5F5F5F5F50000000000000000F5F5F5F5F5F5F5F5F5F5F5F500000000000000000000000000F5F5F500000000000000000000000000F5C3F50000F5000000000000000000000000000F000000002D000000000000000000000000000000000000000000000000000000000000000000000000000000000000
310
00000000000000000000000000000000000000000000000000000000000000000000000000000000000000000000000000000000000000000000000000000000000000000000000000002D000000000F0000000000000000000000000000000000000000000000000000000000000000000000000000000000000000000000
310
0000000000F5F5F5F5F5F5F5F5F500000000000000F5F5F5F5F5F5F5F5F5F5F5F500000000000000000000000000F5F5F500000000000000000000000000F5C3F50000F5F50000000000000000000000000F000000002D00000000000000000000000000000000000000000000000000000000000000000000000000000000
310
000000000000000000000000000000000000000000000000000000000000000000000000000000000000000000000000000000000000000000000000000000000000000000000000000000002D000000000F000000000000000000000000000000000000000000000000000000000000000000000000000000000000000000
310
000000000000000000F5F5F500F5F5F500000000000000F5F500F5F5F500000000000000000000000000000000000000F5F5F5F5F5F5F5F5F5F5F5F5F5F5F5F5F5F5F5F5F5F5F50000000000000000000000000F000000002D0000000000000000000000000000000000000000000000000000000000000000000000000000
310
0000000000000000000000000000000000000000000000000000000000000000000000000000000000000000000000000000000000000000000000000000000000000000000000000000000000002D000000000F0000000000000000000000000000000000F5F5F5F5F5F5F5F5F5F5F5F5F5F5F5F5F5000000000000000000
310
000000000000000000000000000000000000000000000000000000000000000000000000000000000000000000000000000000000000000000000000000000000000000000000000000000000000000000000000000F000000002D000000000000000000000000000000000000000000000000000000000000000000000000
310
00000000000000000000000000000000000000000000000000000000000000000000000000000000000000000000000000000000000000000000000000000000000000000000000000000000000000002D000000000F0000000000000000000000000000000000F5F50000000000F5F5F50000000000F5F50000F500000000
310
0000000000000000000000000000000000000000000000000000000000000000000000000000000000000000000000000000000000000000F5F5F5F5F5F5F5F5F5F50000000000000000000000000000000000000000000F000000002D00000000000000000000000000000000000000000000000000000000000000000000
310
000000000000000000000000000000000000000000000000000000000000000000000000000000000000000000000000000000000000000000000000000000000000000000000000000000000000000000002D000000000F0000000000000000000000000000000000F5000000000000F5F5F5000000000000F50000F5F500
310
00000000000000000000000000000000000000000000000000000000000000000000000000000000000000000000000000000000000000000000000000000000000000000000000000000000000000000000000000000000000F000000002D0000000000000000000000000000000000000000000000000000000000000000
310
0000000000000000000000000000000000000000000000000000000000000000000000000000000000000000000000000000000000000000000000000000000000000000000000000000000000000000000000002D000000000F0000000000000000000000000000000000F5000000000000000000000000000000F50000F5
310
F5F500000000000000000000000000000000000000000000000000000000000000000000000000000000000000000000000000000000000000000000000000000000000000000000000000000000000000000000000000000000000F000000002D000000000000000000000000000000000000000000000000000000000000
310
00000000000000000000000000000000000000000000000000000000000000000000000000000000000000000000000000000000000000000000000000000000000000000000000000000000000000000000000000002D000000000F0000000000000000000000000000000000C3C3C3C3C3C3C3C3C3C3C3C3C3C3C3C3F5F5
310
F5F5F5F5000000000000000000000000000000000000000000000000000000000000F5F5F50000F5F5000000000000000000000000000000000000000000000000000000000000000000000000000000000000000000000000000000000F000000002D00000000000000000000000000000000000000000000000000000000
310
000000000000000000000000000000000000000000000000000000000000000000000000000000000000000000000000000000000000000000000000000000000000000000000000000000000000000000000000000000002D000000000F0000000000000000000000000000000000F5F5F5F5F5F5F5F5F5F5F5F5F5F5F5F5
310
F5F5F5F5F5F50000000000000000000000000000000000000000000000000000000000F5F5F5F5F5F5F5F5000000000000000000000000000000000000000000000000000000000000000000000000000000000000000000000000000000000F000000002D0000000000000000000000000000000000000000000000000000
310
0000000000000000000000000000000000000000000000000000000000000000000000000000000000000000000000000000000000000000000000000000000000000000000000000000000000000000000000000000000000002D000000000F00000000000000000000000000000000000000000000000000000000000000
310
0000000000F5F5000000000000000000000000000000000000000000000000000000F5F5F5F50000F500F5000000000000000000000000000000000000000000000000000000000000000000000000000000F5F5000000000000000000000000000F000000002D000000000000000000000000000000000000000000000000
310
00000000000000000000000000000000000000000000000000000000000000000000000000000000000000000000000000000000000000000000000000000000000000000000000000000000000000000000000000000000000000002D000000000F0000000000000000000000000000000000000000000000000000000000
310
00000000000000F50000000000000000000000000000000000F5F5F5F5F5F5F5F5F5F5F5F5F5F5F5F5F5F5F5F5F5F5F5F50000000000000000000000000000000000000000000000000000000000000000000000F5F5F50000000000000000000000000F000000002D00000000000000000000000000000000000000000000
310
000000000000000000000000000000000000000000000000000000000000000000000000000000000000000000000000000000000000000000000000000000000000000000000000000000000000000000000000000000000000000000002D000000000F00000000000000000000000000000000000000000000000000F5F5
310
F500F5F5F5000000000000000000000000F5F50000F5F5000000F5C3C3C3C3C3C3F5F5F5C3C3C3C3F5C3C3C3C3C3C3F500F5F5000000000000000000000000000000000000000000000000000000000000000000000000F5F50000000000000000000000000F000000002D0000000000000000000000000000000000000000
310
0000000000000000000000000000000000000000000000000000000000000000000000000000000000000000000000000000000000000000000000000000000000000000000000000000000000000000000000000000000000000000000000002D000000000F00000000000000000000000000000000000000000000000000
310
F5F5F5F5F5F5F5000000000000000000000000F5F5F5F5F5F5F50000F5C3F5F5F5F5F5C3F5F5F5F5F5F5C3F5F5F5F5F5C3F500F5F5000000000000000000000000000000F5C3C3C3C3C3C3C3C3C3C3C3C3C3C3C3C3C3F5F5F5F5F5F5F5F50000000000000000000F000000002D000000000000000000000000000000000000
310
00000000000000000000000000000000000000000000000000000000000000000000000000000000000000000000000000000000000000000000000000000000000000000000000000000000000000000000000000000000000000000000000000002D000000000F0000000000000000000000000000000000000000000000
310
0000F500F500F500000000000000000000000000000000F5F5F500F5F500F5C3F5F5C3C3C3C3C3C3C3C3C3C3C3F5F5F5F5F5C3F500F500000000000000000000000000000000F5C300F5F5F5C3F5F5F5F5F5C3F5F5F5F5C3F5F5F5F5F500F5000000000000000000000F000000002D00000000000000000000000000000000
310
000000000000000000000000000000000000000000000000000000000000000000000000000000000000000000000000000000000000000000000000000000000000000000000000000000000000000000000000000000000000000000000000000000002D000000000F0000000000000000000000000000000000F5F5F5F5
310
F5F5F5F5F5F5F5F5F5F5F5F5F5F5F5F5F500000000000000000000000000F500F5C3F5F50000000000000000000000F50000F5F5C3F500F500000000000000000000000000000000F5C3F5F5000000000000000000000000F5C3F50000F5F500F5000000000000000000000F000000002D0000000000000000000000000000
310
0000000000000000000000000000000000000000000000000000000000000000000000000000000000000000000000000000000000000000000000000000000000000000000000000000000000000000000000000000000000000000000000000000000000002D000000000F0000000000000000000000000000000000C3C3
310
C3C3C3C3C3C3F5C3C3C3C3C3C3C3F50000F50000000000000000000000000000F5F5F5C3F5F500000000000000000000F5F50000F5F5C3F500F500000000000000000000000000000000F5C3F500000000000000000000000000F5C3F50000F5F500F5000000000000000000000F000000002D000000000000000000000000
310
00000000000000000000000000000000000000000000000000000000000000000000000000000000000000000000000000000000000000000000000000000000000000000000000000000000000000000000000000000000000000000000000000000000000000002D000000000F0000000000000000F5F5F50000F5F50000
310
F5C3000000C30000F50000C3000000C3F50000F50000000000000000000000000000F5F5F5C3F5F50000000000000000000000F50000F5F5C3F500F500000000000000000000000000000000F5C3F500000000000000000000000000F5C3F50000F50000F5000000000000000000000F000000002D00000000000000000000
310
000000000000000000000000000000000000000000000000000000000000000000000000000000000000000000000000000000000000000000000000000000000000000000000000000000000000000000000000000000000000000000000000000000000000000000002D000000000F0000000000000000F5F5F5F5F5F5F5
310
F5F5F5F5F5F5F5F5F5F5F5F5F5F5F5F5F5F5F50000F5000000000000000000000000000000F5F5F5C3C3F5F5F5F5F5F5F5F5F5F5F5F5F5F5C3C3C3F500F500000000000000000000000000000000F5C3F500000000000000000000000000F5C3F50000F50000F5000000000000000000000F000000002D0000000000000000
310
0000000000000000000000000000000000000000000000000000000000000000000000000000000000000000000000000000000000000000000000000000000000000000000000000000000000000000000000000000000000000000000000000000000000000000000000002D000000000F00000000000000000000F500F5
310
00000000C3C3C3C3C3C3C3C3F5C3C3C3C3C3C3C3F50000F5000000000000000000000000000000F5F5F5F5C30000000000F5F5F5F50000F50000C3F5C3F500F500000000000000000000000000000000F5C3F500000000000000000000000000F5C3F50000F50000F5000000000000000000000F000000002D000000000000
310
00000000000000000000000000000000000000000000000000000000000000000000000000000000000000000000000000000000000000000000000000000000000000000000000000000000000000000000000000000000000000000000000000000000000000000000000000002D000000000F0000000000000000000000
310
000000000000F5C3000000C30000F50000C3000000C3F50000F5000000000000000000000000000000F5F5F5F5F5000000000000F5F5F5F500F50000C3F5C3F5F5F500000000000000000000000000000000F5C3F500000000000000000000000000F5C3F500F5F5F5F5F5000000000000000000000F000000002D00000000
310
000000000000000000000000000000000000000000000000000000000000000000000000000000000000000000000000000000000000000000000000000000000000000000000000000000000000000000000000000000000000000000000000000000000000000000000000000000002D000000000F000000000000000000
310
0000000000000000F5C3F5F500C30000F50000C3F5F500C3F50000F500000000000000000000000000000000F5F5F5F5000000000000000000F5F5F50000C3F5C3F5F5F500000000000000000000000000000000F5C3F500000000000000000000000000F5C3F5F5F5F5F5F5F5000000000000000000000F000000002D0000
310
0000000000000000000000000000000000000000000000000000000000000000000000000000000000000000000000000000000000000000000000000000000000000000000000000000000000000000000000000000000000000000000000000000000000000000000000000000000000002D000000000F00000000000000
310
00000000000000000000F5C3F5F500C30000F50000C3F5F500C3F5F5F5F500000000000000000000000000000000F5F5F5C3000000000000000000F5F5F50000C3F5C3F5F5F500000000000000000000000000000000F5C3F500000000000000000000000000F5C3F5F5F5F5F5F5F5000000000000000000000F000000002D
310
00000000000000000000000000000000000000000000000000000000000000000000000000000000000000000000000000000000000000000000000000000000000000000000000000000000000000000000000000000000000000000000000000000000000000000000000000000000000000002D000000000F0000000000
310
000000000000000000000000F5C3F5F500C30000F50000C3F5F5F5C3F5F5F5F500000000000000000000000000000000F5F5F5C3000000000000000000F5F5F50000C3F5C3F5F5F500000000000000000000000000000000F5C3F500000000000000000000000000F5C3F5F5F5F5F5F5F5000000000000000000000F000000
310
002D00000000000000000000000000000000000000000000000000000000000000000000000000000000000000000000000000000000000000000000000000000000000000000000000000000000000000000000000000000000000000000000000000000000000000000000000000000000000000002D000000000F000000
310
0000000000000000000000000000F5C3F5F500C30000F50000C3F5F500C3F5F5F5F500000000000000000000000000000000F5C3F5C30000000000000000000000F50000C3F5C3F500F500000000000000000000000000000000F5C3F500000000000000000000000000F5C3F50000F50000F5000000000000000000000F00
310
0000002D00000000000000000000000000000000000000000000000000000000000000000000000000000000000000000000000000000000000000000000000000000000000000000000000000000000000000000000000000000000000000000000000000000000000000000000000000000000000000002D000000000F00
310
00000000000000000000000000000000F5C3F5F500C30000F50000C3F5F500C3F50000F500000000000000000000000000000000F5C3C3C30000000000000000000000F50000C3C3C3F500F500000000000000000000000000000000F5C3F500000000000000000000000000F5C3F50000F50000F500000000000000000000
310
0F000000002D00000000000000000000000000000000000000000000000000000000000000000000000000000000000000000000000000000000000000000000000000000000000000000000000000000000000000000000000000000000000000000000000000000000000000000000000000000000000000002D00000000
310
0F0000000000000000000000000000000000F5C3000000C30000F50000C3000000C3F50000F500000000000000000000000000000000F5C3F5C30000000000000000000000F50000C3F5C3F500F500000000000000000000000000000000F5C3F500000000000000000000000000F5C3F50000F50000F50000000000000000
310
00000F000000002D00000000000000000000000000000000000000000000000000000000000000000000000000000000000000000000000000000000000000000000000000000000000000000000000000000000000000000000000000000000000000000000000000000000000000000000000000000000000000002D0000
310
00000F0000000000000000000000000000000000C3C3C3C3C3C3C3C3F5C3C3C3C3C3C3C3F50000F500000000000000000000000000000000F5C3F5C300000000000000000000F5F50000C3F5C3F500F500000000000000000000000000000000F5C3F500000000000000000000000000F5C3F50000F5F500F5000000000000
310
000000000F000000002D00000000000000000000000000000000000000000000000000000000000000000000000000000000000000000000000000000000000000000000000000000000000000000000000000000000000000000000000000000000000000000000000000000000000000000000000000000000000000002D
310
000000000F0000000000000000000000000000000000F5C3000000C30000F50000C3000000C3F50000F500000000000000000000000000000000F5C3F5C3F5F5F5F5F5F5F5F5F5F5F5F5F5F5F5F5C3F500F500000000000000000000000000000000F5C3F5F5F5F5F5F5F5F5F5F5F5F5F5F5F5C3F5F5F5F5F500F500000000
310
0000000000000F000000002D00000000000000000000000000000000000000000000000000000000000000000000000000000000000000000000000000000000000000000000000000000000000000000000000000000000000000000000000000000000000000000000000000000000000000000000000000000000000000
310
002D000000000F0000000000000000000000000000000000F5C3000000C30000F50000C3000000C3F50000F500000000000000000000000000000000F5C3F5C3C3C3C3C3C3C3C3C3C3C3C3C3C3C3C3F5C3F500F500000000000000000000000000000000F5C3C3C3C3C3C3C3C3C3C3C3C3C3C3C3C3C3F50000F50000F50000
310
00000000000000000F000000002D0000000000000000000000000000000000000000000000000000000000000000000000000000000000000000000000000000000000000000000000000000000000000000000000000000000000000000000000000000000000000000000000000000000000000000000000000000000000
310
0000002D000000000F0000000000000000000000000000000000C3C3C3C3C3C3C3C3F5C3C3C3C3C3C3C3F50000F500000000000000000000000000000000F5C3C3C3C3C3C3C3C3C3C3C3C3C3C3C3C3C3C3C3C3F500F5F5000000000000000000000000000000F5F5F5F5F5F5F5F5F5F5F5F5F5F5F5F5F5F5F5F5F5F5F5F5F5
310
F50000000000000000000F000000002D000000000000000000000000000000000000000000000000000000000000000000000000000000000000000000000000000000000000000000000000000000000000000000000000000000000000000000000000000000000000000000000000000000000000000000000000000000
310
00000000002D000000000F0000000000000000000000000000000000F5F5F5F5F5F5F5F5F5F5F5F5F5F5F5F5F5F5F5F5F5000000000000000000000000000000F5C3C3C3C3C3C3C3C3C3C3C3C3C3C3C3C3C3C3C3C3F5F5F5F5000000000000000000000000000000F500F500000000000000000000000000F500F50000F5F5
310
0000000000000000000000000F000000002D00000000000000000000000000000000000000000000000000000000000000000000000000000000000000000000000000000000000000000000000000000000000000000000000000000000000000000000000000000000000000000000000000000000000000000000000000
310
000000000000002D000000000F0000000000000000000000000000000000F5000000000000000000000000000000F500000000000000000000000000000000000000F50000000000000000000000000000000000000000F5000000000000000000000000000000000000F500F500000000000000000000000000F500F500F5
310
F5000000000000000000000000000F000000002D0000000000000000000000000000000000000000000000000000000000000000000000000000000000000000000000000000000000000000000000000000000000000000000000000000000000000000000000000000000000000000000000000000000000000000000000
310
0000000000000000002D000000000F0000000000000000000000000000000000F5F5F5F5F5F5F5F5F5F5F5F5F5F5F5F5F500000000000000000000000000000000000000F5F5F5F5F5F5F5F5F5F5F5F5F5F5F5F5F5F5F5F5F5F5000000000000000000000000000000000000F500F500000000000000000000000000F500F5
310
00F5F5000000000000000000000000000F000000002D000000000000000000000000000000000000000000000000000000000000000000000000000000000000000000000000000000000000000000000000000000000000000000000000000000000000000000000000000000000000000000000000000000000000000000
310
00000000000000000000002D000000000F0000000000000000000000000000000000F5F500000000F5F5F5F50000000000F5F500000000000000000000000000000000000000000000000000000000F5F5F5F500000000000000000000000000000000000000000000000000F5F5F5F5F5F5F5F5F5F5F5F5F5F5F5F5F5F5F5
310
F5F5F5F500000000000000000000000000000F000000002D00000000000000000000000000000000000000000000000000000000000000000000000000000000000000000000000000000000000000000000000000000000000000000000000000000000000000000000000000000000000000000000000000000000000000
310
000000000000000000000000002D000000000F0000000000000000000000000000000000000000000000F5F5F5F50000000000000000000000000000000000000000000000000000000000000000000000F5F5F5F5000000000000000000000000000000000000000000000000F5F5F5F500F5F500000000F5F5F5F5000000
310
F5F500F5F5F5F5000000000000000000000000000F000000002D0000000000000000000000000000000000000000000000000000000000000000000000000000000000000000000000000000000000000000000000000000000000000000000000000000000000000000000000000000000000000000000000000000000000
310
0000000000000000000000000000002D000000000F000000000000000000000000000000000000000000000000000000000000000000000000000000000000000000000000000000000000000000000000000000000000000000000000000000000000000000000000000000000000F5F5F5F500000000000000F5F5F5F500
310
0000000000F500F5F5000000000000000000000000000F000000002D000000000000000000000000000000000000000000000000000000000000000000000000000000000000000000000000000000000000000000000000000000000000000000000000000000000000000000000000000000000000000000000000000000
310
00000000000000000000000000000000002D000000000F000000000000000000000000000000000000000000000000000000000000000000000000000000000000000000000000000000000000000000000000000000000000000000000000000000000000000000000000000000000000000000F5F5F5F5F5F5F5F5F5F5F5
310
F5F5F5F5F5F5F5F5000000000000000000000000000000000F000000002D00000000000000000000000000000000000000000000000000000000000000000000000000000000000000000000000000000000000000000000000000000000000000000000000000000000000000000000000000000000000000000000000000
310
000000000000000000000000000000000000002D000000000F000000000000000000000000000000000000000000000000000000000000000000000000000000000000000000000000000000000000000000000000000000000000000000000000000000000000000000000000000000000000000000F500000000000000F5
310
F5F5F5000000000000F5000000000000000000000000000000000F000000002D0000000000000000000000000000000000000000000000000000000000000000000000000000000000000000000000000000000000000000000000000000000000000000000000000000000000000000000000000000000000000000000000
310
0000000000000000000000000000000000000000002D000000000F0000000000000000000000000000000000000000F5F5F5F5F5F5F5F5F5F50000000000000000000000000000000000000000000000000000000000F5F5F5F5F5F5F5F5F50000000000000000000000000000000000000000000000000000000000000000
310
00F5F5F5F500000000000000000000000000000000000000000000000F000000002D000000000000000000000000000000000000000000000000000000000000000000000000000000000000000000000000000000000000000000000000000000000000000000000000000000000000000000000000000000000000000000
310
00000000000000000000000000000000000000000000002D000000000F0000000000000000000000000000000000000000000000000000000000000000000000000000000000000000000000000000000000000000000000000000000000000000000000000000000000000000000000000000000000000000000000000000
310
0000000000000000000000000000000000000000000000000000000000000F000000002D00000000000000000000000000000000000000000000000000000000000000000000000000000000000000000000000000000000000000000000000000000000000000000000000000000000000000000000000000000000000000
310
000000000000000000000000000000000000000000000000002D000000000F000000000000000000000000000000000000000000000000000000000000000000000000000000000000000000000000000000000000000000000000000000000000000000000000000000000000000000000000000000000000000000000000
310
00000000000000000000000000000000000000000000000000000000000000000F000000002D0000000000000000000000000000000000000000000000000000000000000000000000000000000000000000000000000000000000000000000000000000000000000000000000000000000000000000000000000000000000
310
0000000000000000000000000000000000000000000000000000002D000000000F0000000000000000000000000000000000000000000000F5F5F5F500000000000000000000000000000000000000000000000000000000000000000000F5F5F5F5F500000000000000000000000000000000000000000000000000000000
310
000000000000F5F5F5F50000000000000000000000000000000000000000000000000F000000002D000000000000000000000000000000000000000000000000000000000000000000000000000000000000000000000000000000000000000000000000000000000000000000000000000000000000000000000000000000
310
00000000000000000000000000000000000000000000000000000000002D000000000F0000000000000000000000000000000000000000000000000000000000000000000000000000000000000000000000000000000000000000000000000000000000000000000000000000000000000000000000000000000000000000
310
0000000000000000000000000000000000000000000000000000000000000000000000000F000000002D00000000000000000000000000000000000000000000000000000000000000000000000000000000000000000000000000000000000000000000000000000000000000000000000000000000000000000000000000
310
000000000000000000000000000000000000000000000000000000000000002D000000000F000000000000000000000000000000000000000000000000000000000000000000000000000000000000000000000000000000000000000000000000000000000000000000000000000000000000000000000000000000000000
310
00000000000000000000000000000000000000000000000000000000000000000000000000000F000000002D0000000000000000000000000000000000000000000000000000000000000000000000000000000000000000000000000000000000000000000000000000000000000000000000000000000000000000000000
310
0000000000000000000000000000000000000000000000000000000000000000002D000000000F00000000000000000000000000000000000000000000000000000000000000000000000000000000000000000000000000000000000000000000000000000000000000000000000000000000000000000000000000000000
310
000000000000000000000000000000000000000000000000000000000000000000000000000000000F000000002D000000000000000000000000000000000000000000000000000000000000000000000000000000000000000000000000000000000000000000000000000000000000000000000000000000000000000000
310
00000000000000000000000000000000000000000000000000000000000000000000002D000000000F0000000000000000000000000000000000000000000000000000000000000000000000000000000000000000000000000000000000000000000000000000000000000000000000000000000000000000000000000000
310
0000000000000000000000000000000000000000000000000000000000000000000000000000000000000F000000002D00000000000000000000000000000000000000000000000000000000000000000000000000000000000000000000000000000000000000000000000000000000000000000000000000000000000000
310
000000000000000000000000000000000000000000000000000000000000000000000000002D000000000F0F0F0F0F0F0F0F0F0F0F0F0F0F0F0F0F0F0F0F0F0F0F0F0F0F0F0F0F0F0F0F0F0F0F0F0F0F0F0F0F0F0F0F0F0F0F0F0F0F0F0F0F0F0F0F0F0F0F0F0F0F0F0F0F0F0F0F0F0F0F0F0F0F0F0F0F0F0F0F0F0F0F0F0F
310
0F0F0F0F0F0F0F0F0F0F0F0F0F0F0F0F0F0F0F0F0F0F0F0F0F0F0F0F0F0F0F0F0F0F0F0F0F0F0F0F0F0F0F0F0F000000002D0000000000000000000000000000000000000000000000000000000000000000000000000000000000000000000000000000000000000000000000000000000000000000000000000000000000
310
0000000000000000000000000000000000000000000000000000000000000000000000000000002D000000000000000000000000000000000000000000000000000000000000000000000000000000000000000000000000000000000000000000000000000000000000000000000000000000000000000000000000000000
310
0000000000000000000000000000000000000000000000000000000000000000000000000000000000000000000000000000002D000000000000000000000000000000000000000000000000000000000000000000000000000000000000000000000000000000000000000000000000000000000000000000000000000000
310
00000000000000000000000000000000000000000000000000000000000000000000000000000000002D00000000000000000000000000000000000000000000000000000000000000000000000000000000000000000000000000000000000000000000000000000000000000000000000000000000000000000000000000
310
00000000000000000000000000000000000000000000000000000000000000000000000000000000000000000000000000000000002D00000000000000000000000000000000000000000000000000000000000000000000000000000000000000000000000000000000000000000000000000000000000000000000000000
310
000000000000000000000000000000000000000000000000000000000000000000000000000000000000002D0000000000000000000000000000000000000000000000000000000000000000000000000000000000000000000000000000000000000000000000000000000000000000000000000000000000000000000000
310
000000000000000000000000000000000000000000000000000000000000000000000000000000000000000000000000000000000000002D0000000000000000000000000000000000000000000000000000000000000000000000000000000000000000000000000000000000000000000000000000000000000000000000
310
0000000000000000000000000000000000000000000000000000000000000000000000000000000000000000002D2D2D2D2D2D2D2D2D2D2D2D2D2D2D2D2D2D2D2D2D2D2D2D2D2D2D2D2D2D2D2D2D2D2D2D2D2D2D2D2D2D2D2D2D2D2D2D2D2D2D2D2D2D2D2D2D2D2D2D2D2D2D2D2D2D2D2D2D2D2D2D2D2D2D2D2D2D2D2D2D2D
310
2D2D2D2D2D2D2D2D2D2D2D2D2D2D2D2D2D2D2D2D2D2D2D2D2D2D2D2D2D2D2D2D2D2D2D2D2D2D2D2D2D2D2D2D2D2D2D2D2D2D2D2D2D2D2D2D2D2D000000000000000000000000000000000000000000000000000000000000000000000000000000000000000000000000000000000000000000000000000000000000000000
310
00000000000000000000000000000000000000000000000000000000000000000000000000000000000000000000000000000000000000000000000000000000000000000000000000000000000000000000000000000000000000000000000000000000000000000000000000000000000000000000000000000000000000
310
00000000000000000000000000000000000000000000000000000000000000000000000000000000000000000000000000000000000000000000000000000000000000000000000000000000000000000000000000000000000000000000000000000000000000000000000000000000000000000000000000000000000000
310
00000000000000000000000000000000000000000000000000000000000000000000000000000000000000000000000000000000000000000000000000000000000000000000000000000000000000000000000000000000000000000000000000000000000000000000000000000000000000000000000000000000000000
310
00000000000000000000000000000000000000000000000000000000000000000000000000000000000000000000000000000000000000000000000000000000000000000000000000000000000000000000000000000000000000000000000000000000000000000000000000000000000000000000000000000000000000
310
00000000000000000000000000000000000000000000000000000000000000000000000000000000000000000000000000000000000000000000000000000000000000000000000000000000000000000000000000000000000000000000000000000000000000000000000000000000000000000000000000000000000000
310
00000000000000000000000000000000000000000000000000000000000000000000000000000000000000000000000000000000000000000000000000000000000000000000000000000000000000000000000000000000000000000000000000000000000000000000000000000000000000000000000000000000000000
310
00000000000000000000000000000000000000000000000000000000000000000000000000000000000000000000000000000000000000000000000000000000000000000000000000000000000000000000000000000000000000000000000000000000000000000000000000000000000000000000000000000000000000
310
00000000000000000000000000000000000000000000000000000000000000000000000000000000000000000000000000000000000000000000000000000000000000000000000000000000000000000000000000000000000000000000000000000000000000000000000000000000000000000000000000000000000000
310
00000000000000000000000000000000000000000000000000000000000000000000000000000000000000000000000000000000000000000000000000000000000000000000000000000000000000000000000000000000000000000000000000000000000000000000000000000000000000000000000000000000000000
310
00000000000000000000000000000000000000000000000000000000000000000000000000000000000000000000000000000000000000000000000000000000000000000000000000000000000000000000000000000000000000000000000000000000000000000000000000000000000000000000000000000000000000
310
00000000000000000000000000000000000000000000000000000000000000000000000000000000000000000000000000000000000000000000000000000000000000000000000000000000000000000000000000000000000000000000000000000000000000000000000000000000000000000000000000000000000000
310
00000000000000000000000000000000000000000000000000000000000000000000000000000000000000000000000000000000000000000000000000000000000000000000000000000000000000000000000000000000000000000000000000000000000000000000000000000000000000000000000000000000000000
310
00000000000000000000000000000000000000000000000000000000000000000000000000000000000000000000000000000000000000000000000000000000000000000000000000000000000000000000000000000000000000000000000000000000000000000000000000000000000000000000000000000000000000
310
00000000000000000000000000000000000000000000000000000000000000000000000000000000000000000000000000000000000000000000000000000000000000000000000000000000000000000000000000000000000000000000000000000000000000000000000000000000000000000000000000000000000000
310
00000000000000000000000000000000000000000000000000000000000000000000000000000000000000000000000000000000000000000000000000000000000000000000000000000000000000000000000000000000000000000000000000000000000000000000000000000000000000000000000000000000000000
310
00000000000000000000000000000000000000000000000000000000000000000000000000000000000000000000000000000000000000000000000000000000000000000000000000000000000000000000000000000000000000000000000000000000000000000000000000000000000000000000000000000000000000
310
00000000000000000000000000000000000000000000000000000000000000000000000000000000000000000000000000000000000000000000000000000000000000000000000000000000000000000000000000000000000000000000000000000000000000000000000000000000000000000000000000000000000000
310
00000000000000000000000000000000000000000000000000000000000000000000000000000000000000000000000000000000000000000000000000000000000000000000000000000000000000000000000000000000000000000000000000000000000000000000000000000000000000000000000000000000000000
310
00000000000000000000000000000000000000000000000000000000000000000000000000000000000000000000000000000000000000000000000000000000000000000000000000000000000000000000000000000000000000000000000000000000000000000000000000000000000000000000000000000000000000
310
00000000000000000000000000000000000000000000000000000000000000000000000000000000000000000000000000000000000000000000000000000000000000000000000000000000000000000000000000000000000000000000000000000000000000000000000000000000000000000000000000000000000000
310
00000000000000000000000000000000000000000000000000000000000000000000000000000000000000000000000000000000000000000000000000000000000000000000000000000000000000000000000000000000000000000000000000000000000000000000000000000000000000000000000000000000000000
310
00000000000000000000000000000000000000000000000000000000000000000000000000000000000000000000000000000000000000000000000000000000000000000000000000000000000000000000000000000000000000000000000000000000000000000000000000000000000000000000000000000000000000
310
00000000000000000000000000000000
  0
XRECORD
  5
1C
102
{ACAD_REACTORS
330
1A
102
}
330
1A
100
AcDbXrecord
280
     1
270
     1
271
     1
  0
XRECORD
  5
1B
102
{ACAD_REACTORS
330
1A
102
}
330
1A
100
AcDbXrecord
280
     1
270
     1
271
     1
  0
XRECORD
  5
1F
102
{ACAD_REACTORS
330
1A
102
}
330
1A
100
AcDbXrecord
280
     1
270
     1
271
     1
  0
XRECORD
  5
1E
102
{ACAD_REACTORS
330
1A
102
}
330
1A
100
AcDbXrecord
280
     1
270
     1
271
     1
  0
XRECORD
  5
20
102
{ACAD_REACTORS
330
1A
102
}
330
1A
100
AcDbXrecord
280
     1
270
     1
271
     1
  0
XRECORD
  5
1D
102
{ACAD_REACTORS
330
1A
102
}
330
1A
100
AcDbXrecord
280
     1
270
     1
271
     1
  0
XRECORD
  5
14
102
{ACAD_REACTORS
330
12
102
}
330
12
100
AcDbXrecord
280
     1
270
     1
271
     1
  0
XRECORD
  5
13
102
{ACAD_REACTORS
330
12
102
}
330
12
100
AcDbXrecord
280
     1
270
     1
271
     1
  0
XRECORD
  5
17
102
{ACAD_REACTORS
330
12
102
}
330
12
100
AcDbXrecord
280
     1
270
     1
271
     1
  0
XRECORD
  5
16
102
{ACAD_REACTORS
330
12
102
}
330
12
100
AcDbXrecord
280
     1
270
     1
271
     1
  0
XRECORD
  5
18
102
{ACAD_REACTORS
330
12
102
}
330
12
100
AcDbXrecord
280
     1
270
     1
271
     1
  0
XRECORD
  5
15
102
{ACAD_REACTORS
330
12
102
}
330
12
100
AcDbXrecord
280
     1
270
     1
271
     1
  0
XRECORD
  5
24
102
{ACAD_REACTORS
330
22
102
}
330
22
100
AcDbXrecord
280
     1
270
     1
271
     1
  0
XRECORD
  5
23
102
{ACAD_REACTORS
330
22
102
}
330
22
100
AcDbXrecord
280
     1
270
     1
271
     1
  0
XRECORD
  5
27
102
{ACAD_REACTORS
330
22
102
}
330
22
100
AcDbXrecord
280
     1
270
     1
271
     1
  0
XRECORD
  5
26
102
{ACAD_REACTORS
330
22
102
}
330
22
100
AcDbXrecord
280
     1
270
     1
271
     1
  0
XRECORD
  5
28
102
{ACAD_REACTORS
330
22
102
}
330
22
100
AcDbXrecord
280
     1
270
     1
271
     1
  0
XRECORD
  5
25
102
{ACAD_REACTORS
330
22
102
}
330
22
100
AcDbXrecord
280
     1
270
     1
271
     1
  0
CELLSTYLEMAP
  5
198C
102
{ACAD_REACTORS
330
ED
102
}
330
ED
100
AcDbCellStyleMap
 90
        3
300
CELLSTYLE
  1
TABLEFORMAT_BEGIN
 90
        5
170
     1
 91
        0
 92
    32768
 62
   257
 93
        1
300
CONTENTFORMAT
  1
CONTENTFORMAT_BEGIN
 90
        0
 91
        0
 92
      512
 93
        0
300

 40
0.0
140
1.0
 94
        5
 62
     0
340
50
144
6.0
309
CONTENTFORMAT_END
171
     1
301
MARGIN
  1
CELLMARGIN_BEGIN
 40
1.5
 40
1.5
 40
1.5
 40
1.5
 40
4.5
 40
4.5
309
CELLMARGIN_END
 94
        6
 95
        1
302
GRIDFORMAT
  1
GRIDFORMAT_BEGIN
 90
        0
 91
        1
 62
     0
 92
       -2
340
0
 93
        0
 40
1.125
309
GRIDFORMAT_END
 95
        2
302
GRIDFORMAT
  1
GRIDFORMAT_BEGIN
 90
        0
 91
        1
 62
     0
 92
       -2
340
0
 93
        0
 40
1.125
309
GRIDFORMAT_END
 95
        4
302
GRIDFORMAT
  1
GRIDFORMAT_BEGIN
 90
        0
 91
        1
 62
     0
 92
       -2
340
0
 93
        0
 40
1.125
309
GRIDFORMAT_END
 95
        8
302
GRIDFORMAT
  1
GRIDFORMAT_BEGIN
 90
        0
 91
        1
 62
     0
 92
       -2
340
0
 93
        0
 40
1.125
309
GRIDFORMAT_END
 95
       16
302
GRIDFORMAT
  1
GRIDFORMAT_BEGIN
 90
        0
 91
        1
 62
     0
 92
       -2
340
0
 93
        0
 40
1.125
309
GRIDFORMAT_END
 95
       32
302
GRIDFORMAT
  1
GRIDFORMAT_BEGIN
 90
        0
 91
        1
 62
     0
 92
       -2
340
0
 93
        0
 40
1.125
309
GRIDFORMAT_END
309
TABLEFORMAT_END
  1
CELLSTYLE_BEGIN
 90
        1
 91
        1
300
_TITLE
309
CELLSTYLE_END
300
CELLSTYLE
  1
TABLEFORMAT_BEGIN
 90
        5
170
     1
 91
        0
 92
        0
 62
   257
 93
        1
300
CONTENTFORMAT
  1
CONTENTFORMAT_BEGIN
 90
        0
 91
        0
 92
      512
 93
        0
300

 40
0.0
140
1.0
 94
        5
 62
     0
340
50
144
4.5
309
CONTENTFORMAT_END
171
     1
301
MARGIN
  1
CELLMARGIN_BEGIN
 40
1.5
 40
1.5
 40
1.5
 40
1.5
 40
4.5
 40
4.5
309
CELLMARGIN_END
 94
        6
 95
        1
302
GRIDFORMAT
  1
GRIDFORMAT_BEGIN
 90
        0
 91
        1
 62
     0
 92
       -2
340
0
 93
        0
 40
1.125
309
GRIDFORMAT_END
 95
        2
302
GRIDFORMAT
  1
GRIDFORMAT_BEGIN
 90
        0
 91
        1
 62
     0
 92
       -2
340
0
 93
        0
 40
1.125
309
GRIDFORMAT_END
 95
        4
302
GRIDFORMAT
  1
GRIDFORMAT_BEGIN
 90
        0
 91
        1
 62
     0
 92
       -2
340
0
 93
        0
 40
1.125
309
GRIDFORMAT_END
 95
        8
302
GRIDFORMAT
  1
GRIDFORMAT_BEGIN
 90
        0
 91
        1
 62
     0
 92
       -2
340
0
 93
        0
 40
1.125
309
GRIDFORMAT_END
 95
       16
302
GRIDFORMAT
  1
GRIDFORMAT_BEGIN
 90
        0
 91
        1
 62
     0
 92
       -2
340
0
 93
        0
 40
1.125
309
GRIDFORMAT_END
 95
       32
302
GRIDFORMAT
  1
GRIDFORMAT_BEGIN
 90
        0
 91
        1
 62
     0
 92
       -2
340
0
 93
        0
 40
1.125
309
GRIDFORMAT_END
309
TABLEFORMAT_END
  1
CELLSTYLE_BEGIN
 90
        2
 91
        1
300
_HEADER
309
CELLSTYLE_END
300
CELLSTYLE
  1
TABLEFORMAT_BEGIN
 90
        5
170
     1
 91
        0
 92
        0
 62
   257
 93
        1
300
CONTENTFORMAT
  1
CONTENTFORMAT_BEGIN
 90
        0
 91
        0
 92
      512
 93
        0
300

 40
0.0
140
1.0
 94
        2
 62
     0
340
50
144
4.5
309
CONTENTFORMAT_END
171
     1
301
MARGIN
  1
CELLMARGIN_BEGIN
 40
1.5
 40
1.5
 40
1.5
 40
1.5
 40
4.5
 40
4.5
309
CELLMARGIN_END
 94
        6
 95
        1
302
GRIDFORMAT
  1
GRIDFORMAT_BEGIN
 90
        0
 91
        1
 62
     0
 92
       -2
340
0
 93
        0
 40
1.125
309
GRIDFORMAT_END
 95
        2
302
GRIDFORMAT
  1
GRIDFORMAT_BEGIN
 90
        0
 91
        1
 62
     0
 92
       -2
340
0
 93
        0
 40
1.125
309
GRIDFORMAT_END
 95
        4
302
GRIDFORMAT
  1
GRIDFORMAT_BEGIN
 90
        0
 91
        1
 62
     0
 92
       -2
340
0
 93
        0
 40
1.125
309
GRIDFORMAT_END
 95
        8
302
GRIDFORMAT
  1
GRIDFORMAT_BEGIN
 90
        0
 91
        1
 62
     0
 92
       -2
340
0
 93
        0
 40
1.125
309
GRIDFORMAT_END
 95
       16
302
GRIDFORMAT
  1
GRIDFORMAT_BEGIN
 90
        0
 91
        1
 62
     0
 92
       -2
340
0
 93
        0
 40
1.125
309
GRIDFORMAT_END
 95
       32
302
GRIDFORMAT
  1
GRIDFORMAT_BEGIN
 90
        0
 91
        1
 62
     0
 92
       -2
340
0
 93
        0
 40
1.125
309
GRIDFORMAT_END
309
TABLEFORMAT_END
  1
CELLSTYLE_BEGIN
 90
        3
 91
        2
300
_DATA
309
CELLSTYLE_END
  0
XRECORD
  5
1999
102
{ACAD_REACTORS
330
1998
102
}
330
1998
100
AcDbXrecord
280
     1
102
RTVSPropertyOp0
 70
     1
102
RTVSPropertyOp1
 70
     1
102
RTVSPropertyOp2
 70
     1
102
RTVSPropertyOp3
 70
     1
102
RTVSPropertyOp4
 70
     1
102
RTVSPropertyOp5
 70
     1
102
RTVSPropertyOp6
 70
     1
102
RTVSPropertyOp7
 70
     1
102
RTVSPropertyOp8
 70
     1
102
RTVSPropertyOp9
 70
     1
102
RTVSPropertyOp10
 70
     1
102
RTVSPropertyOp11
 70
     1
102
RTVSPropertyOp12
 70
     1
102
RTVSPropertyOp13
 70
     1
102
RTVSPropertyOp14
 70
     1
102
RTVSPropertyOp15
 70
     1
102
RTVSPropertyOp16
 70
     1
102
RTVSPropertyOp17
 70
     1
102
RTVSPropertyOp18
 70
     1
102
RTVSPropertyOp19
 70
     1
102
RTVSPropertyOp20
 70
     1
102
RTVSPropertyOp21
 70
     1
102
RTVSPropertyOp22
 70
     1
102
RTVSPropertyOp23
 70
     1
102
RTVSPropertyOp24
 70
     1
102
RTVSPropertyOp25
 70
     1
102
RTVSPropertyOp26
 70
     1
102
RTVSPropertyOp27
 70
     1
102
RTVSPropertyOp28
 70
     1
102
RTVSPropertyOp29
 70
     1
102
RTVSPropertyOp30
 70
     1
102
RTVSPropertyOp31
 70
     1
102
RTVSPropertyOp32
 70
     1
  0
XRECORD
  5
199D
102
{ACAD_REACTORS
330
199C
102
}
330
199C
100
AcDbXrecord
280
     1
102
RTVSPropertyOp0
 70
     1
102
RTVSPropertyOp1
 70
     1
102
RTVSPropertyOp2
 70
     1
102
RTVSPropertyOp3
 70
     1
102
RTVSPropertyOp4
 70
     1
102
RTVSPropertyOp5
 70
     1
102
RTVSPropertyOp6
 70
     1
102
RTVSPropertyOp7
 70
     1
102
RTVSPropertyOp8
 70
     1
102
RTVSPropertyOp9
 70
     1
102
RTVSPropertyOp10
 70
     1
102
RTVSPropertyOp11
 70
     1
102
RTVSPropertyOp12
 70
     1
102
RTVSPropertyOp13
 70
     1
102
RTVSPropertyOp14
 70
     1
102
RTVSPropertyOp15
 70
     1
102
RTVSPropertyOp16
 70
     1
102
RTVSPropertyOp17
 70
     1
102
RTVSPropertyOp18
 70
     1
102
RTVSPropertyOp19
 70
     1
102
RTVSPropertyOp20
 70
     1
102
RTVSPropertyOp21
 70
     1
102
RTVSPropertyOp22
 70
     1
102
RTVSPropertyOp23
 70
     1
102
RTVSPropertyOp24
 70
     1
102
RTVSPropertyOp25
 70
     1
102
RTVSPropertyOp26
 70
     1
102
RTVSPropertyOp27
 70
     1
102
RTVSPropertyOp28
 70
     1
102
RTVSPropertyOp29
 70
     1
102
RTVSPropertyOp30
 70
     1
102
RTVSPropertyOp31
 70
     1
102
RTVSPropertyOp32
 70
     1
  0
XRECORD
  5
199B
102
{ACAD_REACTORS
330
199A
102
}
330
199A
100
AcDbXrecord
280
     1
102
RTVSPropertyOp0
 70
     1
102
RTVSPropertyOp1
 70
     1
102
RTVSPropertyOp2
 70
     1
102
RTVSPropertyOp3
 70
     1
102
RTVSPropertyOp4
 70
     1
102
RTVSPropertyOp5
 70
     1
102
RTVSPropertyOp6
 70
     1
102
RTVSPropertyOp7
 70
     1
102
RTVSPropertyOp8
 70
     1
102
RTVSPropertyOp9
 70
     1
102
RTVSPropertyOp10
 70
     1
102
RTVSPropertyOp11
 70
     1
102
RTVSPropertyOp12
 70
     1
102
RTVSPropertyOp13
 70
     1
102
RTVSPropertyOp14
 70
     1
102
RTVSPropertyOp15
 70
     1
102
RTVSPropertyOp16
 70
     1
102
RTVSPropertyOp17
 70
     1
102
RTVSPropertyOp18
 70
     1
102
RTVSPropertyOp19
 70
     1
102
RTVSPropertyOp20
 70
     1
102
RTVSPropertyOp21
 70
     1
102
RTVSPropertyOp22
 70
     1
102
RTVSPropertyOp23
 70
     1
102
RTVSPropertyOp24
 70
     1
102
RTVSPropertyOp25
 70
     1
102
RTVSPropertyOp26
 70
     1
102
RTVSPropertyOp27
 70
     1
102
RTVSPropertyOp28
 70
     1
102
RTVSPropertyOp29
 70
     1
102
RTVSPropertyOp30
 70
     1
102
RTVSPropertyOp31
 70
     1
102
RTVSPropertyOp32
 70
     1
  0
XRECORD
  5
1997
102
{ACAD_REACTORS
330
1996
102
}
330
1996
100
AcDbXrecord
280
     1
102
RTVSPropertyOp0
 70
     1
102
RTVSPropertyOp1
 70
     1
102
RTVSPropertyOp2
 70
     1
102
RTVSPropertyOp3
 70
     1
102
RTVSPropertyOp4
 70
     1
102
RTVSPropertyOp5
 70
     1
102
RTVSPropertyOp6
 70
     1
102
RTVSPropertyOp7
 70
     1
102
RTVSPropertyOp8
 70
     1
102
RTVSPropertyOp9
 70
     1
102
RTVSPropertyOp10
 70
     1
102
RTVSPropertyOp11
 70
     1
102
RTVSPropertyOp12
 70
     1
102
RTVSPropertyOp13
 70
     1
102
RTVSPropertyOp14
 70
     1
102
RTVSPropertyOp15
 70
     1
102
RTVSPropertyOp16
 70
     1
102
RTVSPropertyOp17
 70
     1
102
RTVSPropertyOp18
 70
     1
102
RTVSPropertyOp19
 70
     1
102
RTVSPropertyOp20
 70
     1
102
RTVSPropertyOp21
 70
     1
102
RTVSPropertyOp22
 70
     1
102
RTVSPropertyOp23
 70
     1
102
RTVSPropertyOp24
 70
     1
102
RTVSPropertyOp25
 70
     1
102
RTVSPropertyOp26
 70
     1
102
RTVSPropertyOp27
 70
     1
102
RTVSPropertyOp28
 70
     1
102
RTVSPropertyOp29
 70
     1
102
RTVSPropertyOp30
 70
     1
102
RTVSPropertyOp31
 70
     1
102
RTVSPropertyOp32
 70
     1
  0
XRECORD
  5
19A5
102
{ACAD_REACTORS
330
19A4
102
}
330
19A4
100
AcDbXrecord
280
     1
102
RTVSPropertyOp0
 70
     1
102
RTVSPropertyOp1
 70
     1
102
RTVSPropertyOp2
 70
     1
102
RTVSPropertyOp3
 70
     1
102
RTVSPropertyOp4
 70
     1
102
RTVSPropertyOp5
 70
     1
102
RTVSPropertyOp6
 70
     1
102
RTVSPropertyOp7
 70
     1
102
RTVSPropertyOp8
 70
     1
102
RTVSPropertyOp9
 70
     1
102
RTVSPropertyOp10
 70
     1
102
RTVSPropertyOp11
 70
     1
102
RTVSPropertyOp12
 70
     1
102
RTVSPropertyOp13
 70
     1
102
RTVSPropertyOp14
 70
     1
102
RTVSPropertyOp15
 70
     1
102
RTVSPropertyOp16
 70
     1
102
RTVSPropertyOp17
 70
     1
102
RTVSPropertyOp18
 70
     1
102
RTVSPropertyOp19
 70
     1
102
RTVSPropertyOp20
 70
     1
102
RTVSPropertyOp21
 70
     1
102
RTVSPropertyOp22
 70
     1
102
RTVSPropertyOp23
 70
     1
102
RTVSPropertyOp24
 70
     1
102
RTVSPropertyOp25
 70
     1
102
RTVSPropertyOp26
 70
     1
102
RTVSPropertyOp27
 70
     1
102
RTVSPropertyOp28
 70
     1
102
RTVSPropertyOp29
 70
     1
102
RTVSPropertyOp30
 70
     1
102
RTVSPropertyOp31
 70
     1
102
RTVSPropertyOp32
 70
     1
  0
XRECORD
  5
19AD
102
{ACAD_REACTORS
330
19AC
102
}
330
19AC
100
AcDbXrecord
280
     1
102
RTVSPropertyOp0
 70
     1
102
RTVSPropertyOp1
 70
     1
102
RTVSPropertyOp2
 70
     1
102
RTVSPropertyOp3
 70
     1
102
RTVSPropertyOp4
 70
     1
102
RTVSPropertyOp5
 70
     1
102
RTVSPropertyOp6
 70
     1
102
RTVSPropertyOp7
 70
     1
102
RTVSPropertyOp8
 70
     1
102
RTVSPropertyOp9
 70
     1
102
RTVSPropertyOp10
 70
     1
102
RTVSPropertyOp11
 70
     1
102
RTVSPropertyOp12
 70
     1
102
RTVSPropertyOp13
 70
     1
102
RTVSPropertyOp14
 70
     1
102
RTVSPropertyOp15
 70
     1
102
RTVSPropertyOp16
 70
     1
102
RTVSPropertyOp17
 70
     1
102
RTVSPropertyOp18
 70
     1
102
RTVSPropertyOp19
 70
     1
102
RTVSPropertyOp20
 70
     1
102
RTVSPropertyOp21
 70
     1
102
RTVSPropertyOp22
 70
     1
102
RTVSPropertyOp23
 70
     1
102
RTVSPropertyOp24
 70
     1
102
RTVSPropertyOp25
 70
     1
102
RTVSPropertyOp26
 70
     1
102
RTVSPropertyOp27
 70
     1
102
RTVSPropertyOp28
 70
     1
102
RTVSPropertyOp29
 70
     1
102
RTVSPropertyOp30
 70
     1
102
RTVSPropertyOp31
 70
     1
102
RTVSPropertyOp32
 70
     1
  0
XRECORD
  5
199F
102
{ACAD_REACTORS
330
199E
102
}
330
199E
100
AcDbXrecord
280
     1
102
RTVSPropertyOp0
 70
     1
102
RTVSPropertyOp1
 70
     1
102
RTVSPropertyOp2
 70
     1
102
RTVSPropertyOp3
 70
     1
102
RTVSPropertyOp4
 70
     1
102
RTVSPropertyOp5
 70
     1
102
RTVSPropertyOp6
 70
     1
102
RTVSPropertyOp7
 70
     1
102
RTVSPropertyOp8
 70
     1
102
RTVSPropertyOp9
 70
     1
102
RTVSPropertyOp10
 70
     1
102
RTVSPropertyOp11
 70
     1
102
RTVSPropertyOp12
 70
     1
102
RTVSPropertyOp13
 70
     1
102
RTVSPropertyOp14
 70
     1
102
RTVSPropertyOp15
 70
     1
102
RTVSPropertyOp16
 70
     1
102
RTVSPropertyOp17
 70
     1
102
RTVSPropertyOp18
 70
     1
102
RTVSPropertyOp19
 70
     1
102
RTVSPropertyOp20
 70
     1
102
RTVSPropertyOp21
 70
     1
102
RTVSPropertyOp22
 70
     1
102
RTVSPropertyOp23
 70
     1
102
RTVSPropertyOp24
 70
     1
102
RTVSPropertyOp25
 70
     1
102
RTVSPropertyOp26
 70
     1
102
RTVSPropertyOp27
 70
     1
102
RTVSPropertyOp28
 70
     1
102
RTVSPropertyOp29
 70
     1
102
RTVSPropertyOp30
 70
     1
102
RTVSPropertyOp31
 70
     1
102
RTVSPropertyOp32
 70
     1
  0
XRECORD
  5
19A3
102
{ACAD_REACTORS
330
19A2
102
}
330
19A2
100
AcDbXrecord
280
     1
102
RTVSPropertyOp0
 70
     1
102
RTVSPropertyOp1
 70
     1
102
RTVSPropertyOp2
 70
     1
102
RTVSPropertyOp3
 70
     1
102
RTVSPropertyOp4
 70
     1
102
RTVSPropertyOp5
 70
     1
102
RTVSPropertyOp6
 70
     1
102
RTVSPropertyOp7
 70
     1
102
RTVSPropertyOp8
 70
     1
102
RTVSPropertyOp9
 70
     1
102
RTVSPropertyOp10
 70
     1
102
RTVSPropertyOp11
 70
     1
102
RTVSPropertyOp12
 70
     1
102
RTVSPropertyOp13
 70
     1
102
RTVSPropertyOp14
 70
     1
102
RTVSPropertyOp15
 70
     1
102
RTVSPropertyOp16
 70
     1
102
RTVSPropertyOp17
 70
     1
102
RTVSPropertyOp18
 70
     1
102
RTVSPropertyOp19
 70
     1
102
RTVSPropertyOp20
 70
     1
102
RTVSPropertyOp21
 70
     1
102
RTVSPropertyOp22
 70
     1
102
RTVSPropertyOp23
 70
     1
102
RTVSPropertyOp24
 70
     1
102
RTVSPropertyOp25
 70
     1
102
RTVSPropertyOp26
 70
     1
102
RTVSPropertyOp27
 70
     1
102
RTVSPropertyOp28
 70
     1
102
RTVSPropertyOp29
 70
     1
102
RTVSPropertyOp30
 70
     1
102
RTVSPropertyOp31
 70
     1
102
RTVSPropertyOp32
 70
     1
  0
XRECORD
  5
19B3
102
{ACAD_REACTORS
330
19B2
102
}
330
19B2
100
AcDbXrecord
280
     1
102
RTVSPropertyOp0
 70
     0
102
RTVSPropertyOp1
 70
     0
102
RTVSPropertyOp2
 70
     0
102
RTVSPropertyOp3
 70
     0
102
RTVSPropertyOp4
 70
     0
102
RTVSPropertyOp5
 70
     0
102
RTVSPropertyOp6
 70
     0
102
RTVSPropertyOp7
 70
     0
102
RTVSPropertyOp8
 70
     0
102
RTVSPropertyOp9
 70
     0
102
RTVSPropertyOp10
 70
     0
102
RTVSPropertyOp11
 70
     0
102
RTVSPropertyOp12
 70
     0
102
RTVSPropertyOp13
 70
     0
102
RTVSPropertyOp14
 70
     2
102
RTVSPropertyOp15
 70
     0
102
RTVSPropertyOp16
 70
     0
102
RTVSPropertyOp17
 70
     0
102
RTVSPropertyOp18
 70
     0
102
RTVSPropertyOp19
 70
     0
102
RTVSPropertyOp20
 70
     0
102
RTVSPropertyOp21
 70
     0
102
RTVSPropertyOp22
 70
     0
102
RTVSPropertyOp23
 70
     0
102
RTVSPropertyOp24
 70
     0
102
RTVSPropertyOp25
 70
     0
102
RTVSPropertyOp26
 70
     0
102
RTVSPropertyOp27
 70
     0
102
RTVSPropertyOp28
 70
     1
102
RTVSPropertyOp29
 70
     1
102
RTVSPropertyOp30
 70
     1
102
RTVSPropertyOp31
 70
     1
102
RTVSPropertyOp32
 70
     1
  0
XRECORD
  5
19AB
102
{ACAD_REACTORS
330
19AA
102
}
330
19AA
100
AcDbXrecord
280
     1
102
RTVSPropertyOp0
 70
     1
102
RTVSPropertyOp1
 70
     1
102
RTVSPropertyOp2
 70
     1
102
RTVSPropertyOp3
 70
     1
102
RTVSPropertyOp4
 70
     1
102
RTVSPropertyOp5
 70
     1
102
RTVSPropertyOp6
 70
     1
102
RTVSPropertyOp7
 70
     1
102
RTVSPropertyOp8
 70
     1
102
RTVSPropertyOp9
 70
     1
102
RTVSPropertyOp10
 70
     1
102
RTVSPropertyOp11
 70
     1
102
RTVSPropertyOp12
 70
     1
102
RTVSPropertyOp13
 70
     1
102
RTVSPropertyOp14
 70
     1
102
RTVSPropertyOp15
 70
     1
102
RTVSPropertyOp16
 70
     1
102
RTVSPropertyOp17
 70
     1
102
RTVSPropertyOp18
 70
     1
102
RTVSPropertyOp19
 70
     1
102
RTVSPropertyOp20
 70
     1
102
RTVSPropertyOp21
 70
     1
102
RTVSPropertyOp22
 70
     1
102
RTVSPropertyOp23
 70
     1
102
RTVSPropertyOp24
 70
     1
102
RTVSPropertyOp25
 70
     1
102
RTVSPropertyOp26
 70
     1
102
RTVSPropertyOp27
 70
     1
102
RTVSPropertyOp28
 70
     1
102
RTVSPropertyOp29
 70
     1
102
RTVSPropertyOp30
 70
     1
102
RTVSPropertyOp31
 70
     1
102
RTVSPropertyOp32
 70
     1
  0
XRECORD
  5
198F
102
{ACAD_REACTORS
330
198E
102
}
330
198E
100
AcDbXrecord
280
     1
102
RTVSPropertyOp0
 70
     1
102
RTVSPropertyOp1
 70
     1
102
RTVSPropertyOp2
 70
     1
102
RTVSPropertyOp3
 70
     1
102
RTVSPropertyOp4
 70
     1
102
RTVSPropertyOp5
 70
     1
102
RTVSPropertyOp6
 70
     1
102
RTVSPropertyOp7
 70
     1
102
RTVSPropertyOp8
 70
     1
102
RTVSPropertyOp9
 70
     1
102
RTVSPropertyOp10
 70
     1
102
RTVSPropertyOp11
 70
     1
102
RTVSPropertyOp12
 70
     1
102
RTVSPropertyOp13
 70
     1
102
RTVSPropertyOp14
 70
     1
102
RTVSPropertyOp15
 70
     1
102
RTVSPropertyOp16
 70
     1
102
RTVSPropertyOp17
 70
     1
102
RTVSPropertyOp18
 70
     1
102
RTVSPropertyOp19
 70
     1
102
RTVSPropertyOp20
 70
     1
102
RTVSPropertyOp21
 70
     1
102
RTVSPropertyOp22
 70
     1
102
RTVSPropertyOp23
 70
     1
102
RTVSPropertyOp24
 70
     1
102
RTVSPropertyOp25
 70
     1
102
RTVSPropertyOp26
 70
     1
102
RTVSPropertyOp27
 70
     1
102
RTVSPropertyOp28
 70
     1
102
RTVSPropertyOp29
 70
     1
102
RTVSPropertyOp30
 70
     1
102
RTVSPropertyOp31
 70
     1
102
RTVSPropertyOp32
 70
     1
  0
XRECORD
  5
1991
102
{ACAD_REACTORS
330
1990
102
}
330
1990
100
AcDbXrecord
280
     1
102
RTVSPropertyOp0
 70
     1
102
RTVSPropertyOp1
 70
     1
102
RTVSPropertyOp2
 70
     1
102
RTVSPropertyOp3
 70
     1
102
RTVSPropertyOp4
 70
     1
102
RTVSPropertyOp5
 70
     1
102
RTVSPropertyOp6
 70
     1
102
RTVSPropertyOp7
 70
     1
102
RTVSPropertyOp8
 70
     1
102
RTVSPropertyOp9
 70
     1
102
RTVSPropertyOp10
 70
     1
102
RTVSPropertyOp11
 70
     1
102
RTVSPropertyOp12
 70
     1
102
RTVSPropertyOp13
 70
     1
102
RTVSPropertyOp14
 70
     1
102
RTVSPropertyOp15
 70
     1
102
RTVSPropertyOp16
 70
     1
102
RTVSPropertyOp17
 70
     1
102
RTVSPropertyOp18
 70
     1
102
RTVSPropertyOp19
 70
     1
102
RTVSPropertyOp20
 70
     1
102
RTVSPropertyOp21
 70
     1
102
RTVSPropertyOp22
 70
     1
102
RTVSPropertyOp23
 70
     1
102
RTVSPropertyOp24
 70
     1
102
RTVSPropertyOp25
 70
     1
102
RTVSPropertyOp26
 70
     1
102
RTVSPropertyOp27
 70
     1
102
RTVSPropertyOp28
 70
     1
102
RTVSPropertyOp29
 70
     1
102
RTVSPropertyOp30
 70
     1
102
RTVSPropertyOp31
 70
     1
102
RTVSPropertyOp32
 70
     1
  0
XRECORD
  5
1993
102
{ACAD_REACTORS
330
1992
102
}
330
1992
100
AcDbXrecord
280
     1
102
RTVSPropertyOp0
 70
     1
102
RTVSPropertyOp1
 70
     1
102
RTVSPropertyOp2
 70
     1
102
RTVSPropertyOp3
 70
     1
102
RTVSPropertyOp4
 70
     1
102
RTVSPropertyOp5
 70
     1
102
RTVSPropertyOp6
 70
     1
102
RTVSPropertyOp7
 70
     1
102
RTVSPropertyOp8
 70
     1
102
RTVSPropertyOp9
 70
     1
102
RTVSPropertyOp10
 70
     1
102
RTVSPropertyOp11
 70
     1
102
RTVSPropertyOp12
 70
     1
102
RTVSPropertyOp13
 70
     1
102
RTVSPropertyOp14
 70
     1
102
RTVSPropertyOp15
 70
     1
102
RTVSPropertyOp16
 70
     1
102
RTVSPropertyOp17
 70
     1
102
RTVSPropertyOp18
 70
     1
102
RTVSPropertyOp19
 70
     1
102
RTVSPropertyOp20
 70
     1
102
RTVSPropertyOp21
 70
     1
102
RTVSPropertyOp22
 70
     1
102
RTVSPropertyOp23
 70
     1
102
RTVSPropertyOp24
 70
     1
102
RTVSPropertyOp25
 70
     1
102
RTVSPropertyOp26
 70
     1
102
RTVSPropertyOp27
 70
     1
102
RTVSPropertyOp28
 70
     1
102
RTVSPropertyOp29
 70
     1
102
RTVSPropertyOp30
 70
     1
102
RTVSPropertyOp31
 70
     1
102
RTVSPropertyOp32
 70
     1
  0
XRECORD
  5
1995
102
{ACAD_REACTORS
330
1994
102
}
330
1994
100
AcDbXrecord
280
     1
102
RTVSPropertyOp0
 70
     1
102
RTVSPropertyOp1
 70
     1
102
RTVSPropertyOp2
 70
     1
102
RTVSPropertyOp3
 70
     1
102
RTVSPropertyOp4
 70
     1
102
RTVSPropertyOp5
 70
     1
102
RTVSPropertyOp6
 70
     1
102
RTVSPropertyOp7
 70
     1
102
RTVSPropertyOp8
 70
     1
102
RTVSPropertyOp9
 70
     1
102
RTVSPropertyOp10
 70
     1
102
RTVSPropertyOp11
 70
     1
102
RTVSPropertyOp12
 70
     1
102
RTVSPropertyOp13
 70
     1
102
RTVSPropertyOp14
 70
     1
102
RTVSPropertyOp15
 70
     1
102
RTVSPropertyOp16
 70
     1
102
RTVSPropertyOp17
 70
     1
102
RTVSPropertyOp18
 70
     1
102
RTVSPropertyOp19
 70
     1
102
RTVSPropertyOp20
 70
     1
102
RTVSPropertyOp21
 70
     1
102
RTVSPropertyOp22
 70
     1
102
RTVSPropertyOp23
 70
     1
102
RTVSPropertyOp24
 70
     1
102
RTVSPropertyOp25
 70
     1
102
RTVSPropertyOp26
 70
     1
102
RTVSPropertyOp27
 70
     1
102
RTVSPropertyOp28
 70
     1
102
RTVSPropertyOp29
 70
     1
102
RTVSPropertyOp30
 70
     1
102
RTVSPropertyOp31
 70
     1
102
RTVSPropertyOp32
 70
     1
  0
XRECORD
  5
19B7
102
{ACAD_REACTORS
330
19B6
102
}
330
19B6
100
AcDbXrecord
280
     1
102
RTVSPropertyOp0
 70
     1
102
RTVSPropertyOp1
 70
     1
102
RTVSPropertyOp2
 70
     1
102
RTVSPropertyOp3
 70
     1
102
RTVSPropertyOp4
 70
     1
102
RTVSPropertyOp5
 70
     1
102
RTVSPropertyOp6
 70
     1
102
RTVSPropertyOp7
 70
     1
102
RTVSPropertyOp8
 70
     1
102
RTVSPropertyOp9
 70
     1
102
RTVSPropertyOp10
 70
     1
102
RTVSPropertyOp11
 70
     1
102
RTVSPropertyOp12
 70
     1
102
RTVSPropertyOp13
 70
     1
102
RTVSPropertyOp14
 70
     1
102
RTVSPropertyOp15
 70
     1
102
RTVSPropertyOp16
 70
     1
102
RTVSPropertyOp17
 70
     1
102
RTVSPropertyOp18
 70
     1
102
RTVSPropertyOp19
 70
     1
102
RTVSPropertyOp20
 70
     1
102
RTVSPropertyOp21
 70
     1
102
RTVSPropertyOp22
 70
     1
102
RTVSPropertyOp23
 70
     1
102
RTVSPropertyOp24
 70
     1
102
RTVSPropertyOp25
 70
     1
102
RTVSPropertyOp26
 70
     1
102
RTVSPropertyOp27
 70
     1
102
RTVSPropertyOp28
 70
     1
102
RTVSPropertyOp29
 70
     1
102
RTVSPropertyOp30
 70
     1
102
RTVSPropertyOp31
 70
     1
102
RTVSPropertyOp32
 70
     1
  0
XRECORD
  5
19AF
102
{ACAD_REACTORS
330
19AE
102
}
330
19AE
100
AcDbXrecord
280
     1
102
RTVSPropertyOp0
 70
     0
102
RTVSPropertyOp1
 70
     0
102
RTVSPropertyOp2
 70
     0
102
RTVSPropertyOp3
 70
     0
102
RTVSPropertyOp4
 70
     0
102
RTVSPropertyOp5
 70
     0
102
RTVSPropertyOp6
 70
     0
102
RTVSPropertyOp7
 70
     0
102
RTVSPropertyOp8
 70
     0
102
RTVSPropertyOp9
 70
     0
102
RTVSPropertyOp10
 70
     0
102
RTVSPropertyOp11
 70
     0
102
RTVSPropertyOp12
 70
     0
102
RTVSPropertyOp13
 70
     0
102
RTVSPropertyOp14
 70
     2
102
RTVSPropertyOp15
 70
     0
102
RTVSPropertyOp16
 70
     0
102
RTVSPropertyOp17
 70
     0
102
RTVSPropertyOp18
 70
     0
102
RTVSPropertyOp19
 70
     0
102
RTVSPropertyOp20
 70
     0
102
RTVSPropertyOp21
 70
     0
102
RTVSPropertyOp22
 70
     0
102
RTVSPropertyOp23
 70
     0
102
RTVSPropertyOp24
 70
     0
102
RTVSPropertyOp25
 70
     0
102
RTVSPropertyOp26
 70
     0
102
RTVSPropertyOp27
 70
     0
102
RTVSPropertyOp28
 70
     1
102
RTVSPropertyOp29
 70
     1
102
RTVSPropertyOp30
 70
     1
102
RTVSPropertyOp31
 70
     1
102
RTVSPropertyOp32
 70
     1
  0
XRECORD
  5
19A9
102
{ACAD_REACTORS
330
19A8
102
}
330
19A8
100
AcDbXrecord
280
     1
102
RTVSPropertyOp0
 70
     1
102
RTVSPropertyOp1
 70
     1
102
RTVSPropertyOp2
 70
     1
102
RTVSPropertyOp3
 70
     1
102
RTVSPropertyOp4
 70
     1
102
RTVSPropertyOp5
 70
     1
102
RTVSPropertyOp6
 70
     1
102
RTVSPropertyOp7
 70
     1
102
RTVSPropertyOp8
 70
     1
102
RTVSPropertyOp9
 70
     1
102
RTVSPropertyOp10
 70
     1
102
RTVSPropertyOp11
 70
     1
102
RTVSPropertyOp12
 70
     1
102
RTVSPropertyOp13
 70
     1
102
RTVSPropertyOp14
 70
     1
102
RTVSPropertyOp15
 70
     1
102
RTVSPropertyOp16
 70
     1
102
RTVSPropertyOp17
 70
     1
102
RTVSPropertyOp18
 70
     1
102
RTVSPropertyOp19
 70
     1
102
RTVSPropertyOp20
 70
     1
102
RTVSPropertyOp21
 70
     1
102
RTVSPropertyOp22
 70
     1
102
RTVSPropertyOp23
 70
     1
102
RTVSPropertyOp24
 70
     1
102
RTVSPropertyOp25
 70
     1
102
RTVSPropertyOp26
 70
     1
102
RTVSPropertyOp27
 70
     1
102
RTVSPropertyOp28
 70
     1
102
RTVSPropertyOp29
 70
     1
102
RTVSPropertyOp30
 70
     1
102
RTVSPropertyOp31
 70
     1
102
RTVSPropertyOp32
 70
     1
  0
XRECORD
  5
19B1
102
{ACAD_REACTORS
330
19B0
102
}
330
19B0
100
AcDbXrecord
280
     1
102
RTVSPropertyOp0
 70
     0
102
RTVSPropertyOp1
 70
     0
102
RTVSPropertyOp2
 70
     0
102
RTVSPropertyOp3
 70
     0
102
RTVSPropertyOp4
 70
     0
102
RTVSPropertyOp5
 70
     0
102
RTVSPropertyOp6
 70
     0
102
RTVSPropertyOp7
 70
     0
102
RTVSPropertyOp8
 70
     0
102
RTVSPropertyOp9
 70
     0
102
RTVSPropertyOp10
 70
     0
102
RTVSPropertyOp11
 70
     0
102
RTVSPropertyOp12
 70
     0
102
RTVSPropertyOp13
 70
     0
102
RTVSPropertyOp14
 70
     2
102
RTVSPropertyOp15
 70
     0
102
RTVSPropertyOp16
 70
     0
102
RTVSPropertyOp17
 70
     0
102
RTVSPropertyOp18
 70
     0
102
RTVSPropertyOp19
 70
     0
102
RTVSPropertyOp20
 70
     0
102
RTVSPropertyOp21
 70
     0
102
RTVSPropertyOp22
 70
     0
102
RTVSPropertyOp23
 70
     0
102
RTVSPropertyOp24
 70
     0
102
RTVSPropertyOp25
 70
     0
102
RTVSPropertyOp26
 70
     0
102
RTVSPropertyOp27
 70
     0
102
RTVSPropertyOp28
 70
     1
102
RTVSPropertyOp29
 70
     1
102
RTVSPropertyOp30
 70
     1
102
RTVSPropertyOp31
 70
     1
102
RTVSPropertyOp32
 70
     1
  0
XRECORD
  5
19A1
102
{ACAD_REACTORS
330
19A0
102
}
330
19A0
100
AcDbXrecord
280
     1
102
RTVSPropertyOp0
 70
     1
102
RTVSPropertyOp1
 70
     1
102
RTVSPropertyOp2
 70
     1
102
RTVSPropertyOp3
 70
     1
102
RTVSPropertyOp4
 70
     1
102
RTVSPropertyOp5
 70
     1
102
RTVSPropertyOp6
 70
     1
102
RTVSPropertyOp7
 70
     1
102
RTVSPropertyOp8
 70
     1
102
RTVSPropertyOp9
 70
     1
102
RTVSPropertyOp10
 70
     1
102
RTVSPropertyOp11
 70
     1
102
RTVSPropertyOp12
 70
     1
102
RTVSPropertyOp13
 70
     1
102
RTVSPropertyOp14
 70
     1
102
RTVSPropertyOp15
 70
     1
102
RTVSPropertyOp16
 70
     1
102
RTVSPropertyOp17
 70
     1
102
RTVSPropertyOp18
 70
     1
102
RTVSPropertyOp19
 70
     1
102
RTVSPropertyOp20
 70
     1
102
RTVSPropertyOp21
 70
     1
102
RTVSPropertyOp22
 70
     1
102
RTVSPropertyOp23
 70
     1
102
RTVSPropertyOp24
 70
     1
102
RTVSPropertyOp25
 70
     1
102
RTVSPropertyOp26
 70
     1
102
RTVSPropertyOp27
 70
     1
102
RTVSPropertyOp28
 70
     1
102
RTVSPropertyOp29
 70
     1
102
RTVSPropertyOp30
 70
     1
102
RTVSPropertyOp31
 70
     1
102
RTVSPropertyOp32
 70
     1
  0
XRECORD
  5
19C1
102
{ACAD_REACTORS
330
19C0
102
}
330
19C0
100
AcDbXrecord
280
     1
102
RTVSPropertyOp0
 70
     1
102
RTVSPropertyOp1
 70
     1
102
RTVSPropertyOp2
 70
     1
102
RTVSPropertyOp3
 70
     1
102
RTVSPropertyOp4
 70
     1
102
RTVSPropertyOp5
 70
     1
102
RTVSPropertyOp6
 70
     1
102
RTVSPropertyOp7
 70
     1
102
RTVSPropertyOp8
 70
     1
102
RTVSPropertyOp9
 70
     1
102
RTVSPropertyOp10
 70
     1
102
RTVSPropertyOp11
 70
     1
102
RTVSPropertyOp12
 70
     1
102
RTVSPropertyOp13
 70
     1
102
RTVSPropertyOp14
 70
     1
102
RTVSPropertyOp15
 70
     1
102
RTVSPropertyOp16
 70
     1
102
RTVSPropertyOp17
 70
     1
102
RTVSPropertyOp18
 70
     1
102
RTVSPropertyOp19
 70
     1
102
RTVSPropertyOp20
 70
     1
102
RTVSPropertyOp21
 70
     1
102
RTVSPropertyOp22
 70
     1
102
RTVSPropertyOp23
 70
     1
102
RTVSPropertyOp24
 70
     1
102
RTVSPropertyOp25
 70
     1
102
RTVSPropertyOp26
 70
     1
102
RTVSPropertyOp27
 70
     1
102
RTVSPropertyOp28
 70
     1
102
RTVSPropertyOp29
 70
     1
102
RTVSPropertyOp30
 70
     1
102
RTVSPropertyOp31
 70
     1
102
RTVSPropertyOp32
 70
     1
  0
XRECORD
  5
19BF
102
{ACAD_REACTORS
330
19BE
102
}
330
19BE
100
AcDbXrecord
280
     1
102
RTVSPropertyOp0
 70
     1
102
RTVSPropertyOp1
 70
     1
102
RTVSPropertyOp2
 70
     1
102
RTVSPropertyOp3
 70
     1
102
RTVSPropertyOp4
 70
     1
102
RTVSPropertyOp5
 70
     1
102
RTVSPropertyOp6
 70
     1
102
RTVSPropertyOp7
 70
     1
102
RTVSPropertyOp8
 70
     1
102
RTVSPropertyOp9
 70
     1
102
RTVSPropertyOp10
 70
     1
102
RTVSPropertyOp11
 70
     1
102
RTVSPropertyOp12
 70
     1
102
RTVSPropertyOp13
 70
     1
102
RTVSPropertyOp14
 70
     1
102
RTVSPropertyOp15
 70
     1
102
RTVSPropertyOp16
 70
     1
102
RTVSPropertyOp17
 70
     1
102
RTVSPropertyOp18
 70
     1
102
RTVSPropertyOp19
 70
     1
102
RTVSPropertyOp20
 70
     1
102
RTVSPropertyOp21
 70
     1
102
RTVSPropertyOp22
 70
     1
102
RTVSPropertyOp23
 70
     1
102
RTVSPropertyOp24
 70
     1
102
RTVSPropertyOp25
 70
     1
102
RTVSPropertyOp26
 70
     1
102
RTVSPropertyOp27
 70
     1
102
RTVSPropertyOp28
 70
     1
102
RTVSPropertyOp29
 70
     1
102
RTVSPropertyOp30
 70
     1
102
RTVSPropertyOp31
 70
     1
102
RTVSPropertyOp32
 70
     1
  0
XRECORD
  5
19B9
102
{ACAD_REACTORS
330
19B8
102
}
330
19B8
100
AcDbXrecord
280
     1
102
RTVSPropertyOp0
 70
     1
102
RTVSPropertyOp1
 70
     1
102
RTVSPropertyOp2
 70
     1
102
RTVSPropertyOp3
 70
     1
102
RTVSPropertyOp4
 70
     1
102
RTVSPropertyOp5
 70
     1
102
RTVSPropertyOp6
 70
     1
102
RTVSPropertyOp7
 70
     1
102
RTVSPropertyOp8
 70
     1
102
RTVSPropertyOp9
 70
     1
102
RTVSPropertyOp10
 70
     1
102
RTVSPropertyOp11
 70
     1
102
RTVSPropertyOp12
 70
     1
102
RTVSPropertyOp13
 70
     1
102
RTVSPropertyOp14
 70
     1
102
RTVSPropertyOp15
 70
     1
102
RTVSPropertyOp16
 70
     1
102
RTVSPropertyOp17
 70
     1
102
RTVSPropertyOp18
 70
     1
102
RTVSPropertyOp19
 70
     1
102
RTVSPropertyOp20
 70
     1
102
RTVSPropertyOp21
 70
     1
102
RTVSPropertyOp22
 70
     1
102
RTVSPropertyOp23
 70
     1
102
RTVSPropertyOp24
 70
     1
102
RTVSPropertyOp25
 70
     1
102
RTVSPropertyOp26
 70
     1
102
RTVSPropertyOp27
 70
     1
102
RTVSPropertyOp28
 70
     1
102
RTVSPropertyOp29
 70
     1
102
RTVSPropertyOp30
 70
     1
102
RTVSPropertyOp31
 70
     1
102
RTVSPropertyOp32
 70
     1
  0
XRECORD
  5
19BB
102
{ACAD_REACTORS
330
19BA
102
}
330
19BA
100
AcDbXrecord
280
     1
102
RTVSPropertyOp0
 70
     1
102
RTVSPropertyOp1
 70
     1
102
RTVSPropertyOp2
 70
     1
102
RTVSPropertyOp3
 70
     1
102
RTVSPropertyOp4
 70
     1
102
RTVSPropertyOp5
 70
     1
102
RTVSPropertyOp6
 70
     1
102
RTVSPropertyOp7
 70
     1
102
RTVSPropertyOp8
 70
     1
102
RTVSPropertyOp9
 70
     1
102
RTVSPropertyOp10
 70
     1
102
RTVSPropertyOp11
 70
     1
102
RTVSPropertyOp12
 70
     1
102
RTVSPropertyOp13
 70
     1
102
RTVSPropertyOp14
 70
     1
102
RTVSPropertyOp15
 70
     1
102
RTVSPropertyOp16
 70
     1
102
RTVSPropertyOp17
 70
     1
102
RTVSPropertyOp18
 70
     1
102
RTVSPropertyOp19
 70
     1
102
RTVSPropertyOp20
 70
     1
102
RTVSPropertyOp21
 70
     1
102
RTVSPropertyOp22
 70
     1
102
RTVSPropertyOp23
 70
     1
102
RTVSPropertyOp24
 70
     1
102
RTVSPropertyOp25
 70
     1
102
RTVSPropertyOp26
 70
     1
102
RTVSPropertyOp27
 70
     1
102
RTVSPropertyOp28
 70
     1
102
RTVSPropertyOp29
 70
     1
102
RTVSPropertyOp30
 70
     1
102
RTVSPropertyOp31
 70
     1
102
RTVSPropertyOp32
 70
     1
  0
XRECORD
  5
19A7
102
{ACAD_REACTORS
330
19A6
102
}
330
19A6
100
AcDbXrecord
280
     1
102
RTVSPropertyOp0
 70
     1
102
RTVSPropertyOp1
 70
     1
102
RTVSPropertyOp2
 70
     1
102
RTVSPropertyOp3
 70
     1
102
RTVSPropertyOp4
 70
     1
102
RTVSPropertyOp5
 70
     1
102
RTVSPropertyOp6
 70
     1
102
RTVSPropertyOp7
 70
     1
102
RTVSPropertyOp8
 70
     1
102
RTVSPropertyOp9
 70
     1
102
RTVSPropertyOp10
 70
     1
102
RTVSPropertyOp11
 70
     1
102
RTVSPropertyOp12
 70
     1
102
RTVSPropertyOp13
 70
     1
102
RTVSPropertyOp14
 70
     1
102
RTVSPropertyOp15
 70
     1
102
RTVSPropertyOp16
 70
     1
102
RTVSPropertyOp17
 70
     1
102
RTVSPropertyOp18
 70
     1
102
RTVSPropertyOp19
 70
     1
102
RTVSPropertyOp20
 70
     1
102
RTVSPropertyOp21
 70
     1
102
RTVSPropertyOp22
 70
     1
102
RTVSPropertyOp23
 70
     1
102
RTVSPropertyOp24
 70
     1
102
RTVSPropertyOp25
 70
     1
102
RTVSPropertyOp26
 70
     1
102
RTVSPropertyOp27
 70
     1
102
RTVSPropertyOp28
 70
     1
102
RTVSPropertyOp29
 70
     1
102
RTVSPropertyOp30
 70
     1
102
RTVSPropertyOp31
 70
     1
102
RTVSPropertyOp32
 70
     1
  0
XRECORD
  5
19B5
102
{ACAD_REACTORS
330
19B4
102
}
330
19B4
100
AcDbXrecord
280
     1
102
RTVSPropertyOp0
 70
     1
102
RTVSPropertyOp1
 70
     1
102
RTVSPropertyOp2
 70
     1
102
RTVSPropertyOp3
 70
     1
102
RTVSPropertyOp4
 70
     1
102
RTVSPropertyOp5
 70
     1
102
RTVSPropertyOp6
 70
     1
102
RTVSPropertyOp7
 70
     1
102
RTVSPropertyOp8
 70
     1
102
RTVSPropertyOp9
 70
     1
102
RTVSPropertyOp10
 70
     1
102
RTVSPropertyOp11
 70
     1
102
RTVSPropertyOp12
 70
     1
102
RTVSPropertyOp13
 70
     1
102
RTVSPropertyOp14
 70
     1
102
RTVSPropertyOp15
 70
     1
102
RTVSPropertyOp16
 70
     1
102
RTVSPropertyOp17
 70
     1
102
RTVSPropertyOp18
 70
     1
102
RTVSPropertyOp19
 70
     1
102
RTVSPropertyOp20
 70
     1
102
RTVSPropertyOp21
 70
     1
102
RTVSPropertyOp22
 70
     1
102
RTVSPropertyOp23
 70
     1
102
RTVSPropertyOp24
 70
     1
102
RTVSPropertyOp25
 70
     1
102
RTVSPropertyOp26
 70
     1
102
RTVSPropertyOp27
 70
     1
102
RTVSPropertyOp28
 70
     1
102
RTVSPropertyOp29
 70
     1
102
RTVSPropertyOp30
 70
     1
102
RTVSPropertyOp31
 70
     1
102
RTVSPropertyOp32
 70
     1
  0
XRECORD
  5
19BD
102
{ACAD_REACTORS
330
19BC
102
}
330
19BC
100
AcDbXrecord
280
     1
102
RTVSPropertyOp0
 70
     1
102
RTVSPropertyOp1
 70
     1
102
RTVSPropertyOp2
 70
     1
102
RTVSPropertyOp3
 70
     1
102
RTVSPropertyOp4
 70
     1
102
RTVSPropertyOp5
 70
     1
102
RTVSPropertyOp6
 70
     1
102
RTVSPropertyOp7
 70
     1
102
RTVSPropertyOp8
 70
     1
102
RTVSPropertyOp9
 70
     1
102
RTVSPropertyOp10
 70
     1
102
RTVSPropertyOp11
 70
     1
102
RTVSPropertyOp12
 70
     1
102
RTVSPropertyOp13
 70
     1
102
RTVSPropertyOp14
 70
     1
102
RTVSPropertyOp15
 70
     1
102
RTVSPropertyOp16
 70
     1
102
RTVSPropertyOp17
 70
     1
102
RTVSPropertyOp18
 70
     1
102
RTVSPropertyOp19
 70
     1
102
RTVSPropertyOp20
 70
     1
102
RTVSPropertyOp21
 70
     1
102
RTVSPropertyOp22
 70
     1
102
RTVSPropertyOp23
 70
     1
102
RTVSPropertyOp24
 70
     1
102
RTVSPropertyOp25
 70
     1
102
RTVSPropertyOp26
 70
     1
102
RTVSPropertyOp27
 70
     1
102
RTVSPropertyOp28
 70
     1
102
RTVSPropertyOp29
 70
     1
102
RTVSPropertyOp30
 70
     1
102
RTVSPropertyOp31
 70
     1
102
RTVSPropertyOp32
 70
     1
  0
ENDSEC
  0
EOF
