  0
SECTION
  2
HEADER
  9
$ACADVER
  1
AC1021
  9
$ACADMAINTVER
 70
    50
  9
$DWGCODEPAGE
  3
ANSI_932
  9
$LASTSAVEDBY
  1
佐藤
  9
$INSBASE
 10
0.0
 20
0.0
 30
0.0
  9
$EXTMIN
 10
0.0
 20
0.0
 30
0.0
  9
$EXTMAX
 10
4455.0
 20
3150.0
 30
0.0
  9
$LIMMIN
 10
0.0
 20
0.0
  9
$LIMMAX
 10
420.0
 20
297.0
  9
$ORTHOMODE
 70
     0
  9
$REGENMODE
 70
     1
  9
$FILLMODE
 70
     1
  9
$QTEXTMODE
 70
     0
  9
$MIRRTEXT
 70
     0
  9
$LTSCALE
 40
1.0
  9
$ATTMODE
 70
     1
  9
$TEXTSIZE
 40
2.5
  9
$TRACEWID
 40
1.0
  9
$TEXTSTYLE
  7
寸法
  9
$CLAYER
  8
寸法
  9
$CELTYPE
  6
ByLayer
  9
$CECOLOR
 62
   256
  9
$CELTSCALE
 40
1.0
  9
$DISPSILH
 70
     0
  9
$DIMSCALE
 40
15.0
  9
$DIMASZ
 40
2.5
  9
$DIMEXO
 40
1.625
  9
$DIMDLI
 40
3.75
  9
$DIMRND
 40
0.0
  9
$DIMDLE
 40
0.0
  9
$DIMEXE
 40
1.25
  9
$DIMTP
 40
0.0
  9
$DIMTM
 40
0.0
  9
$DIMTXT
 40
2.5
  9
$DIMCEN
 40
2.5
  9
$DIMTSZ
 40
0.0
  9
$DIMTOL
 70
     0
  9
$DIMLIM
 70
     0
  9
$DIMTIH
 70
     0
  9
$DIMTOH
 70
     0
  9
$DIMSE1
 70
     0
  9
$DIMSE2
 70
     0
  9
$DIMTAD
 70
     1
  9
$DIMZIN
 70
     8
  9
$DIMBLK
  1

  9
$DIMASO
 70
     1
  9
$DIMSHO
 70
     1
  9
$DIMPOST
  1

  9
$DIMAPOST
  1

  9
$DIMALT
 70
     0
  9
$DIMALTD
 70
     3
  9
$DIMALTF
 40
0.03937007874016
  9
$DIMLFAC
 40
1.0
  9
$DIMTOFL
 70
     1
  9
$DIMTVP
 40
0.0
  9
$DIMTIX
 70
     0
  9
$DIMSOXD
 70
     0
  9
$DIMSAH
 70
     0
  9
$DIMBLK1
  1

  9
$DIMBLK2
  1

  9
$DIMSTYLE
  2
ISO-25
  9
$DIMCLRD
 70
     0
  9
$DIMCLRE
 70
     0
  9
$DIMCLRT
 70
     0
  9
$DIMTFAC
 40
1.0
  9
$DIMGAP
 40
1.625
  9
$DIMJUST
 70
     0
  9
$DIMSD1
 70
     0
  9
$DIMSD2
 70
     0
  9
$DIMTOLJ
 70
     0
  9
$DIMTZIN
 70
     8
  9
$DIMALTZ
 70
     0
  9
$DIMALTTZ
 70
     0
  9
$DIMUPT
 70
     0
  9
$DIMDEC
 70
     2
  9
$DIMTDEC
 70
     2
  9
$DIMALTU
 70
     2
  9
$DIMALTTD
 70
     3
  9
$DIMTXSTY
  7
Standard
  9
$DIMAUNIT
 70
     0
  9
$DIMADEC
 70
     0
  9
$DIMALTRND
 40
0.0
  9
$DIMAZIN
 70
     0
  9
$DIMDSEP
 70
    46
  9
$DIMATFIT
 70
     3
  9
$DIMFRAC
 70
     0
  9
$DIMLDRBLK
  1

  9
$DIMLUNIT
 70
     2
  9
$DIMLWD
 70
    -2
  9
$DIMLWE
 70
    -2
  9
$DIMTMOVE
 70
     0
  9
$DIMFXL
 40
1.0
  9
$DIMFXLON
 70
     0
  9
$DIMJOGANG
 40
1.570796326794896
  9
$DIMTFILL
 70
     0
  9
$DIMTFILLCLR
 70
     0
  9
$DIMARCSYM
 70
     0
  9
$DIMLTYPE
  6

  9
$DIMLTEX1
  6

  9
$DIMLTEX2
  6

  9
$LUNITS
 70
     2
  9
$LUPREC
 70
     4
  9
$SKETCHINC
 40
1.0
  9
$FILLETRAD
 40
28.0
  9
$AUNITS
 70
     0
  9
$AUPREC
 70
     0
  9
$MENU
  1
.
  9
$ELEVATION
 40
0.0
  9
$PELEVATION
 40
0.0
  9
$THICKNESS
 40
0.0
  9
$LIMCHECK
 70
     0
  9
$CHAMFERA
 40
19.0
  9
$CHAMFERB
 40
19.0
  9
$CHAMFERC
 40
0.0
  9
$CHAMFERD
 40
0.0
  9
$SKPOLY
 70
     0
  9
$TDCREATE
 40
2455711.508953565
  9
$TDUCREATE
 40
2455711.133953565
  9
$TDUPDATE
 40
2457368.664410775
  9
$TDUUPDATE
 40
2457368.289410776
  9
$TDINDWG
 40
0.7230665162
  9
$TDUSRTIMER
 40
0.7230663310
  9
$USRTIMER
 70
     1
  9
$ANGBASE
 50
0.0
  9
$ANGDIR
 70
     0
  9
$PDMODE
 70
     0
  9
$PDSIZE
 40
0.0
  9
$PLINEWID
 40
0.0
  9
$SPLFRAME
 70
     0
  9
$SPLINETYPE
 70
     6
  9
$SPLINESEGS
 70
     8
  9
$HANDSEED
  5
1D50
  9
$SURFTAB1
 70
     6
  9
$SURFTAB2
 70
     6
  9
$SURFTYPE
 70
     6
  9
$SURFU
 70
     6
  9
$SURFV
 70
     6
  9
$UCSBASE
  2

  9
$UCSNAME
  2

  9
$UCSORG
 10
0.0
 20
0.0
 30
0.0
  9
$UCSXDIR
 10
1.0
 20
0.0
 30
0.0
  9
$UCSYDIR
 10
0.0
 20
1.0
 30
0.0
  9
$UCSORTHOREF
  2

  9
$UCSORTHOVIEW
 70
     0
  9
$UCSORGTOP
 10
0.0
 20
0.0
 30
0.0
  9
$UCSORGBOTTOM
 10
0.0
 20
0.0
 30
0.0
  9
$UCSORGLEFT
 10
0.0
 20
0.0
 30
0.0
  9
$UCSORGRIGHT
 10
0.0
 20
0.0
 30
0.0
  9
$UCSORGFRONT
 10
0.0
 20
0.0
 30
0.0
  9
$UCSORGBACK
 10
0.0
 20
0.0
 30
0.0
  9
$PUCSBASE
  2

  9
$PUCSNAME
  2

  9
$PUCSORG
 10
0.0
 20
0.0
 30
0.0
  9
$PUCSXDIR
 10
1.0
 20
0.0
 30
0.0
  9
$PUCSYDIR
 10
0.0
 20
1.0
 30
0.0
  9
$PUCSORTHOREF
  2

  9
$PUCSORTHOVIEW
 70
     0
  9
$PUCSORGTOP
 10
0.0
 20
0.0
 30
0.0
  9
$PUCSORGBOTTOM
 10
0.0
 20
0.0
 30
0.0
  9
$PUCSORGLEFT
 10
0.0
 20
0.0
 30
0.0
  9
$PUCSORGRIGHT
 10
0.0
 20
0.0
 30
0.0
  9
$PUCSORGFRONT
 10
0.0
 20
0.0
 30
0.0
  9
$PUCSORGBACK
 10
0.0
 20
0.0
 30
0.0
  9
$USERI1
 70
     0
  9
$USERI2
 70
     0
  9
$USERI3
 70
     0
  9
$USERI4
 70
     0
  9
$USERI5
 70
     0
  9
$USERR1
 40
0.0
  9
$USERR2
 40
0.0
  9
$USERR3
 40
0.0
  9
$USERR4
 40
0.0
  9
$USERR5
 40
0.0
  9
$WORLDVIEW
 70
     1
  9
$SHADEDGE
 70
     3
  9
$SHADEDIF
 70
    70
  9
$TILEMODE
 70
     1
  9
$MAXACTVP
 70
    64
  9
$PINSBASE
 10
0.0
 20
0.0
 30
0.0
  9
$PLIMCHECK
 70
     0
  9
$PEXTMIN
 10
1.000000000000000E+20
 20
1.000000000000000E+20
 30
1.000000000000000E+20
  9
$PEXTMAX
 10
-1.000000000000000E+20
 20
-1.000000000000000E+20
 30
-1.000000000000000E+20
  9
$PLIMMIN
 10
0.0
 20
0.0
  9
$PLIMMAX
 10
420.0
 20
297.0
  9
$UNITMODE
 70
     0
  9
$VISRETAIN
 70
     1
  9
$PLINEGEN
 70
     0
  9
$PSLTSCALE
 70
     1
  9
$TREEDEPTH
 70
  3020
  9
$CMLSTYLE
  2
Standard
  9
$CMLJUST
 70
     0
  9
$CMLSCALE
 40
20.0
  9
$PROXYGRAPHICS
 70
     1
  9
$MEASUREMENT
 70
     1
  9
$CELWEIGHT
370
    -1
  9
$ENDCAPS
280
     0
  9
$JOINSTYLE
280
     0
  9
$LWDISPLAY
290
     0
  9
$INSUNITS
 70
     4
  9
$HYPERLINKBASE
  1

  9
$STYLESHEET
  1

  9
$XEDIT
290
     1
  9
$CEPSNTYPE
380
     0
  9
$PSTYLEMODE
290
     1
  9
$FINGERPRINTGUID
  2
{B7F2F6F7-088E-48A0-8545-691322D26F8A}
  9
$VERSIONGUID
  2
{99E4E80D-C04E-4163-8A61-E01AC3B7B6D5}
  9
$EXTNAMES
290
     1
  9
$PSVPSCALE
 40
0.0
  9
$OLESTARTUP
290
     0
  9
$SORTENTS
280
   127
  9
$INDEXCTL
280
     0
  9
$HIDETEXT
280
     1
  9
$XCLIPFRAME
290
     0
  9
$HALOGAP
280
     0
  9
$OBSCOLOR
 70
   257
  9
$OBSLTYPE
280
     0
  9
$INTERSECTIONDISPLAY
280
     0
  9
$INTERSECTIONCOLOR
 70
   257
  9
$DIMASSOC
280
     2
  9
$PROJECTNAME
  1

  9
$CAMERADISPLAY
290
     0
  9
$LENSLENGTH
 40
50.0
  9
$CAMERAHEIGHT
 40
0.0
  9
$STEPSPERSEC
 40
2.0
  9
$STEPSIZE
 40
6.0
  9
$3DDWFPREC
 40
2.0
  9
$PSOLWIDTH
 40
0.25
  9
$PSOLHEIGHT
 40
4.0
  9
$LOFTANG1
 40
1.570796326794896
  9
$LOFTANG2
 40
1.570796326794896
  9
$LOFTMAG1
 40
0.0
  9
$LOFTMAG2
 40
0.0
  9
$LOFTPARAM
 70
     7
  9
$LOFTNORMALS
280
     1
  9
$LATITUDE
 40
37.795
  9
$LONGITUDE
 40
-122.394
  9
$NORTHDIRECTION
 40
0.0
  9
$TIMEZONE
 70
 -8000
  9
$LIGHTGLYPHDISPLAY
280
     1
  9
$TILEMODELIGHTSYNCH
280
     1
  9
$CMATERIAL
347
11
  9
$SOLIDHIST
280
     1
  9
$SHOWHIST
280
     1
  9
$DWFFRAME
280
     2
  9
$DGNFRAME
280
     0
  9
$REALWORLDSCALE
290
     1
  9
$INTERFERECOLOR
 62
     1
  9
$INTERFEREOBJVS
345
33
  9
$INTERFEREVPVS
346
141
  9
$CSHADOW
280
     0
  9
$SHADOWPLANELOCATION
 40
0.0
  0
ENDSEC
  0
SECTION
  2
CLASSES
  0
CLASS
  1
ACDBDICTIONARYWDFLT
  2
AcDbDictionaryWithDefault
  3
ObjectDBX Classes
 90
        0
 91
        1
280
     0
281
     0
  0
CLASS
  1
MATERIAL
  2
AcDbMaterial
  3
ObjectDBX Classes
 90
     1153
 91
        3
280
     0
281
     0
  0
CLASS
  1
VISUALSTYLE
  2
AcDbVisualStyle
  3
ObjectDBX Classes
 90
     4095
 91
       26
280
     0
281
     0
  0
CLASS
  1
SCALE
  2
AcDbScale
  3
ObjectDBX Classes
 90
     1153
 91
       17
280
     0
281
     0
  0
CLASS
  1
TABLESTYLE
  2
AcDbTableStyle
  3
ObjectDBX Classes
 90
     4095
 91
        1
280
     0
281
     0
  0
CLASS
  1
MLEADERSTYLE
  2
AcDbMLeaderStyle
  3
ACDB_MLEADERSTYLE_CLASS
 90
     4095
 91
        1
280
     0
281
     0
  0
CLASS
  1
DICTIONARYVAR
  2
AcDbDictionaryVar
  3
ObjectDBX Classes
 90
        0
 91
        5
280
     0
281
     0
  0
CLASS
  1
SORTENTSTABLE
  2
AcDbSortentsTable
  3
ObjectDBX Classes
 90
        0
 91
        1
280
     0
281
     0
  0
CLASS
  1
CELLSTYLEMAP
  2
AcDbCellStyleMap
  3
ObjectDBX Classes
 90
     1152
 91
        1
280
     0
281
     0
  0
CLASS
  1
DIMASSOC
  2
AcDbDimAssoc
  3
"AcDbDimAssoc|Product Desc:     AcDim ARX App For Dimension|Company:          Autodesk, Inc.|WEB Address:      www.autodesk.com"
 90
        0
 91
       16
280
     0
281
     0
  0
CLASS
  1
MULTILEADER
  2
AcDbMLeader
  3
ACDB_MLEADER_CLASS
 90
     1025
 91
       24
280
     0
281
     1
  0
ENDSEC
  0
SECTION
  2
TABLES
  0
TABLE
  2
VPORT
  5
8
330
0
100
AcDbSymbolTable
 70
     1
  0
VPORT
  5
52
330
8
100
AcDbSymbolTableRecord
100
AcDbViewportTableRecord
  2
*Active
 70
     0
 10
0.0
 20
0.0
 11
1.0
 21
1.0
 12
2540.627889180551
 22
1953.177076880911
 13
0.0
 23
0.0
 14
10.0
 24
10.0
 15
10.0
 25
10.0
 16
0.0
 26
0.0
 36
1.0
 17
0.0
 27
0.0
 37
0.0
 40
3557.128911316374
 41
2.295685279187817
 42
50.0
 43
0.0
 44
0.0
 50
0.0
 51
0.0
 71
     0
 72
  1000
 73
     1
 74
     3
 75
     0
 76
     0
 77
     0
 78
     0
281
     0
 65
     1
110
0.0
120
0.0
130
0.0
111
1.0
121
0.0
131
0.0
112
0.0
122
1.0
132
0.0
 79
     0
146
0.0
348
2F
 60
     2
 61
     5
292
     1
282
     1
141
0.0
142
0.0
 63
   250
421
  3355443
1001
ACAD_NAV_VCDISPLAY
1070
     3
  0
ENDTAB
  0
TABLE
  2
LTYPE
  5
5
330
0
100
AcDbSymbolTable
 70
    15
  0
LTYPE
  5
56
330
5
100
AcDbSymbolTableRecord
100
AcDbLinetypeTableRecord
  2
ByBlock
 70
     0
  3

 72
    65
 73
     0
 40
0.0
  0
LTYPE
  5
57
330
5
100
AcDbSymbolTableRecord
100
AcDbLinetypeTableRecord
  2
ByLayer
 70
     0
  3

 72
    65
 73
     0
 40
0.0
  0
LTYPE
  5
58
330
5
100
AcDbSymbolTableRecord
100
AcDbLinetypeTableRecord
  2
Continuous
 70
     0
  3
Solid line
 72
    65
 73
     0
 40
0.0
  0
LTYPE
  5
7A
330
5
100
AcDbSymbolTableRecord
100
AcDbLinetypeTableRecord
  2
ACAD_ISO02W100
 70
     0
  3
ISO dash __ __ __ __ __ __ __ __ __ __ __ __ __
 72
    65
 73
     2
 40
15.0
 49
12.0
 74
     0
 49
-3.0
 74
     0
  0
LTYPE
  5
7B
330
5
100
AcDbSymbolTableRecord
100
AcDbLinetypeTableRecord
  2
ACAD_ISO03W100
 70
     0
  3
ISO dash space __    __    __    __    __    __
 72
    65
 73
     2
 40
30.0
 49
12.0
 74
     0
 49
-18.0
 74
     0
  0
LTYPE
  5
7C
330
5
100
AcDbSymbolTableRecord
100
AcDbLinetypeTableRecord
  2
ACAD_ISO04W100
 70
     0
  3
ISO long-dash dot ____ . ____ . ____ . ____ . _
 72
    65
 73
     4
 40
30.0
 49
24.0
 74
     0
 49
-3.0
 74
     0
 49
0.0
 74
     0
 49
-3.0
 74
     0
  0
LTYPE
  5
7D
330
5
100
AcDbSymbolTableRecord
100
AcDbLinetypeTableRecord
  2
ACAD_ISO05W100
 70
     0
  3
ISO long-dash double-dot ____ .. ____ .. ____ .
 72
    65
 73
     6
 40
33.0
 49
24.0
 74
     0
 49
-3.0
 74
     0
 49
0.0
 74
     0
 49
-3.0
 74
     0
 49
0.0
 74
     0
 49
-3.0
 74
     0
  0
LTYPE
  5
7E
330
5
100
AcDbSymbolTableRecord
100
AcDbLinetypeTableRecord
  2
ACAD_ISO06W100
 70
     0
  3
ISO long-dash triple-dot ____ ... ____ ... ____
 72
    65
 73
     8
 40
36.0
 49
24.0
 74
     0
 49
-3.0
 74
     0
 49
0.0
 74
     0
 49
-3.0
 74
     0
 49
0.0
 74
     0
 49
-3.0
 74
     0
 49
0.0
 74
     0
 49
-3.0
 74
     0
  0
LTYPE
  5
7F
330
5
100
AcDbSymbolTableRecord
100
AcDbLinetypeTableRecord
  2
ACAD_ISO07W100
 70
     0
  3
ISO dot . . . . . . . . . . . . . . . . . . . .
 72
    65
 73
     2
 40
3.0
 49
0.0
 74
     0
 49
-3.0
 74
     0
  0
LTYPE
  5
80
330
5
100
AcDbSymbolTableRecord
100
AcDbLinetypeTableRecord
  2
ACAD_ISO08W100
 70
     0
  3
ISO long-dash short-dash ____ __ ____ __ ____ _
 72
    65
 73
     4
 40
36.0
 49
24.0
 74
     0
 49
-3.0
 74
     0
 49
6.0
 74
     0
 49
-3.0
 74
     0
  0
LTYPE
  5
81
330
5
100
AcDbSymbolTableRecord
100
AcDbLinetypeTableRecord
  2
ACAD_ISO09W100
 70
     0
  3
ISO long-dash double-short-dash ____ __ __ ____
 72
    65
 73
     6
 40
45.0
 49
24.0
 74
     0
 49
-3.0
 74
     0
 49
6.0
 74
     0
 49
-3.0
 74
     0
 49
6.0
 74
     0
 49
-3.0
 74
     0
  0
LTYPE
  5
82
330
5
100
AcDbSymbolTableRecord
100
AcDbLinetypeTableRecord
  2
ACAD_ISO10W100
 70
     0
  3
ISO dash dot __ . __ . __ . __ . __ . __ . __ .
 72
    65
 73
     4
 40
18.0
 49
12.0
 74
     0
 49
-3.0
 74
     0
 49
0.0
 74
     0
 49
-3.0
 74
     0
  0
LTYPE
  5
83
330
5
100
AcDbSymbolTableRecord
100
AcDbLinetypeTableRecord
  2
ACAD_ISO11W100
 70
     0
  3
ISO double-dash dot __ __ . __ __ . __ __ . __ _
 72
    65
 73
     6
 40
33.0
 49
12.0
 74
     0
 49
-3.0
 74
     0
 49
12.0
 74
     0
 49
-3.0
 74
     0
 49
0.0
 74
     0
 49
-3.0
 74
     0
  0
LTYPE
  5
84
330
5
100
AcDbSymbolTableRecord
100
AcDbLinetypeTableRecord
  2
ACAD_ISO12W100
 70
     0
  3
ISO dash double-dot __ . . __ . . __ . . __ . .
 72
    65
 73
     6
 40
21.0
 49
12.0
 74
     0
 49
-3.0
 74
     0
 49
0.0
 74
     0
 49
-3.0
 74
     0
 49
0.0
 74
     0
 49
-3.0
 74
     0
  0
LTYPE
  5
85
330
5
100
AcDbSymbolTableRecord
100
AcDbLinetypeTableRecord
  2
ACAD_ISO13W100
 70
     0
  3
ISO double-dash double-dot __ __ . . __ __ . . _
 72
    65
 73
     8
 40
36.0
 49
12.0
 74
     0
 49
-3.0
 74
     0
 49
12.0
 74
     0
 49
-3.0
 74
     0
 49
0.0
 74
     0
 49
-3.0
 74
     0
 49
0.0
 74
     0
 49
-3.0
 74
     0
  0
LTYPE
  5
86
330
5
100
AcDbSymbolTableRecord
100
AcDbLinetypeTableRecord
  2
ACAD_ISO14W100
 70
     0
  3
ISO dash triple-dot __ . . . __ . . . __ . . . _
 72
    65
 73
     8
 40
24.0
 49
12.0
 74
     0
 49
-3.0
 74
     0
 49
0.0
 74
     0
 49
-3.0
 74
     0
 49
0.0
 74
     0
 49
-3.0
 74
     0
 49
0.0
 74
     0
 49
-3.0
 74
     0
  0
LTYPE
  5
87
330
5
100
AcDbSymbolTableRecord
100
AcDbLinetypeTableRecord
  2
ACAD_ISO15W100
 70
     0
  3
ISO double-dash triple-dot __ __ . . . __ __ . .
 72
    65
 73
    10
 40
39.0
 49
12.0
 74
     0
 49
-3.0
 74
     0
 49
12.0
 74
     0
 49
-3.0
 74
     0
 49
0.0
 74
     0
 49
-3.0
 74
     0
 49
0.0
 74
     0
 49
-3.0
 74
     0
 49
0.0
 74
     0
 49
-3.0
 74
     0
  0
ENDTAB
  0
TABLE
  2
LAYER
  5
2
102
{ACAD_XDICTIONARY
360
A1
102
}
330
0
100
AcDbSymbolTable
 70
    14
  0
LAYER
  5
4F
330
2
100
AcDbSymbolTableRecord
100
AcDbLayerTableRecord
  2
0
 70
     0
 62
     7
  6
Continuous
370
    -3
390
F
347
21
  0
LAYER
  5
71
330
2
100
AcDbSymbolTableRecord
100
AcDbLayerTableRecord
  2
表題
 70
     0
 62
     5
  6
Continuous
370
    50
390
F
347
21
1001
AcAecLayerStandard
1000

1000

  0
LAYER
  5
73
330
2
100
AcDbSymbolTableRecord
100
AcDbLayerTableRecord
  2
用紙
 70
     0
 62
     4
  6
Continuous
370
    -3
390
F
347
21
1001
AcAecLayerStandard
1000

1000

  0
LAYER
  5
74
330
2
100
AcDbSymbolTableRecord
100
AcDbLayerTableRecord
  2
輪郭
 70
     0
 62
     5
  6
Continuous
370
    70
390
F
347
21
1001
AcAecLayerStandard
1000

1000

  0
LAYER
  5
75
330
2
100
AcDbSymbolTableRecord
100
AcDbLayerTableRecord
  2
製品
 70
     0
 62
     7
  6
Continuous
370
    25
390
F
347
21
1001
AcAecLayerStandard
1000

1000

  0
LAYER
  5
76
330
2
100
AcDbSymbolTableRecord
100
AcDbLayerTableRecord
  2
寸法
 70
     0
 62
     7
  6
Continuous
370
    13
390
F
347
21
1001
AcAecLayerStandard
1000

1000

  0
LAYER
  5
77
330
2
100
AcDbSymbolTableRecord
100
AcDbLayerTableRecord
  2
中心
 70
     0
 62
     1
  6
ACAD_ISO08W100
370
    13
390
F
347
21
1001
AcAecLayerStandard
1000

1000

  0
LAYER
  5
88
330
2
100
AcDbSymbolTableRecord
100
AcDbLayerTableRecord
  2
鉄筋
 70
     0
 62
     6
  6
ACAD_ISO03W100
370
    25
390
F
347
21
1001
AcAecLayerStandard
1000

1000

  0
LAYER
  5
89
330
2
100
AcDbSymbolTableRecord
100
AcDbLayerTableRecord
  2
構築
 70
     0
 62
     3
  6
Continuous
370
    13
390
F
347
21
1001
AcAecLayerStandard
1000

1000

  0
LAYER
  5
1AB
330
2
100
AcDbSymbolTableRecord
100
AcDbLayerTableRecord
  2
製品2
 70
     0
 62
     7
  6
ACAD_ISO03W100
370
    15
390
F
347
21
1001
AcAecLayerStandard
1000

1000

1001
AcCmTransparency
1071
        0
  0
LAYER
  5
1BE
330
2
100
AcDbSymbolTableRecord
100
AcDbLayerTableRecord
  2
製品1
 70
     0
 62
     7
  6
Continuous
370
    15
390
F
347
21
1001
AcAecLayerStandard
1000

1000

1001
AcCmTransparency
1071
        0
  0
LAYER
  5
237
330
2
100
AcDbSymbolTableRecord
100
AcDbLayerTableRecord
  2
文字
 70
     0
 62
     7
  6
Continuous
370
    25
390
F
347
21
1001
AcAecLayerStandard
1000

1000

1001
AcCmTransparency
1071
        0
  0
LAYER
  5
2AD
330
2
100
AcDbSymbolTableRecord
100
AcDbLayerTableRecord
  2
Defpoints
 70
     0
 62
     7
  6
Continuous
290
     0
370
    -3
390
F
347
21
  0
LAYER
  5
1B45
330
2
100
AcDbSymbolTableRecord
100
AcDbLayerTableRecord
  2
鉄筋2
 70
     0
 62
     6
  6
Continuous
370
    25
390
F
347
21
1001
AcAecLayerStandard
1000

1000

1001
AcCmTransparency
1071
        0
  0
ENDTAB
  0
TABLE
  2
STYLE
  5
3
330
0
100
AcDbSymbolTable
 70
     5
  0
STYLE
  5
50
330
3
100
AcDbSymbolTableRecord
100
AcDbTextStyleTableRecord
  2
Standard
 70
     0
 40
0.0
 41
1.0
 50
0.0
 71
     0
 42
2.5
  3
txt
  4

  0
STYLE
  5
55
330
3
100
AcDbSymbolTableRecord
100
AcDbTextStyleTableRecord
  2
Annotative
 70
     0
 40
0.0
 41
1.0
 50
0.0
 71
     0
 42
0.2
  3
txt
  4

1001
AcadAnnotative
1000
AnnotativeData
1002
{
1070
     1
1070
     1
1002
}
  0
STYLE
  5
79
330
3
100
AcDbSymbolTableRecord
100
AcDbTextStyleTableRecord
  2

 70
     1
 40
0.0
 41
1.0
 50
0.0
 71
     0
 42
2.5
  3
ltypeshp.shx
  4

  0
STYLE
  5
AB
330
3
100
AcDbSymbolTableRecord
100
AcDbTextStyleTableRecord
  2
文字
 70
     0
 40
0.0
 41
1.0
 50
0.0
 71
     0
 42
5.0
  3

  4

1001
ACAD
1000
MS Gothic
1071
    32817
  0
STYLE
  5
DC
330
3
100
AcDbSymbolTableRecord
100
AcDbTextStyleTableRecord
  2
寸法
 70
     0
 40
0.0
 41
1.0
 50
0.0
 71
     0
 42
2.5
  3
isocpeur.ttf
  4

1001
ACAD
1000
ISOCPEUR
1071
       34
  0
ENDTAB
  0
TABLE
  2
VIEW
  5
6
330
0
100
AcDbSymbolTable
 70
     0
  0
ENDTAB
  0
TABLE
  2
UCS
  5
7
330
0
100
AcDbSymbolTable
 70
     0
  0
ENDTAB
  0
TABLE
  2
APPID
  5
9
330
0
100
AcDbSymbolTable
 70
    12
  0
APPID
  5
51
330
9
100
AcDbSymbolTableRecord
100
AcDbRegAppTableRecord
  2
ACAD
 70
     0
  0
APPID
  5
59
330
9
100
AcDbSymbolTableRecord
100
AcDbRegAppTableRecord
  2
AcadAnnotative
 70
     0
  0
APPID
  5
72
330
9
100
AcDbSymbolTableRecord
100
AcDbRegAppTableRecord
  2
AcAecLayerStandard
 70
     0
  0
APPID
  5
DD
330
9
100
AcDbSymbolTableRecord
100
AcDbRegAppTableRecord
  2
AcadAnnoPO
 70
     0
  0
APPID
  5
116
330
9
100
AcDbSymbolTableRecord
100
AcDbRegAppTableRecord
  2
ACAD_MLEADERVER
 70
     0
  0
APPID
  5
12E
330
9
100
AcDbSymbolTableRecord
100
AcDbRegAppTableRecord
  2
ACAD_EXEMPT_FROM_CAD_STANDARDS
 70
     0
  0
APPID
  5
161
330
9
100
AcDbSymbolTableRecord
100
AcDbRegAppTableRecord
  2
ACAD_NAV_VCDISPLAY
 70
     0
  0
APPID
  5
1AC
330
9
100
AcDbSymbolTableRecord
100
AcDbRegAppTableRecord
  2
AcCmTransparency
 70
     0
  0
APPID
  5
2A9
330
9
100
AcDbSymbolTableRecord
100
AcDbRegAppTableRecord
  2
ACAD_DSTYLE_DIMJAG
 70
     0
  0
APPID
  5
2AA
330
9
100
AcDbSymbolTableRecord
100
AcDbRegAppTableRecord
  2
ACAD_DSTYLE_DIMTALN
 70
     0
  0
APPID
  5
81E
330
9
100
AcDbSymbolTableRecord
100
AcDbRegAppTableRecord
  2
ACAD_PSEXT
 70
     0
  0
APPID
  5
839
330
9
100
AcDbSymbolTableRecord
100
AcDbRegAppTableRecord
  2
ACAD_DSTYLE_DIMRADIAL_EXTENSION
 70
     0
  0
ENDTAB
  0
TABLE
  2
DIMSTYLE
  5
A
330
0
100
AcDbSymbolTable
 70
     2
100
AcDbDimStyleTable
 71
     1
340
53
  0
DIMSTYLE
105
53
102
{ACAD_REACTORS
330
2D2
330
2EA
330
330
330
34C
330
395
330
3F9
330
411
330
454
330
46C
330
484
330
4A0
330
5B8
330
604
330
65A
330
676
330
6EA
330
70F
330
72B
330
747
330
78D
330
7A9
330
7FE
330
83A
330
847
330
958
330
970
330
17FB
330
17FE
330
1831
102
}
330
A
100
AcDbSymbolTableRecord
100
AcDbDimStyleTableRecord
  2
ISO-25
 70
     0
 40
15.0
 41
2.5
 42
1.625
 43
3.75
 44
1.25
 50
90.0
 73
     0
 74
     0
 77
     1
 78
     8
140
2.5
141
2.5
143
0.03937007874016
147
1.625
171
     3
172
     1
271
     2
272
     2
274
     3
283
     0
284
     8
340
50
1001
ACAD_DSTYLE_DIMJAG
1070
   388
1040
1.5
1001
ACAD_DSTYLE_DIMTALN
1070
   392
1070
     0
  0
DIMSTYLE
105
54
330
A
100
AcDbSymbolTableRecord
100
AcDbDimStyleTableRecord
  2
Annotative
 70
     0
340
50
1001
AcadAnnotative
1000
AnnotativeData
1002
{
1070
     1
1070
     1
1002
}
  0
ENDTAB
  0
TABLE
  2
BLOCK_RECORD
  5
1
330
0
100
AcDbSymbolTable
 70
    31
  0
BLOCK_RECORD
  5
67
102
{ACAD_XDICTIONARY
360
9C
102
}
330
1
100
AcDbSymbolTableRecord
100
AcDbBlockTableRecord
  2
*Model_Space
340
6A
 70
     0
280
     1
281
     0
  0
BLOCK_RECORD
  5
63
330
1
100
AcDbSymbolTableRecord
100
AcDbBlockTableRecord
  2
*Paper_Space
340
66
 70
     0
280
     1
281
     0
  0
BLOCK_RECORD
  5
6B
330
1
100
AcDbSymbolTableRecord
100
AcDbBlockTableRecord
  2
*Paper_Space0
340
6E
 70
     0
280
     1
281
     0
  0
BLOCK_RECORD
  5
2D3
330
1
100
AcDbSymbolTableRecord
100
AcDbBlockTableRecord
  2
*D1
340
0
 70
     0
280
     1
281
     0
  0
BLOCK_RECORD
  5
2EB
330
1
100
AcDbSymbolTableRecord
100
AcDbBlockTableRecord
  2
*D2
340
0
 70
     0
280
     1
281
     0
  0
BLOCK_RECORD
  5
331
330
1
100
AcDbSymbolTableRecord
100
AcDbBlockTableRecord
  2
*D3
340
0
 70
     0
280
     1
281
     0
  0
BLOCK_RECORD
  5
34D
330
1
100
AcDbSymbolTableRecord
100
AcDbBlockTableRecord
  2
*D4
340
0
 70
     0
280
     1
281
     0
  0
BLOCK_RECORD
  5
3A1
330
1
100
AcDbSymbolTableRecord
100
AcDbBlockTableRecord
  2
*D5
340
0
 70
     0
280
     1
281
     0
  0
BLOCK_RECORD
  5
3FA
330
1
100
AcDbSymbolTableRecord
100
AcDbBlockTableRecord
  2
*D6
340
0
 70
     0
280
     1
281
     0
  0
BLOCK_RECORD
  5
412
330
1
100
AcDbSymbolTableRecord
100
AcDbBlockTableRecord
  2
*D7
340
0
 70
     0
280
     1
281
     0
  0
BLOCK_RECORD
  5
455
330
1
100
AcDbSymbolTableRecord
100
AcDbBlockTableRecord
  2
*D8
340
0
 70
     0
280
     1
281
     0
  0
BLOCK_RECORD
  5
46D
330
1
100
AcDbSymbolTableRecord
100
AcDbBlockTableRecord
  2
*D9
340
0
 70
     0
280
     1
281
     0
  0
BLOCK_RECORD
  5
485
330
1
100
AcDbSymbolTableRecord
100
AcDbBlockTableRecord
  2
*D10
340
0
 70
     0
280
     1
281
     0
  0
BLOCK_RECORD
  5
4A1
330
1
100
AcDbSymbolTableRecord
100
AcDbBlockTableRecord
  2
*D11
340
0
 70
     0
280
     1
281
     0
  0
BLOCK_RECORD
  5
5B9
330
1
100
AcDbSymbolTableRecord
100
AcDbBlockTableRecord
  2
*D12
340
0
 70
     0
280
     1
281
     0
  0
BLOCK_RECORD
  5
5EA
330
1
100
AcDbSymbolTableRecord
100
AcDbBlockTableRecord
  2
_DotSmall
340
0
102
{BLKREFS
331
1BE4
331
1BEF
331
1BFA
331
1C05
331
1C10
331
1C1B
102
}
 70
     0
280
     1
281
     0
  0
BLOCK_RECORD
  5
605
330
1
100
AcDbSymbolTableRecord
100
AcDbBlockTableRecord
  2
*D14
340
0
 70
     0
280
     1
281
     0
  0
BLOCK_RECORD
  5
65B
330
1
100
AcDbSymbolTableRecord
100
AcDbBlockTableRecord
  2
*D15
340
0
 70
     0
280
     1
281
     0
  0
BLOCK_RECORD
  5
677
330
1
100
AcDbSymbolTableRecord
100
AcDbBlockTableRecord
  2
*D16
340
0
 70
     0
280
     1
281
     0
  0
BLOCK_RECORD
  5
6EB
330
1
100
AcDbSymbolTableRecord
100
AcDbBlockTableRecord
  2
*D17
340
0
 70
     0
280
     1
281
     0
  0
BLOCK_RECORD
  5
710
330
1
100
AcDbSymbolTableRecord
100
AcDbBlockTableRecord
  2
*D18
340
0
 70
     0
280
     1
281
     0
  0
BLOCK_RECORD
  5
72C
330
1
100
AcDbSymbolTableRecord
100
AcDbBlockTableRecord
  2
*D19
340
0
 70
     0
280
     1
281
     0
  0
BLOCK_RECORD
  5
748
330
1
100
AcDbSymbolTableRecord
100
AcDbBlockTableRecord
  2
*D20
340
0
 70
     0
280
     1
281
     0
  0
BLOCK_RECORD
  5
78E
330
1
100
AcDbSymbolTableRecord
100
AcDbBlockTableRecord
  2
*D21
340
0
 70
     0
280
     1
281
     0
  0
BLOCK_RECORD
  5
7AA
330
1
100
AcDbSymbolTableRecord
100
AcDbBlockTableRecord
  2
*D22
340
0
 70
     0
280
     1
281
     0
  0
BLOCK_RECORD
  5
7FF
330
1
100
AcDbSymbolTableRecord
100
AcDbBlockTableRecord
  2
*D23
340
0
 70
     0
280
     1
281
     0
  0
BLOCK_RECORD
  5
83B
330
1
100
AcDbSymbolTableRecord
100
AcDbBlockTableRecord
  2
*D24
340
0
 70
     0
280
     1
281
     0
  0
BLOCK_RECORD
  5
848
330
1
100
AcDbSymbolTableRecord
100
AcDbBlockTableRecord
  2
*D25
340
0
 70
     0
280
     1
281
     0
  0
BLOCK_RECORD
  5
959
330
1
100
AcDbSymbolTableRecord
100
AcDbBlockTableRecord
  2
*D26
340
0
 70
     0
280
     1
281
     0
  0
BLOCK_RECORD
  5
971
330
1
100
AcDbSymbolTableRecord
100
AcDbBlockTableRecord
  2
*D27
340
0
 70
     0
280
     1
281
     0
  0
BLOCK_RECORD
  5
1803
330
1
100
AcDbSymbolTableRecord
100
AcDbBlockTableRecord
  2
*D28
340
0
 70
     0
280
     1
281
     0
  0
BLOCK_RECORD
  5
1811
330
1
100
AcDbSymbolTableRecord
100
AcDbBlockTableRecord
  2
*D29
340
0
 70
     0
280
     1
281
     0
  0
BLOCK_RECORD
  5
1832
330
1
100
AcDbSymbolTableRecord
100
AcDbBlockTableRecord
  2
*D30
340
0
 70
     0
280
     1
281
     0
  0
ENDTAB
  0
ENDSEC
  0
SECTION
  2
BLOCKS
  0
BLOCK
  5
68
330
67
100
AcDbEntity
  8
0
100
AcDbBlockBegin
  2
*Model_Space
 70
     0
 10
0.0
 20
0.0
 30
0.0
  3
*Model_Space
  1

  0
ENDBLK
  5
69
330
67
100
AcDbEntity
  8
0
100
AcDbBlockEnd
  0
BLOCK
  5
64
330
63
100
AcDbEntity
 67
     1
  8
0
100
AcDbBlockBegin
  2
*Paper_Space
 70
     0
 10
0.0
 20
0.0
 30
0.0
  3
*Paper_Space
  1

  0
ENDBLK
  5
65
330
63
100
AcDbEntity
 67
     1
  8
0
100
AcDbBlockEnd
  0
BLOCK
  5
6C
330
6B
100
AcDbEntity
 67
     1
  8
0
100
AcDbBlockBegin
  2
*Paper_Space0
 70
     0
 10
0.0
 20
0.0
 30
0.0
  3
*Paper_Space0
  1

  0
ENDBLK
  5
6D
330
6B
100
AcDbEntity
 67
     1
  8
0
100
AcDbBlockEnd
  0
BLOCK
  5
2D4
330
2D3
100
AcDbEntity
  8
0
100
AcDbBlockBegin
  2
*D1
 70
     1
 10
0.0
 20
0.0
 30
0.0
  3
*D1
  1

  0
LINE
  5
1770
330
2D3
100
AcDbEntity
  8
寸法
 62
     0
440
 16777216
370
    -2
100
AcDbLine
 10
703.75
 20
2496.875
 30
0.0
 11
703.75
 21
2567.951875192132
 31
0.0
  0
LINE
  5
1771
330
2D3
100
AcDbEntity
  8
寸法
 62
     0
440
 16777216
370
    -2
100
AcDbLine
 10
1273.749999999999
 20
2496.875
 30
0.0
 11
1273.749999999999
 21
2567.951875192132
 31
0.0
  0
LINE
  5
1772
330
2D3
100
AcDbEntity
  8
寸法
 62
     0
440
 16777216
370
    -2
100
AcDbLine
 10
741.25
 20
2549.201875192132
 30
0.0
 11
1236.25
 21
2549.201875192132
 31
0.0
  0
SOLID
  5
1773
330
2D3
100
AcDbEntity
  8
寸法
 62
     0
440
 16777216
100
AcDbTrace
 10
741.25
 20
2555.451875192132
 30
0.0
 11
741.25
 21
2542.951875192132
 31
0.0
 12
703.75
 22
2549.201875192132
 32
0.0
 13
703.75
 23
2549.201875192132
 33
0.0
  0
SOLID
  5
1774
330
2D3
100
AcDbEntity
  8
寸法
 62
     0
440
 16777216
100
AcDbTrace
 10
1236.25
 20
2555.451875192132
 30
0.0
 11
1236.25
 21
2542.951875192132
 31
0.0
 12
1273.749999999999
 22
2549.201875192132
 32
0.0
 13
1273.749999999999
 23
2549.201875192132
 33
0.0
  0
MTEXT
  5
1775
330
2D3
100
AcDbEntity
  8
寸法
 62
     0
440
 16777216
100
AcDbMText
 10
988.7499999999999
 20
2592.326875192132
 30
0.0
 40
37.5
 41
0.0
 46
0.0
 71
     5
 72
     1
  1
570
 73
     1
 44
1.0
  0
POINT
  5
1776
330
2D3
100
AcDbEntity
  8
Defpoints
 62
     0
440
 16777216
100
AcDbPoint
 10
703.75
 20
2472.5
 30
0.0
  0
POINT
  5
1777
330
2D3
100
AcDbEntity
  8
Defpoints
 62
     0
440
 16777216
100
AcDbPoint
 10
1273.749999999999
 20
2472.5
 30
0.0
  0
POINT
  5
1778
330
2D3
100
AcDbEntity
  8
Defpoints
 62
     0
440
 16777216
100
AcDbPoint
 10
1273.749999999999
 20
2549.201875192132
 30
0.0
  0
ENDBLK
  5
2D5
330
2D3
100
AcDbEntity
  8
0
100
AcDbBlockEnd
  0
BLOCK
  5
2EC
330
2EB
100
AcDbEntity
  8
0
100
AcDbBlockBegin
  2
*D2
 70
     1
 10
0.0
 20
0.0
 30
0.0
  3
*D2
  1

  0
LINE
  5
1782
330
2EB
100
AcDbEntity
  8
寸法
 62
     0
440
 16777216
370
    -2
100
AcDbLine
 10
1298.124999999999
 20
2472.5
 30
0.0
 11
1399.70451629386
 21
2472.5
 31
0.0
  0
LINE
  5
1783
330
2EB
100
AcDbEntity
  8
寸法
 62
     0
440
 16777216
370
    -2
100
AcDbLine
 10
1298.124999999999
 20
1902.5
 30
0.0
 11
1399.70451629386
 21
1902.5
 31
0.0
  0
LINE
  5
1784
330
2EB
100
AcDbEntity
  8
寸法
 62
     0
440
 16777216
370
    -2
100
AcDbLine
 10
1380.95451629386
 20
2435.0
 30
0.0
 11
1380.95451629386
 21
1940.0
 31
0.0
  0
SOLID
  5
1785
330
2EB
100
AcDbEntity
  8
寸法
 62
     0
440
 16777216
100
AcDbTrace
 10
1374.70451629386
 20
2435.0
 30
0.0
 11
1387.20451629386
 21
2435.0
 31
0.0
 12
1380.95451629386
 22
2472.5
 32
0.0
 13
1380.95451629386
 23
2472.5
 33
0.0
  0
SOLID
  5
1786
330
2EB
100
AcDbEntity
  8
寸法
 62
     0
440
 16777216
100
AcDbTrace
 10
1374.70451629386
 20
1940.0
 30
0.0
 11
1387.20451629386
 21
1940.0
 31
0.0
 12
1380.95451629386
 22
1902.5
 32
0.0
 13
1380.95451629386
 23
1902.5
 33
0.0
  0
MTEXT
  5
1787
330
2EB
100
AcDbEntity
  8
寸法
 62
     0
440
 16777216
100
AcDbMText
 10
1337.82951629386
 20
2187.5
 30
0.0
 40
37.5
 41
0.0
 46
0.0
 71
     5
 72
     1
  1
570
 11
0.0000000000000001
 21
1.0
 31
0.0
 73
     1
 44
1.0
  0
POINT
  5
1788
330
2EB
100
AcDbEntity
  8
Defpoints
 62
     0
440
 16777216
100
AcDbPoint
 10
1273.749999999999
 20
2472.5
 30
0.0
  0
POINT
  5
1789
330
2EB
100
AcDbEntity
  8
Defpoints
 62
     0
440
 16777216
100
AcDbPoint
 10
1273.749999999999
 20
1902.5
 30
0.0
  0
POINT
  5
178A
330
2EB
100
AcDbEntity
  8
Defpoints
 62
     0
440
 16777216
100
AcDbPoint
 10
1380.95451629386
 20
1902.5
 30
0.0
  0
ENDBLK
  5
2ED
330
2EB
100
AcDbEntity
  8
0
100
AcDbBlockEnd
  0
BLOCK
  5
332
330
331
100
AcDbEntity
  8
0
100
AcDbBlockBegin
  2
*D3
 70
     1
 10
0.0
 20
0.0
 30
0.0
  3
*D3
  1

  0
LINE
  5
1B9C
330
331
100
AcDbEntity
  8
寸法
 62
     0
440
 16777216
370
    -2
100
AcDbLine
 10
1293.125
 20
1687.6454
 30
0.0
 11
1400.70451629386
 21
1687.6454
 31
0.0
  0
LINE
  5
1B9D
330
331
100
AcDbEntity
  8
寸法
 62
     0
440
 16777216
370
    -2
100
AcDbLine
 10
1295.125
 20
1737.6454
 30
0.0
 11
1400.70451629386
 21
1737.6454
 31
0.0
  0
LINE
  5
1B9E
330
331
100
AcDbEntity
  8
寸法
 62
     0
440
 16777216
370
    -2
100
AcDbLine
 10
1381.95451629386
 20
1650.1454
 30
0.0
 11
1381.95451629386
 21
1612.6454
 31
0.0
  0
LINE
  5
1B9F
330
331
100
AcDbEntity
  8
寸法
 62
     0
440
 16777216
370
    -2
100
AcDbLine
 10
1381.95451629386
 20
1775.1454
 30
0.0
 11
1381.95451629386
 21
1812.6454
 31
0.0
  0
MTEXT
  5
1BA0
330
331
100
AcDbEntity
  8
寸法
 62
     0
440
 16777216
100
AcDbMText
 10
1429.063348184683
 20
1712.576399463839
 30
0.0
 40
37.5
 41
0.0
 46
0.0
 71
     5
 72
     1
  1
50
 11
0.0000000000000001
 21
1.0
 31
0.0
 73
     1
 44
1.0
  0
LINE
  5
1BA1
330
331
100
AcDbEntity
  8
寸法
 62
     0
440
 16777216
370
    -2
100
AcDbLine
 10
1381.95451629386
 20
1687.6454
 30
0.0
 11
1381.95451629386
 21
1737.6454
 31
0.0
  0
SOLID
  5
1BA2
330
331
100
AcDbEntity
  8
寸法
 62
     0
440
 16777216
100
AcDbTrace
 10
1375.70451629386
 20
1650.1454
 30
0.0
 11
1388.20451629386
 21
1650.1454
 31
0.0
 12
1381.95451629386
 22
1687.6454
 32
0.0
 13
1381.95451629386
 23
1687.6454
 33
0.0
  0
SOLID
  5
1BA3
330
331
100
AcDbEntity
  8
寸法
 62
     0
440
 16777216
100
AcDbTrace
 10
1375.70451629386
 20
1775.1454
 30
0.0
 11
1388.20451629386
 21
1775.1454
 31
0.0
 12
1381.95451629386
 22
1737.6454
 32
0.0
 13
1381.95451629386
 23
1737.6454
 33
0.0
  0
POINT
  5
1BA4
330
331
100
AcDbEntity
  8
Defpoints
 62
     0
440
 16777216
100
AcDbPoint
 10
1268.75
 20
1687.6454
 30
0.0
  0
POINT
  5
1BA5
330
331
100
AcDbEntity
  8
Defpoints
 62
     0
440
 16777216
100
AcDbPoint
 10
1270.75
 20
1737.6454
 30
0.0
  0
POINT
  5
1BA6
330
331
100
AcDbEntity
  8
Defpoints
 62
     0
440
 16777216
100
AcDbPoint
 10
1381.95451629386
 20
1737.6454
 30
0.0
  0
ENDBLK
  5
333
330
331
100
AcDbEntity
  8
0
100
AcDbBlockEnd
  0
BLOCK
  5
34E
330
34D
100
AcDbEntity
  8
0
100
AcDbBlockBegin
  2
*D4
 70
     1
 10
0.0
 20
0.0
 30
0.0
  3
*D4
  1

  0
LINE
  5
1BA7
330
34D
100
AcDbEntity
  8
寸法
 62
     0
440
 16777216
370
    -2
100
AcDbLine
 10
708.7500000000001
 20
1663.2704
 30
0.0
 11
708.7500000000001
 21
1569.712823848664
 31
0.0
  0
LINE
  5
1BA8
330
34D
100
AcDbEntity
  8
寸法
 62
     0
440
 16777216
370
    -2
100
AcDbLine
 10
1268.75
 20
1663.2704
 30
0.0
 11
1268.75
 21
1569.712823848664
 31
0.0
  0
LINE
  5
1BA9
330
34D
100
AcDbEntity
  8
寸法
 62
     0
440
 16777216
370
    -2
100
AcDbLine
 10
746.2500000000001
 20
1588.462823848664
 30
0.0
 11
1231.25
 21
1588.462823848664
 31
0.0
  0
SOLID
  5
1BAA
330
34D
100
AcDbEntity
  8
寸法
 62
     0
440
 16777216
100
AcDbTrace
 10
746.2500000000001
 20
1594.712823848664
 30
0.0
 11
746.2500000000001
 21
1582.212823848664
 31
0.0
 12
708.7500000000001
 22
1588.462823848664
 32
0.0
 13
708.7500000000001
 23
1588.462823848664
 33
0.0
  0
SOLID
  5
1BAB
330
34D
100
AcDbEntity
  8
寸法
 62
     0
440
 16777216
100
AcDbTrace
 10
1231.25
 20
1594.712823848664
 30
0.0
 11
1231.25
 21
1582.212823848664
 31
0.0
 12
1268.75
 22
1588.462823848664
 32
0.0
 13
1268.75
 23
1588.462823848664
 33
0.0
  0
MTEXT
  5
1BAC
330
34D
100
AcDbEntity
  8
寸法
 62
     0
440
 16777216
100
AcDbMText
 10
988.7500000000001
 20
1631.587823848664
 30
0.0
 40
37.5
 41
0.0
 46
0.0
 71
     5
 72
     1
  1
560
 73
     1
 44
1.0
  0
POINT
  5
1BAD
330
34D
100
AcDbEntity
  8
Defpoints
 62
     0
440
 16777216
100
AcDbPoint
 10
708.7500000000001
 20
1687.6454
 30
0.0
  0
POINT
  5
1BAE
330
34D
100
AcDbEntity
  8
Defpoints
 62
     0
440
 16777216
100
AcDbPoint
 10
1268.75
 20
1687.6454
 30
0.0
  0
POINT
  5
1BAF
330
34D
100
AcDbEntity
  8
Defpoints
 62
     0
440
 16777216
100
AcDbPoint
 10
1268.75
 20
1588.462823848664
 30
0.0
  0
ENDBLK
  5
34F
330
34D
100
AcDbEntity
  8
0
100
AcDbBlockEnd
  0
BLOCK
  5
3A2
330
3A1
100
AcDbEntity
  8
0
100
AcDbBlockBegin
  2
*D5
 70
     1
 10
0.0
 20
0.0
 30
0.0
  3
*D5
  1

  0
LINE
  5
1B8A
330
3A1
100
AcDbEntity
  8
寸法
 62
     0
440
 16777216
370
    -2
100
AcDbLine
 10
703.7500000000001
 20
1121.875
 30
0.0
 11
703.7500000000001
 21
1193.981152225293
 31
0.0
  0
LINE
  5
1B8B
330
3A1
100
AcDbEntity
  8
寸法
 62
     0
440
 16777216
370
    -2
100
AcDbLine
 10
1273.75
 20
1121.874999999999
 30
0.0
 11
1273.75
 21
1193.981152225293
 31
0.0
  0
LINE
  5
1B8C
330
3A1
100
AcDbEntity
  8
寸法
 62
     0
440
 16777216
370
    -2
100
AcDbLine
 10
741.2500000000001
 20
1175.231152225293
 30
0.0
 11
1236.25
 21
1175.231152225293
 31
0.0
  0
SOLID
  5
1B8D
330
3A1
100
AcDbEntity
  8
寸法
 62
     0
440
 16777216
100
AcDbTrace
 10
741.2500000000001
 20
1181.481152225293
 30
0.0
 11
741.2500000000001
 21
1168.981152225293
 31
0.0
 12
703.7500000000001
 22
1175.231152225293
 32
0.0
 13
703.7500000000001
 23
1175.231152225293
 33
0.0
  0
SOLID
  5
1B8E
330
3A1
100
AcDbEntity
  8
寸法
 62
     0
440
 16777216
100
AcDbTrace
 10
1236.25
 20
1181.481152225293
 30
0.0
 11
1236.25
 21
1168.981152225293
 31
0.0
 12
1273.75
 22
1175.231152225293
 32
0.0
 13
1273.75
 23
1175.231152225293
 33
0.0
  0
MTEXT
  5
1B8F
330
3A1
100
AcDbEntity
  8
寸法
 62
     0
440
 16777216
100
AcDbMText
 10
988.7500000000001
 20
1218.356152225293
 30
0.0
 40
37.5
 41
0.0
 46
0.0
 71
     5
 72
     1
  1
570
 73
     1
 44
1.0
  0
POINT
  5
1B90
330
3A1
100
AcDbEntity
  8
Defpoints
 62
     0
440
 16777216
100
AcDbPoint
 10
703.7500000000001
 20
1097.5
 30
0.0
  0
POINT
  5
1B91
330
3A1
100
AcDbEntity
  8
Defpoints
 62
     0
440
 16777216
100
AcDbPoint
 10
1273.75
 20
1097.499999999999
 30
0.0
  0
POINT
  5
1B92
330
3A1
100
AcDbEntity
  8
Defpoints
 62
     0
440
 16777216
100
AcDbPoint
 10
1273.75
 20
1175.231152225293
 30
0.0
  0
ENDBLK
  5
3A3
330
3A1
100
AcDbEntity
  8
0
100
AcDbBlockEnd
  0
BLOCK
  5
3FB
330
3FA
100
AcDbEntity
  8
0
100
AcDbBlockBegin
  2
*D6
 70
     1
 10
0.0
 20
0.0
 30
0.0
  3
*D6
  1

  0
LINE
  5
19A6
330
3FA
100
AcDbEntity
  8
寸法
 62
     0
440
 16777216
370
    -2
100
AcDbLine
 10
1977.5
 20
1961.875
 30
0.0
 11
1977.5
 21
2065.425807445597
 31
0.0
  0
LINE
  5
19A7
330
3FA
100
AcDbEntity
  8
寸法
 62
     0
440
 16777216
370
    -2
100
AcDbLine
 10
2477.5
 20
1961.875
 30
0.0
 11
2477.5
 21
2065.425807445597
 31
0.0
  0
LINE
  5
19A8
330
3FA
100
AcDbEntity
  8
寸法
 62
     0
440
 16777216
370
    -2
100
AcDbLine
 10
2015.0
 20
2046.675807445597
 30
0.0
 11
2440.0
 21
2046.675807445597
 31
0.0
  0
SOLID
  5
19A9
330
3FA
100
AcDbEntity
  8
寸法
 62
     0
440
 16777216
100
AcDbTrace
 10
2015.0
 20
2052.925807445597
 30
0.0
 11
2015.0
 21
2040.425807445597
 31
0.0
 12
1977.5
 22
2046.675807445597
 32
0.0
 13
1977.5
 23
2046.675807445597
 33
0.0
  0
SOLID
  5
19AA
330
3FA
100
AcDbEntity
  8
寸法
 62
     0
440
 16777216
100
AcDbTrace
 10
2440.0
 20
2052.925807445597
 30
0.0
 11
2440.0
 21
2040.425807445597
 31
0.0
 12
2477.5
 22
2046.675807445597
 32
0.0
 13
2477.5
 23
2046.675807445597
 33
0.0
  0
MTEXT
  5
19AB
330
3FA
100
AcDbEntity
  8
寸法
 62
     0
440
 16777216
100
AcDbMText
 10
2252.500000000001
 20
2089.800807445596
 30
0.0
 40
37.5
 41
0.0
 46
0.0
 71
     5
 72
     1
  1
500
 73
     1
 44
1.0
  0
POINT
  5
19AC
330
3FA
100
AcDbEntity
  8
Defpoints
 62
     0
440
 16777216
100
AcDbPoint
 10
1977.5
 20
1937.5
 30
0.0
  0
POINT
  5
19AD
330
3FA
100
AcDbEntity
  8
Defpoints
 62
     0
440
 16777216
100
AcDbPoint
 10
2477.5
 20
1937.5
 30
0.0
  0
POINT
  5
19AE
330
3FA
100
AcDbEntity
  8
Defpoints
 62
     0
440
 16777216
100
AcDbPoint
 10
2477.5
 20
2046.675807445597
 30
0.0
  0
ENDBLK
  5
3FC
330
3FA
100
AcDbEntity
  8
0
100
AcDbBlockEnd
  0
BLOCK
  5
413
330
412
100
AcDbEntity
  8
0
100
AcDbBlockBegin
  2
*D7
 70
     1
 10
0.0
 20
0.0
 30
0.0
  3
*D7
  1

  0
LINE
  5
1994
330
412
100
AcDbEntity
  8
寸法
 62
     0
440
 16777216
370
    -2
100
AcDbLine
 10
2453.125
 20
2437.5
 30
0.0
 11
2364.375000000001
 21
2437.5
 31
0.0
  0
LINE
  5
1995
330
412
100
AcDbEntity
  8
寸法
 62
     0
440
 16777216
370
    -2
100
AcDbLine
 10
2453.125
 20
1937.5
 30
0.0
 11
2364.375000000001
 21
1937.5
 31
0.0
  0
LINE
  5
1996
330
412
100
AcDbEntity
  8
寸法
 62
     0
440
 16777216
370
    -2
100
AcDbLine
 10
2383.125000000001
 20
2400.0
 30
0.0
 11
2383.125000000001
 21
1974.999999999999
 31
0.0
  0
SOLID
  5
1997
330
412
100
AcDbEntity
  8
寸法
 62
     0
440
 16777216
100
AcDbTrace
 10
2376.875000000001
 20
2400.0
 30
0.0
 11
2389.375000000001
 21
2400.0
 31
0.0
 12
2383.125000000001
 22
2437.5
 32
0.0
 13
2383.125000000001
 23
2437.5
 33
0.0
  0
SOLID
  5
1998
330
412
100
AcDbEntity
  8
寸法
 62
     0
440
 16777216
100
AcDbTrace
 10
2376.875000000001
 20
1974.999999999999
 30
0.0
 11
2389.375000000001
 21
1974.999999999999
 31
0.0
 12
2383.125000000001
 22
1937.5
 32
0.0
 13
2383.125000000001
 23
1937.5
 33
0.0
  0
MTEXT
  5
1999
330
412
100
AcDbEntity
  8
寸法
 62
     0
440
 16777216
100
AcDbMText
 10
2340.000000000001
 20
2212.5
 30
0.0
 40
37.5
 41
0.0
 46
0.0
 71
     5
 72
     1
  1
500
 11
0.0000000000000001
 21
1.0
 31
0.0
 73
     1
 44
1.0
  0
POINT
  5
199A
330
412
100
AcDbEntity
  8
Defpoints
 62
     0
440
 16777216
100
AcDbPoint
 10
2477.5
 20
2437.5
 30
0.0
  0
POINT
  5
199B
330
412
100
AcDbEntity
  8
Defpoints
 62
     0
440
 16777216
100
AcDbPoint
 10
2477.5
 20
1937.5
 30
0.0
  0
POINT
  5
199C
330
412
100
AcDbEntity
  8
Defpoints
 62
     0
440
 16777216
100
AcDbPoint
 10
2383.125000000001
 20
1937.5
 30
0.0
  0
ENDBLK
  5
414
330
412
100
AcDbEntity
  8
0
100
AcDbBlockEnd
  0
BLOCK
  5
456
330
455
100
AcDbEntity
  8
0
100
AcDbBlockBegin
  2
*D8
 70
     1
 10
0.0
 20
0.0
 30
0.0
  3
*D8
  1

  0
LINE
  5
1970
330
455
100
AcDbEntity
  8
寸法
 62
     0
440
 16777216
370
    -2
100
AcDbLine
 10
1877.5
 20
2561.875000000001
 30
0.0
 11
1877.5
 21
2608.883942115673
 31
0.0
  0
LINE
  5
1971
330
455
100
AcDbEntity
  8
寸法
 62
     0
440
 16777216
370
    -2
100
AcDbLine
 10
2577.500000000001
 20
2561.875000000001
 30
0.0
 11
2577.500000000001
 21
2608.883942115673
 31
0.0
  0
LINE
  5
1972
330
455
100
AcDbEntity
  8
寸法
 62
     0
440
 16777216
370
    -2
100
AcDbLine
 10
1915.0
 20
2590.133942115673
 30
0.0
 11
2540.0
 21
2590.133942115673
 31
0.0
  0
SOLID
  5
1973
330
455
100
AcDbEntity
  8
寸法
 62
     0
440
 16777216
100
AcDbTrace
 10
1915.0
 20
2596.383942115673
 30
0.0
 11
1915.0
 21
2583.883942115673
 31
0.0
 12
1877.5
 22
2590.133942115673
 32
0.0
 13
1877.5
 23
2590.133942115673
 33
0.0
  0
SOLID
  5
1974
330
455
100
AcDbEntity
  8
寸法
 62
     0
440
 16777216
100
AcDbTrace
 10
2540.0
 20
2596.383942115673
 30
0.0
 11
2540.0
 21
2583.883942115673
 31
0.0
 12
2577.500000000001
 22
2590.133942115673
 32
0.0
 13
2577.500000000001
 23
2590.133942115673
 33
0.0
  0
MTEXT
  5
1975
330
455
100
AcDbEntity
  8
寸法
 62
     0
440
 16777216
100
AcDbMText
 10
2227.5
 20
2633.258942115673
 30
0.0
 40
37.5
 41
0.0
 46
0.0
 71
     5
 72
     1
  1
700
 73
     1
 44
1.0
  0
POINT
  5
1976
330
455
100
AcDbEntity
  8
Defpoints
 62
     0
440
 16777216
100
AcDbPoint
 10
1877.5
 20
2537.5
 30
0.0
  0
POINT
  5
1977
330
455
100
AcDbEntity
  8
Defpoints
 62
     0
440
 16777216
100
AcDbPoint
 10
2577.500000000001
 20
2537.5
 30
0.0
  0
POINT
  5
1978
330
455
100
AcDbEntity
  8
Defpoints
 62
     0
440
 16777216
100
AcDbPoint
 10
2577.500000000001
 20
2590.133942115673
 30
0.0
  0
ENDBLK
  5
457
330
455
100
AcDbEntity
  8
0
100
AcDbBlockEnd
  0
BLOCK
  5
46E
330
46D
100
AcDbEntity
  8
0
100
AcDbBlockBegin
  2
*D9
 70
     1
 10
0.0
 20
0.0
 30
0.0
  3
*D9
  1

  0
LINE
  5
1979
330
46D
100
AcDbEntity
  8
寸法
 62
     0
440
 16777216
370
    -2
100
AcDbLine
 10
2601.875
 20
2537.5
 30
0.0
 11
2692.919830853607
 21
2537.5
 31
0.0
  0
LINE
  5
197A
330
46D
100
AcDbEntity
  8
寸法
 62
     0
440
 16777216
370
    -2
100
AcDbLine
 10
2601.875
 20
1837.5
 30
0.0
 11
2692.919830853607
 21
1837.5
 31
0.0
  0
LINE
  5
197B
330
46D
100
AcDbEntity
  8
寸法
 62
     0
440
 16777216
370
    -2
100
AcDbLine
 10
2674.169830853607
 20
2500.0
 30
0.0
 11
2674.169830853607
 21
1875.0
 31
0.0
  0
SOLID
  5
197C
330
46D
100
AcDbEntity
  8
寸法
 62
     0
440
 16777216
100
AcDbTrace
 10
2667.919830853607
 20
2500.0
 30
0.0
 11
2680.419830853607
 21
2500.0
 31
0.0
 12
2674.169830853607
 22
2537.5
 32
0.0
 13
2674.169830853607
 23
2537.5
 33
0.0
  0
SOLID
  5
197D
330
46D
100
AcDbEntity
  8
寸法
 62
     0
440
 16777216
100
AcDbTrace
 10
2667.919830853607
 20
1875.0
 30
0.0
 11
2680.419830853607
 21
1875.0
 31
0.0
 12
2674.169830853607
 22
1837.5
 32
0.0
 13
2674.169830853607
 23
1837.5
 33
0.0
  0
MTEXT
  5
197E
330
46D
100
AcDbEntity
  8
寸法
 62
     0
440
 16777216
100
AcDbMText
 10
2631.044830853606
 20
2187.5
 30
0.0
 40
37.5
 41
0.0
 46
0.0
 71
     5
 72
     1
  1
700
 11
0.0000000000000001
 21
1.0
 31
0.0
 73
     1
 44
1.0
  0
POINT
  5
197F
330
46D
100
AcDbEntity
  8
Defpoints
 62
     0
440
 16777216
100
AcDbPoint
 10
2577.500000000001
 20
2537.5
 30
0.0
  0
POINT
  5
1980
330
46D
100
AcDbEntity
  8
Defpoints
 62
     0
440
 16777216
100
AcDbPoint
 10
2577.500000000001
 20
1837.5
 30
0.0
  0
POINT
  5
1981
330
46D
100
AcDbEntity
  8
Defpoints
 62
     0
440
 16777216
100
AcDbPoint
 10
2674.169830853607
 20
1837.5
 30
0.0
  0
ENDBLK
  5
46F
330
46D
100
AcDbEntity
  8
0
100
AcDbBlockEnd
  0
BLOCK
  5
486
330
485
100
AcDbEntity
  8
0
100
AcDbBlockBegin
  2
*D10
 70
     1
 10
0.0
 20
0.0
 30
0.0
  3
*D10
  1

  0
LINE
  5
1BDE
330
485
100
AcDbEntity
  8
寸法
 62
     0
440
 16777216
370
    -2
100
AcDbLine
 10
1937.5
 20
1511.875
 30
0.0
 11
1937.5
 21
1559.128327370962
 31
0.0
  0
LINE
  5
1BDF
330
485
100
AcDbEntity
  8
寸法
 62
     0
440
 16777216
370
    -2
100
AcDbLine
 10
1877.5
 20
1502.875
 30
0.0
 11
1877.5
 21
1559.128327370962
 31
0.0
  0
LINE
  5
1BE0
330
485
100
AcDbEntity
  8
寸法
 62
     0
440
 16777216
370
    -2
100
AcDbLine
 10
1937.5
 20
1540.378327370962
 30
0.0
 11
1975.0
 21
1540.378327370962
 31
0.0
  0
LINE
  5
1BE1
330
485
100
AcDbEntity
  8
寸法
 62
     0
440
 16777216
370
    -2
100
AcDbLine
 10
1840.0
 20
1540.378327370962
 30
0.0
 11
1802.5
 21
1540.378327370962
 31
0.0
  0
MTEXT
  5
1BE2
330
485
100
AcDbEntity
  8
寸法
 62
     0
440
 16777216
100
AcDbMText
 10
1922.56802374535
 20
1587.5
 30
0.0
 40
37.5
 41
0.0
 46
0.0
 71
     5
 72
     1
  1
60
 73
     1
 44
1.0
  0
LINE
  5
1BE3
330
485
100
AcDbEntity
  8
寸法
 62
     0
440
 16777216
370
    -2
100
AcDbLine
 10
1937.5
 20
1540.378327370962
 30
0.0
 11
1877.5
 21
1540.378327370962
 31
0.0
  0
INSERT
  5
1BE4
330
485
100
AcDbEntity
  8
寸法
 62
     0
440
 16777216
370
    -2
100
AcDbBlockReference
  2
_DotSmall
 10
1937.5
 20
1540.378327370962
 30
0.0
 41
37.5
 42
37.5
 43
37.5
 50
180.0
  0
SOLID
  5
1BE5
330
485
100
AcDbEntity
  8
寸法
 62
     0
440
 16777216
100
AcDbTrace
 10
1840.0
 20
1546.628327370962
 30
0.0
 11
1840.0
 21
1534.128327370962
 31
0.0
 12
1877.5
 22
1540.378327370962
 32
0.0
 13
1877.5
 23
1540.378327370962
 33
0.0
  0
POINT
  5
1BE6
330
485
100
AcDbEntity
  8
Defpoints
 62
     0
440
 16777216
100
AcDbPoint
 10
1937.5
 20
1487.5
 30
0.0
  0
POINT
  5
1BE7
330
485
100
AcDbEntity
  8
Defpoints
 62
     0
440
 16777216
100
AcDbPoint
 10
1877.5
 20
1478.5
 30
0.0
  0
POINT
  5
1BE8
330
485
100
AcDbEntity
  8
Defpoints
 62
     0
440
 16777216
100
AcDbPoint
 10
1877.5
 20
1540.378327370962
 30
0.0
  0
ENDBLK
  5
487
330
485
100
AcDbEntity
  8
0
100
AcDbBlockEnd
  0
BLOCK
  5
4A2
330
4A1
100
AcDbEntity
  8
0
100
AcDbBlockBegin
  2
*D11
 70
     1
 10
0.0
 20
0.0
 30
0.0
  3
*D11
  1

  0
LINE
  5
1BE9
330
4A1
100
AcDbEntity
  8
寸法
 62
     0
440
 16777216
370
    -2
100
AcDbLine
 10
2517.5
 20
1511.875000000005
 30
0.0
 11
2517.5
 21
1559.128327370967
 31
0.0
  0
LINE
  5
1BEA
330
4A1
100
AcDbEntity
  8
寸法
 62
     0
440
 16777216
370
    -2
100
AcDbLine
 10
2577.500000000001
 20
1502.875
 30
0.0
 11
2577.500000000001
 21
1559.128327370967
 31
0.0
  0
LINE
  5
1BEB
330
4A1
100
AcDbEntity
  8
寸法
 62
     0
440
 16777216
370
    -2
100
AcDbLine
 10
2517.5
 20
1540.378327370967
 30
0.0
 11
2480.0
 21
1540.378327370967
 31
0.0
  0
LINE
  5
1BEC
330
4A1
100
AcDbEntity
  8
寸法
 62
     0
440
 16777216
370
    -2
100
AcDbLine
 10
2615.0
 20
1540.378327370967
 30
0.0
 11
2652.5
 21
1540.378327370967
 31
0.0
  0
MTEXT
  5
1BED
330
4A1
100
AcDbEntity
  8
寸法
 62
     0
440
 16777216
100
AcDbMText
 10
2532.5
 20
1587.500000000004
 30
0.0
 40
37.5
 41
0.0
 46
0.0
 71
     5
 72
     1
  1
60
 73
     1
 44
1.0
  0
LINE
  5
1BEE
330
4A1
100
AcDbEntity
  8
寸法
 62
     0
440
 16777216
370
    -2
100
AcDbLine
 10
2517.5
 20
1540.378327370967
 30
0.0
 11
2577.500000000001
 21
1540.378327370967
 31
0.0
  0
INSERT
  5
1BEF
330
4A1
100
AcDbEntity
  8
寸法
 62
     0
440
 16777216
370
    -2
100
AcDbBlockReference
  2
_DotSmall
 10
2517.5
 20
1540.378327370967
 30
0.0
 41
37.5
 42
37.5
 43
37.5
  0
SOLID
  5
1BF0
330
4A1
100
AcDbEntity
  8
寸法
 62
     0
440
 16777216
100
AcDbTrace
 10
2615.0
 20
1546.628327370967
 30
0.0
 11
2615.0
 21
1534.128327370967
 31
0.0
 12
2577.500000000001
 22
1540.378327370967
 32
0.0
 13
2577.500000000001
 23
1540.378327370967
 33
0.0
  0
POINT
  5
1BF1
330
4A1
100
AcDbEntity
  8
Defpoints
 62
     0
440
 16777216
100
AcDbPoint
 10
2517.5
 20
1487.500000000004
 30
0.0
  0
POINT
  5
1BF2
330
4A1
100
AcDbEntity
  8
Defpoints
 62
     0
440
 16777216
100
AcDbPoint
 10
2577.500000000001
 20
1478.5
 30
0.0
  0
POINT
  5
1BF3
330
4A1
100
AcDbEntity
  8
Defpoints
 62
     0
440
 16777216
100
AcDbPoint
 10
2577.500000000001
 20
1540.378327370967
 30
0.0
  0
ENDBLK
  5
4A3
330
4A1
100
AcDbEntity
  8
0
100
AcDbBlockEnd
  0
BLOCK
  5
5BA
330
5B9
100
AcDbEntity
  8
0
100
AcDbBlockBegin
  2
*D12
 70
     1
 10
0.0
 20
0.0
 30
0.0
  3
*D12
  1

  0
LINE
  5
1BF4
330
5B9
100
AcDbEntity
  8
寸法
 62
     0
440
 16777216
370
    -2
100
AcDbLine
 10
1937.5
 20
1511.875
 30
0.0
 11
1937.5
 21
1559.128327370962
 31
0.0
  0
LINE
  5
1BF5
330
5B9
100
AcDbEntity
  8
寸法
 62
     0
440
 16777216
370
    -2
100
AcDbLine
 10
1977.5
 20
1511.875
 30
0.0
 11
1977.5
 21
1559.128327370962
 31
0.0
  0
LINE
  5
1BF6
330
5B9
100
AcDbEntity
  8
寸法
 62
     0
440
 16777216
370
    -2
100
AcDbLine
 10
1937.5
 20
1540.378327370962
 30
0.0
 11
1900.0
 21
1540.378327370962
 31
0.0
  0
LINE
  5
1BF7
330
5B9
100
AcDbEntity
  8
寸法
 62
     0
440
 16777216
370
    -2
100
AcDbLine
 10
2015.0
 20
1540.378327370962
 30
0.0
 11
2052.5
 21
1540.378327370962
 31
0.0
  0
MTEXT
  5
1BF8
330
5B9
100
AcDbEntity
  8
寸法
 62
     0
440
 16777216
100
AcDbMText
 10
2047.081875063961
 20
1587.5
 30
0.0
 40
37.5
 41
0.0
 46
0.0
 71
     5
 72
     1
  1
40
 73
     1
 44
1.0
  0
LINE
  5
1BF9
330
5B9
100
AcDbEntity
  8
寸法
 62
     0
440
 16777216
370
    -2
100
AcDbLine
 10
1937.5
 20
1540.378327370962
 30
0.0
 11
1977.5
 21
1540.378327370962
 31
0.0
  0
INSERT
  5
1BFA
330
5B9
100
AcDbEntity
  8
寸法
 62
     0
440
 16777216
370
    -2
100
AcDbBlockReference
  2
_DotSmall
 10
1937.5
 20
1540.378327370962
 30
0.0
 41
37.5
 42
37.5
 43
37.5
  0
SOLID
  5
1BFB
330
5B9
100
AcDbEntity
  8
寸法
 62
     0
440
 16777216
100
AcDbTrace
 10
2015.0
 20
1546.628327370962
 30
0.0
 11
2015.0
 21
1534.128327370962
 31
0.0
 12
1977.5
 22
1540.378327370962
 32
0.0
 13
1977.5
 23
1540.378327370962
 33
0.0
  0
POINT
  5
1BFC
330
5B9
100
AcDbEntity
  8
Defpoints
 62
     0
440
 16777216
100
AcDbPoint
 10
1937.5
 20
1487.5
 30
0.0
  0
POINT
  5
1BFD
330
5B9
100
AcDbEntity
  8
Defpoints
 62
     0
440
 16777216
100
AcDbPoint
 10
1977.5
 20
1487.5
 30
0.0
  0
POINT
  5
1BFE
330
5B9
100
AcDbEntity
  8
Defpoints
 62
     0
440
 16777216
100
AcDbPoint
 10
1977.5
 20
1540.378327370962
 30
0.0
  0
ENDBLK
  5
5BB
330
5B9
100
AcDbEntity
  8
0
100
AcDbBlockEnd
  0
BLOCK
  5
5EC
330
5EA
100
AcDbEntity
  8
0
100
AcDbBlockBegin
  2
_DotSmall
 70
     0
 10
0.0
 20
0.0
 30
0.0
  3
_DotSmall
  1

  0
LWPOLYLINE
  5
5EB
330
5EA
100
AcDbEntity
  8
0
  6
ByBlock
 62
     0
100
AcDbPolyline
 90
        2
 70
     1
 43
0.5
 10
-0.0625
 20
0.0
 42
1.0
 10
0.0625
 20
0.0
 42
1.0
  0
ENDBLK
  5
5ED
330
5EA
100
AcDbEntity
  8
0
100
AcDbBlockEnd
  0
BLOCK
  5
606
330
605
100
AcDbEntity
  8
0
100
AcDbBlockBegin
  2
*D14
 70
     1
 10
0.0
 20
0.0
 30
0.0
  3
*D14
  1

  0
LINE
  5
1BFF
330
605
100
AcDbEntity
  8
寸法
 62
     0
440
 16777216
370
    -2
100
AcDbLine
 10
2517.5
 20
1511.875000000005
 30
0.0
 11
2517.5
 21
1559.128327370967
 31
0.0
  0
LINE
  5
1C00
330
605
100
AcDbEntity
  8
寸法
 62
     0
440
 16777216
370
    -2
100
AcDbLine
 10
2477.500000000001
 20
1511.875000000005
 30
0.0
 11
2477.500000000001
 21
1559.128327370967
 31
0.0
  0
LINE
  5
1C01
330
605
100
AcDbEntity
  8
寸法
 62
     0
440
 16777216
370
    -2
100
AcDbLine
 10
2517.5
 20
1540.378327370967
 30
0.0
 11
2555.000000000001
 21
1540.378327370967
 31
0.0
  0
LINE
  5
1C02
330
605
100
AcDbEntity
  8
寸法
 62
     0
440
 16777216
370
    -2
100
AcDbLine
 10
2440.000000000001
 20
1540.378327370967
 30
0.0
 11
2402.500000000001
 21
1540.378327370967
 31
0.0
  0
MTEXT
  5
1C03
330
605
100
AcDbEntity
  8
寸法
 62
     0
440
 16777216
100
AcDbMText
 10
2411.559577846848
 20
1587.500000000004
 30
0.0
 40
37.5
 41
0.0
 46
0.0
 71
     5
 72
     1
  1
40
 73
     1
 44
1.0
  0
LINE
  5
1C04
330
605
100
AcDbEntity
  8
寸法
 62
     0
440
 16777216
370
    -2
100
AcDbLine
 10
2517.5
 20
1540.378327370967
 30
0.0
 11
2477.500000000001
 21
1540.378327370967
 31
0.0
  0
INSERT
  5
1C05
330
605
100
AcDbEntity
  8
寸法
 62
     0
440
 16777216
370
    -2
100
AcDbBlockReference
  2
_DotSmall
 10
2517.5
 20
1540.378327370967
 30
0.0
 41
37.5
 42
37.5
 43
37.5
 50
180.0
  0
SOLID
  5
1C06
330
605
100
AcDbEntity
  8
寸法
 62
     0
440
 16777216
100
AcDbTrace
 10
2440.000000000001
 20
1546.628327370967
 30
0.0
 11
2440.000000000001
 21
1534.128327370967
 31
0.0
 12
2477.500000000001
 22
1540.378327370967
 32
0.0
 13
2477.500000000001
 23
1540.378327370967
 33
0.0
  0
POINT
  5
1C07
330
605
100
AcDbEntity
  8
Defpoints
 62
     0
440
 16777216
100
AcDbPoint
 10
2517.5
 20
1487.500000000004
 30
0.0
  0
POINT
  5
1C08
330
605
100
AcDbEntity
  8
Defpoints
 62
     0
440
 16777216
100
AcDbPoint
 10
2477.500000000001
 20
1487.500000000004
 30
0.0
  0
POINT
  5
1C09
330
605
100
AcDbEntity
  8
Defpoints
 62
     0
440
 16777216
100
AcDbPoint
 10
2477.500000000001
 20
1540.378327370967
 30
0.0
  0
ENDBLK
  5
607
330
605
100
AcDbEntity
  8
0
100
AcDbBlockEnd
  0
BLOCK
  5
65C
330
65B
100
AcDbEntity
  8
0
100
AcDbBlockBegin
  2
*D15
 70
     1
 10
0.0
 20
0.0
 30
0.0
  3
*D15
  1

  0
LINE
  5
1C0A
330
65B
100
AcDbEntity
  8
寸法
 62
     0
440
 16777216
370
    -2
100
AcDbLine
 10
2601.875
 20
1434.5
 30
0.0
 11
2683.919830853607
 21
1434.5
 31
0.0
  0
LINE
  5
1C0B
330
65B
100
AcDbEntity
  8
寸法
 62
     0
440
 16777216
370
    -2
100
AcDbLine
 10
2622.875
 20
1487.5
 30
0.0
 11
2683.919830853607
 21
1487.5
 31
0.0
  0
LINE
  5
1C0C
330
65B
100
AcDbEntity
  8
寸法
 62
     0
440
 16777216
370
    -2
100
AcDbLine
 10
2665.169830853607
 20
1434.5
 30
0.0
 11
2665.169830853607
 21
1397.0
 31
0.0
  0
LINE
  5
1C0D
330
65B
100
AcDbEntity
  8
寸法
 62
     0
440
 16777216
370
    -2
100
AcDbLine
 10
2665.169830853607
 20
1525.0
 30
0.0
 11
2665.169830853607
 21
1562.5
 31
0.0
  0
MTEXT
  5
1C0E
330
65B
100
AcDbEntity
  8
寸法
 62
     0
440
 16777216
100
AcDbMText
 10
2701.723598709312
 20
1538.853778365397
 30
0.0
 40
37.5
 41
0.0
 46
0.0
 71
     5
 72
     1
  1
53
 11
0.0000000000000001
 21
1.0
 31
0.0
 73
     1
 44
1.0
  0
LINE
  5
1C0F
330
65B
100
AcDbEntity
  8
寸法
 62
     0
440
 16777216
370
    -2
100
AcDbLine
 10
2665.169830853607
 20
1434.5
 30
0.0
 11
2665.169830853607
 21
1487.5
 31
0.0
  0
INSERT
  5
1C10
330
65B
100
AcDbEntity
  8
寸法
 62
     0
440
 16777216
370
    -2
100
AcDbBlockReference
  2
_DotSmall
 10
2665.169830853607
 20
1434.5
 30
0.0
 41
37.5
 42
37.5
 43
37.5
 50
90.0
  0
SOLID
  5
1C11
330
65B
100
AcDbEntity
  8
寸法
 62
     0
440
 16777216
100
AcDbTrace
 10
2658.919830853607
 20
1525.0
 30
0.0
 11
2671.419830853607
 21
1525.0
 31
0.0
 12
2665.169830853607
 22
1487.5
 32
0.0
 13
2665.169830853607
 23
1487.5
 33
0.0
  0
POINT
  5
1C12
330
65B
100
AcDbEntity
  8
Defpoints
 62
     0
440
 16777216
100
AcDbPoint
 10
2577.500000000001
 20
1434.5
 30
0.0
  0
POINT
  5
1C13
330
65B
100
AcDbEntity
  8
Defpoints
 62
     0
440
 16777216
100
AcDbPoint
 10
2598.5
 20
1487.5
 30
0.0
  0
POINT
  5
1C14
330
65B
100
AcDbEntity
  8
Defpoints
 62
     0
440
 16777216
100
AcDbPoint
 10
2665.169830853607
 20
1487.5
 30
0.0
  0
ENDBLK
  5
65D
330
65B
100
AcDbEntity
  8
0
100
AcDbBlockEnd
  0
BLOCK
  5
678
330
677
100
AcDbEntity
  8
0
100
AcDbBlockBegin
  2
*D16
 70
     1
 10
0.0
 20
0.0
 30
0.0
  3
*D16
  1

  0
LINE
  5
1C15
330
677
100
AcDbEntity
  8
寸法
 62
     0
440
 16777216
370
    -2
100
AcDbLine
 10
2601.875
 20
1434.5
 30
0.0
 11
2683.919830853607
 21
1434.5
 31
0.0
  0
LINE
  5
1C16
330
677
100
AcDbEntity
  8
寸法
 62
     0
440
 16777216
370
    -2
100
AcDbLine
 10
2631.875
 20
1387.5
 30
0.0
 11
2683.919830853607
 21
1387.5
 31
0.0
  0
LINE
  5
1C17
330
677
100
AcDbEntity
  8
寸法
 62
     0
440
 16777216
370
    -2
100
AcDbLine
 10
2665.169830853607
 20
1434.5
 30
0.0
 11
2665.169830853607
 21
1472.0
 31
0.0
  0
LINE
  5
1C18
330
677
100
AcDbEntity
  8
寸法
 62
     0
440
 16777216
370
    -2
100
AcDbLine
 10
2665.169830853607
 20
1350.0
 30
0.0
 11
2665.169830853607
 21
1312.5
 31
0.0
  0
MTEXT
  5
1C19
330
677
100
AcDbEntity
  8
寸法
 62
     0
440
 16777216
100
AcDbMText
 10
2702.943612713036
 20
1337.5
 30
0.0
 40
37.5
 41
0.0
 46
0.0
 71
     5
 72
     1
  1
47
 11
0.0000000000000001
 21
1.0
 31
0.0
 73
     1
 44
1.0
  0
LINE
  5
1C1A
330
677
100
AcDbEntity
  8
寸法
 62
     0
440
 16777216
370
    -2
100
AcDbLine
 10
2665.169830853607
 20
1434.5
 30
0.0
 11
2665.169830853607
 21
1387.5
 31
0.0
  0
INSERT
  5
1C1B
330
677
100
AcDbEntity
  8
寸法
 62
     0
440
 16777216
370
    -2
100
AcDbBlockReference
  2
_DotSmall
 10
2665.169830853607
 20
1434.5
 30
0.0
 41
37.5
 42
37.5
 43
37.5
 50
270.0
  0
SOLID
  5
1C1C
330
677
100
AcDbEntity
  8
寸法
 62
     0
440
 16777216
100
AcDbTrace
 10
2658.919830853607
 20
1350.0
 30
0.0
 11
2671.419830853607
 21
1350.0
 31
0.0
 12
2665.169830853607
 22
1387.5
 32
0.0
 13
2665.169830853607
 23
1387.5
 33
0.0
  0
POINT
  5
1C1D
330
677
100
AcDbEntity
  8
Defpoints
 62
     0
440
 16777216
100
AcDbPoint
 10
2577.500000000001
 20
1434.5
 30
0.0
  0
POINT
  5
1C1E
330
677
100
AcDbEntity
  8
Defpoints
 62
     0
440
 16777216
100
AcDbPoint
 10
2607.5
 20
1387.5
 30
0.0
  0
POINT
  5
1C1F
330
677
100
AcDbEntity
  8
Defpoints
 62
     0
440
 16777216
100
AcDbPoint
 10
2665.169830853607
 20
1387.5
 30
0.0
  0
ENDBLK
  5
679
330
677
100
AcDbEntity
  8
0
100
AcDbBlockEnd
  0
BLOCK
  5
6EC
330
6EB
100
AcDbEntity
  8
0
100
AcDbBlockBegin
  2
*D17
 70
     1
 10
0.0
 20
0.0
 30
0.0
  3
*D17
  1

  0
LINE
  5
1C20
330
6EB
100
AcDbEntity
  8
寸法
 62
     0
440
 16777216
370
    -2
100
AcDbLine
 10
2592.875
 20
1487.5
 30
0.0
 11
2764.110073493021
 21
1487.5
 31
0.0
  0
LINE
  5
1C21
330
6EB
100
AcDbEntity
  8
寸法
 62
     0
440
 16777216
370
    -2
100
AcDbLine
 10
2601.875
 20
1387.5
 30
0.0
 11
2764.110073493021
 21
1387.5
 31
0.0
  0
LINE
  5
1C22
330
6EB
100
AcDbEntity
  8
寸法
 62
     0
440
 16777216
370
    -2
100
AcDbLine
 10
2745.360073493021
 20
1525.0
 30
0.0
 11
2745.360073493021
 21
1562.5
 31
0.0
  0
LINE
  5
1C23
330
6EB
100
AcDbEntity
  8
寸法
 62
     0
440
 16777216
370
    -2
100
AcDbLine
 10
2745.360073493021
 20
1350.0
 30
0.0
 11
2745.360073493021
 21
1312.5
 31
0.0
  0
MTEXT
  5
1C24
330
6EB
100
AcDbEntity
  8
寸法
 62
     0
440
 16777216
100
AcDbMText
 10
2779.545211239831
 20
1437.5
 30
0.0
 40
37.5
 41
0.0
 46
0.0
 71
     5
 72
     1
  1
100
 11
0.0000000000000001
 21
1.0
 31
0.0
 73
     1
 44
1.0
  0
LINE
  5
1C25
330
6EB
100
AcDbEntity
  8
寸法
 62
     0
440
 16777216
370
    -2
100
AcDbLine
 10
2745.360073493021
 20
1487.5
 30
0.0
 11
2745.360073493021
 21
1387.5
 31
0.0
  0
SOLID
  5
1C26
330
6EB
100
AcDbEntity
  8
寸法
 62
     0
440
 16777216
100
AcDbTrace
 10
2739.110073493021
 20
1525.0
 30
0.0
 11
2751.610073493021
 21
1525.0
 31
0.0
 12
2745.360073493021
 22
1487.5
 32
0.0
 13
2745.360073493021
 23
1487.5
 33
0.0
  0
SOLID
  5
1C27
330
6EB
100
AcDbEntity
  8
寸法
 62
     0
440
 16777216
100
AcDbTrace
 10
2739.110073493021
 20
1350.0
 30
0.0
 11
2751.610073493021
 21
1350.0
 31
0.0
 12
2745.360073493021
 22
1387.5
 32
0.0
 13
2745.360073493021
 23
1387.5
 33
0.0
  0
POINT
  5
1C28
330
6EB
100
AcDbEntity
  8
Defpoints
 62
     0
440
 16777216
100
AcDbPoint
 10
2568.5
 20
1487.5
 30
0.0
  0
POINT
  5
1C29
330
6EB
100
AcDbEntity
  8
Defpoints
 62
     0
440
 16777216
100
AcDbPoint
 10
2577.500000000001
 20
1387.5
 30
0.0
  0
POINT
  5
1C2A
330
6EB
100
AcDbEntity
  8
Defpoints
 62
     0
440
 16777216
100
AcDbPoint
 10
2745.360073493021
 20
1387.5
 30
0.0
  0
ENDBLK
  5
6ED
330
6EB
100
AcDbEntity
  8
0
100
AcDbBlockEnd
  0
BLOCK
  5
711
330
710
100
AcDbEntity
  8
0
100
AcDbBlockBegin
  2
*D18
 70
     1
 10
0.0
 20
0.0
 30
0.0
  3
*D18
  1

  0
LINE
  5
1A85
330
710
100
AcDbEntity
  8
寸法
 62
     0
440
 16777216
370
    -2
100
AcDbLine
 10
3216.25
 20
2522.037162162163
 30
0.0
 11
3216.25
 21
2649.779970484112
 31
0.0
  0
LINE
  5
1A86
330
710
100
AcDbEntity
  8
寸法
 62
     0
440
 16777216
370
    -2
100
AcDbLine
 10
3156.25
 20
2503.037162162163
 30
0.0
 11
3156.25
 21
2649.779970484112
 31
0.0
  0
LINE
  5
1A87
330
710
100
AcDbEntity
  8
寸法
 62
     0
440
 16777216
370
    -2
100
AcDbLine
 10
3253.75
 20
2631.029970484112
 30
0.0
 11
3291.25
 21
2631.029970484112
 31
0.0
  0
LINE
  5
1A88
330
710
100
AcDbEntity
  8
寸法
 62
     0
440
 16777216
370
    -2
100
AcDbLine
 10
3118.75
 20
2631.029970484112
 30
0.0
 11
3081.25
 21
2631.029970484112
 31
0.0
  0
MTEXT
  5
1A89
330
710
100
AcDbEntity
  8
寸法
 62
     0
440
 16777216
100
AcDbMText
 10
3094.816875989929
 20
2663.252641701453
 30
0.0
 40
37.5
 41
0.0
 46
0.0
 71
     5
 72
     1
  1
60
 73
     1
 44
1.0
  0
LINE
  5
1A8A
330
710
100
AcDbEntity
  8
寸法
 62
     0
440
 16777216
370
    -2
100
AcDbLine
 10
3216.25
 20
2631.029970484112
 30
0.0
 11
3156.25
 21
2631.029970484112
 31
0.0
  0
SOLID
  5
1A8B
330
710
100
AcDbEntity
  8
寸法
 62
     0
440
 16777216
100
AcDbTrace
 10
3253.75
 20
2637.279970484112
 30
0.0
 11
3253.75
 21
2624.779970484112
 31
0.0
 12
3216.25
 22
2631.029970484112
 32
0.0
 13
3216.25
 23
2631.029970484112
 33
0.0
  0
SOLID
  5
1A8C
330
710
100
AcDbEntity
  8
寸法
 62
     0
440
 16777216
100
AcDbTrace
 10
3118.75
 20
2637.279970484112
 30
0.0
 11
3118.75
 21
2624.779970484112
 31
0.0
 12
3156.25
 22
2631.029970484112
 32
0.0
 13
3156.25
 23
2631.029970484112
 33
0.0
  0
POINT
  5
1A8D
330
710
100
AcDbEntity
  8
Defpoints
 62
     0
440
 16777216
100
AcDbPoint
 10
3216.25
 20
2497.662162162163
 30
0.0
  0
POINT
  5
1A8E
330
710
100
AcDbEntity
  8
Defpoints
 62
     0
440
 16777216
100
AcDbPoint
 10
3156.25
 20
2478.662162162163
 30
0.0
  0
POINT
  5
1A8F
330
710
100
AcDbEntity
  8
Defpoints
 62
     0
440
 16777216
100
AcDbPoint
 10
3156.25
 20
2631.029970484112
 30
0.0
  0
ENDBLK
  5
712
330
710
100
AcDbEntity
  8
0
100
AcDbBlockEnd
  0
BLOCK
  5
72D
330
72C
100
AcDbEntity
  8
0
100
AcDbBlockBegin
  2
*D19
 70
     1
 10
0.0
 20
0.0
 30
0.0
  3
*D19
  1

  0
LINE
  5
1A40
330
72C
100
AcDbEntity
  8
寸法
 62
     0
440
 16777216
370
    -2
100
AcDbLine
 10
3716.25
 20
2521.875
 30
0.0
 11
3716.25
 21
2649.61780832195
 31
0.0
  0
LINE
  5
1A41
330
72C
100
AcDbEntity
  8
寸法
 62
     0
440
 16777216
370
    -2
100
AcDbLine
 10
3776.25
 20
2502.875000000001
 30
0.0
 11
3776.25
 21
2649.61780832195
 31
0.0
  0
LINE
  5
1A42
330
72C
100
AcDbEntity
  8
寸法
 62
     0
440
 16777216
370
    -2
100
AcDbLine
 10
3678.75
 20
2630.86780832195
 30
0.0
 11
3641.25
 21
2630.86780832195
 31
0.0
  0
LINE
  5
1A43
330
72C
100
AcDbEntity
  8
寸法
 62
     0
440
 16777216
370
    -2
100
AcDbLine
 10
3813.75
 20
2630.86780832195
 30
0.0
 11
3851.25
 21
2630.86780832195
 31
0.0
  0
MTEXT
  5
1A44
330
72C
100
AcDbEntity
  8
寸法
 62
     0
440
 16777216
100
AcDbMText
 10
3838.875930610097
 20
2659.785587113235
 30
0.0
 40
37.5
 41
0.0
 46
0.0
 71
     5
 72
     1
  1
60
 73
     1
 44
1.0
  0
LINE
  5
1A45
330
72C
100
AcDbEntity
  8
寸法
 62
     0
440
 16777216
370
    -2
100
AcDbLine
 10
3716.25
 20
2630.86780832195
 30
0.0
 11
3776.25
 21
2630.86780832195
 31
0.0
  0
SOLID
  5
1A46
330
72C
100
AcDbEntity
  8
寸法
 62
     0
440
 16777216
100
AcDbTrace
 10
3678.75
 20
2637.11780832195
 30
0.0
 11
3678.75
 21
2624.61780832195
 31
0.0
 12
3716.25
 22
2630.86780832195
 32
0.0
 13
3716.25
 23
2630.86780832195
 33
0.0
  0
SOLID
  5
1A47
330
72C
100
AcDbEntity
  8
寸法
 62
     0
440
 16777216
100
AcDbTrace
 10
3813.75
 20
2637.11780832195
 30
0.0
 11
3813.75
 21
2624.61780832195
 31
0.0
 12
3776.25
 22
2630.86780832195
 32
0.0
 13
3776.25
 23
2630.86780832195
 33
0.0
  0
POINT
  5
1A48
330
72C
100
AcDbEntity
  8
Defpoints
 62
     0
440
 16777216
100
AcDbPoint
 10
3716.25
 20
2497.5
 30
0.0
  0
POINT
  5
1A49
330
72C
100
AcDbEntity
  8
Defpoints
 62
     0
440
 16777216
100
AcDbPoint
 10
3776.25
 20
2478.5
 30
0.0
  0
POINT
  5
1A4A
330
72C
100
AcDbEntity
  8
Defpoints
 62
     0
440
 16777216
100
AcDbPoint
 10
3776.25
 20
2630.86780832195
 30
0.0
  0
ENDBLK
  5
72E
330
72C
100
AcDbEntity
  8
0
100
AcDbBlockEnd
  0
BLOCK
  5
749
330
748
100
AcDbEntity
  8
0
100
AcDbBlockBegin
  2
*D20
 70
     1
 10
0.0
 20
0.0
 30
0.0
  3
*D20
  1

  0
LINE
  5
1A71
330
748
100
AcDbEntity
  8
寸法
 62
     0
440
 16777216
370
    -2
100
AcDbLine
 10
3216.25
 20
2527.875000000001
 30
0.0
 11
3216.25
 21
2649.61780832195
 31
0.0
  0
LINE
  5
1A72
330
748
100
AcDbEntity
  8
寸法
 62
     0
440
 16777216
370
    -2
100
AcDbLine
 10
3716.25
 20
2521.875
 30
0.0
 11
3716.25
 21
2649.61780832195
 31
0.0
  0
LINE
  5
1A73
330
748
100
AcDbEntity
  8
寸法
 62
     0
440
 16777216
370
    -2
100
AcDbLine
 10
3253.75
 20
2630.86780832195
 30
0.0
 11
3678.75
 21
2630.86780832195
 31
0.0
  0
SOLID
  5
1A74
330
748
100
AcDbEntity
  8
寸法
 62
     0
440
 16777216
100
AcDbTrace
 10
3253.75
 20
2637.11780832195
 30
0.0
 11
3253.75
 21
2624.61780832195
 31
0.0
 12
3216.25
 22
2630.86780832195
 32
0.0
 13
3216.25
 23
2630.86780832195
 33
0.0
  0
SOLID
  5
1A75
330
748
100
AcDbEntity
  8
寸法
 62
     0
440
 16777216
100
AcDbTrace
 10
3678.75
 20
2637.11780832195
 30
0.0
 11
3678.75
 21
2624.61780832195
 31
0.0
 12
3716.25
 22
2630.86780832195
 32
0.0
 13
3716.25
 23
2630.86780832195
 33
0.0
  0
MTEXT
  5
1A76
330
748
100
AcDbEntity
  8
寸法
 62
     0
440
 16777216
100
AcDbMText
 10
3466.25
 20
2673.99280832195
 30
0.0
 40
37.5
 41
0.0
 46
0.0
 71
     5
 72
     1
  1
500
 73
     1
 44
1.0
  0
POINT
  5
1A77
330
748
100
AcDbEntity
  8
Defpoints
 62
     0
440
 16777216
100
AcDbPoint
 10
3216.25
 20
2503.500000000001
 30
0.0
  0
POINT
  5
1A78
330
748
100
AcDbEntity
  8
Defpoints
 62
     0
440
 16777216
100
AcDbPoint
 10
3716.25
 20
2497.5
 30
0.0
  0
POINT
  5
1A79
330
748
100
AcDbEntity
  8
Defpoints
 62
     0
440
 16777216
100
AcDbPoint
 10
3716.25
 20
2630.86780832195
 30
0.0
  0
ENDBLK
  5
74A
330
748
100
AcDbEntity
  8
0
100
AcDbBlockEnd
  0
BLOCK
  5
78F
330
78E
100
AcDbEntity
  8
0
100
AcDbBlockBegin
  2
*D21
 70
     1
 10
0.0
 20
0.0
 30
0.0
  3
*D21
  1

  0
LINE
  5
1A90
330
78E
100
AcDbEntity
  8
寸法
 62
     0
440
 16777216
370
    -2
100
AcDbLine
 10
3800.625000000001
 20
2437.5
 30
0.0
 11
3898.300158566474
 21
2437.5
 31
0.0
  0
LINE
  5
1A91
330
78E
100
AcDbEntity
  8
寸法
 62
     0
440
 16777216
370
    -2
100
AcDbLine
 10
3781.625
 20
2497.5
 30
0.0
 11
3898.300158566474
 21
2497.5
 31
0.0
  0
LINE
  5
1A92
330
78E
100
AcDbEntity
  8
寸法
 62
     0
440
 16777216
370
    -2
100
AcDbLine
 10
3879.550158566474
 20
2400.0
 30
0.0
 11
3879.550158566474
 21
2362.5
 31
0.0
  0
LINE
  5
1A93
330
78E
100
AcDbEntity
  8
寸法
 62
     0
440
 16777216
370
    -2
100
AcDbLine
 10
3879.550158566474
 20
2535.0
 30
0.0
 11
3879.550158566474
 21
2572.5
 31
0.0
  0
MTEXT
  5
1A94
330
78E
100
AcDbEntity
  8
寸法
 62
     0
440
 16777216
100
AcDbMText
 10
3848.420502454929
 20
2566.516757952984
 30
0.0
 40
37.5
 41
0.0
 46
0.0
 71
     5
 72
     1
  1
60
 11
0.0000000000000001
 21
1.0
 31
0.0
 73
     1
 44
1.0
  0
LINE
  5
1A95
330
78E
100
AcDbEntity
  8
寸法
 62
     0
440
 16777216
370
    -2
100
AcDbLine
 10
3879.550158566474
 20
2437.5
 30
0.0
 11
3879.550158566474
 21
2497.5
 31
0.0
  0
SOLID
  5
1A96
330
78E
100
AcDbEntity
  8
寸法
 62
     0
440
 16777216
100
AcDbTrace
 10
3873.300158566474
 20
2400.0
 30
0.0
 11
3885.800158566474
 21
2400.0
 31
0.0
 12
3879.550158566474
 22
2437.5
 32
0.0
 13
3879.550158566474
 23
2437.5
 33
0.0
  0
SOLID
  5
1A97
330
78E
100
AcDbEntity
  8
寸法
 62
     0
440
 16777216
100
AcDbTrace
 10
3873.300158566474
 20
2535.0
 30
0.0
 11
3885.800158566474
 21
2535.0
 31
0.0
 12
3879.550158566474
 22
2497.5
 32
0.0
 13
3879.550158566474
 23
2497.5
 33
0.0
  0
POINT
  5
1A98
330
78E
100
AcDbEntity
  8
Defpoints
 62
     0
440
 16777216
100
AcDbPoint
 10
3776.25
 20
2437.5
 30
0.0
  0
POINT
  5
1A99
330
78E
100
AcDbEntity
  8
Defpoints
 62
     0
440
 16777216
100
AcDbPoint
 10
3757.250000000001
 20
2497.5
 30
0.0
  0
POINT
  5
1A9A
330
78E
100
AcDbEntity
  8
Defpoints
 62
     0
440
 16777216
100
AcDbPoint
 10
3879.550158566474
 20
2497.5
 30
0.0
  0
ENDBLK
  5
790
330
78E
100
AcDbEntity
  8
0
100
AcDbBlockEnd
  0
BLOCK
  5
7AB
330
7AA
100
AcDbEntity
  8
0
100
AcDbBlockBegin
  2
*D22
 70
     1
 10
0.0
 20
0.0
 30
0.0
  3
*D22
  1

  0
LINE
  5
1AAD
330
7AA
100
AcDbEntity
  8
寸法
 62
     0
440
 16777216
370
    -2
100
AcDbLine
 10
3800.625
 20
1937.500000000001
 30
0.0
 11
3898.300158566473
 21
1937.500000000001
 31
0.0
  0
LINE
  5
1AAE
330
7AA
100
AcDbEntity
  8
寸法
 62
     0
440
 16777216
370
    -2
100
AcDbLine
 10
3781.624999999999
 20
1877.5
 30
0.0
 11
3898.300158566473
 21
1877.5
 31
0.0
  0
LINE
  5
1AAF
330
7AA
100
AcDbEntity
  8
寸法
 62
     0
440
 16777216
370
    -2
100
AcDbLine
 10
3879.550158566473
 20
1975.000000000001
 30
0.0
 11
3879.550158566473
 21
2012.500000000001
 31
0.0
  0
LINE
  5
1AB0
330
7AA
100
AcDbEntity
  8
寸法
 62
     0
440
 16777216
370
    -2
100
AcDbLine
 10
3879.550158566473
 20
1840.0
 30
0.0
 11
3879.550158566473
 21
1802.5
 31
0.0
  0
MTEXT
  5
1AB1
330
7AA
100
AcDbEntity
  8
寸法
 62
     0
440
 16777216
100
AcDbMText
 10
3845.30752836077
 20
1812.920961906403
 30
0.0
 40
37.5
 41
0.0
 46
0.0
 71
     5
 72
     1
  1
60
 11
0.0000000000000001
 21
1.0
 31
0.0
 73
     1
 44
1.0
  0
LINE
  5
1AB2
330
7AA
100
AcDbEntity
  8
寸法
 62
     0
440
 16777216
370
    -2
100
AcDbLine
 10
3879.550158566473
 20
1937.500000000001
 30
0.0
 11
3879.550158566473
 21
1877.5
 31
0.0
  0
SOLID
  5
1AB3
330
7AA
100
AcDbEntity
  8
寸法
 62
     0
440
 16777216
100
AcDbTrace
 10
3873.300158566473
 20
1975.000000000001
 30
0.0
 11
3885.800158566473
 21
1975.000000000001
 31
0.0
 12
3879.550158566473
 22
1937.500000000001
 32
0.0
 13
3879.550158566473
 23
1937.500000000001
 33
0.0
  0
SOLID
  5
1AB4
330
7AA
100
AcDbEntity
  8
寸法
 62
     0
440
 16777216
100
AcDbTrace
 10
3873.300158566473
 20
1840.0
 30
0.0
 11
3885.800158566473
 21
1840.0
 31
0.0
 12
3879.550158566473
 22
1877.5
 32
0.0
 13
3879.550158566473
 23
1877.5
 33
0.0
  0
POINT
  5
1AB5
330
7AA
100
AcDbEntity
  8
Defpoints
 62
     0
440
 16777216
100
AcDbPoint
 10
3776.249999999999
 20
1937.500000000001
 30
0.0
  0
POINT
  5
1AB6
330
7AA
100
AcDbEntity
  8
Defpoints
 62
     0
440
 16777216
100
AcDbPoint
 10
3757.249999999999
 20
1877.5
 30
0.0
  0
POINT
  5
1AB7
330
7AA
100
AcDbEntity
  8
Defpoints
 62
     0
440
 16777216
100
AcDbPoint
 10
3879.550158566473
 20
1877.5
 30
0.0
  0
ENDBLK
  5
7AC
330
7AA
100
AcDbEntity
  8
0
100
AcDbBlockEnd
  0
BLOCK
  5
800
330
7FF
100
AcDbEntity
  8
0
100
AcDbBlockBegin
  2
*D23
 70
     1
 10
0.0
 20
0.0
 30
0.0
  3
*D23
  1

  0
LINE
  5
1AC1
330
7FF
100
AcDbEntity
  8
寸法
 62
     0
440
 16777216
370
    -2
100
AcDbLine
 10
3800.625000000001
 20
2437.5
 30
0.0
 11
3898.300158566474
 21
2437.5
 31
0.0
  0
LINE
  5
1AC2
330
7FF
100
AcDbEntity
  8
寸法
 62
     0
440
 16777216
370
    -2
100
AcDbLine
 10
3800.625
 20
1937.500000000001
 30
0.0
 11
3898.300158566474
 21
1937.500000000001
 31
0.0
  0
LINE
  5
1AC3
330
7FF
100
AcDbEntity
  8
寸法
 62
     0
440
 16777216
370
    -2
100
AcDbLine
 10
3879.550158566474
 20
2400.0
 30
0.0
 11
3879.550158566474
 21
1975.000000000001
 31
0.0
  0
SOLID
  5
1AC4
330
7FF
100
AcDbEntity
  8
寸法
 62
     0
440
 16777216
100
AcDbTrace
 10
3873.300158566474
 20
2400.0
 30
0.0
 11
3885.800158566474
 21
2400.0
 31
0.0
 12
3879.550158566474
 22
2437.5
 32
0.0
 13
3879.550158566474
 23
2437.5
 33
0.0
  0
SOLID
  5
1AC5
330
7FF
100
AcDbEntity
  8
寸法
 62
     0
440
 16777216
100
AcDbTrace
 10
3873.300158566474
 20
1975.000000000001
 30
0.0
 11
3885.800158566474
 21
1975.000000000001
 31
0.0
 12
3879.550158566474
 22
1937.500000000001
 32
0.0
 13
3879.550158566474
 23
1937.500000000001
 33
0.0
  0
MTEXT
  5
1AC6
330
7FF
100
AcDbEntity
  8
寸法
 62
     0
440
 16777216
100
AcDbMText
 10
3836.425158566473
 20
2187.500000000001
 30
0.0
 40
37.5
 41
0.0
 46
0.0
 71
     5
 72
     1
  1
500
 11
0.0000000000000001
 21
1.0
 31
0.0
 73
     1
 44
1.0
  0
POINT
  5
1AC7
330
7FF
100
AcDbEntity
  8
Defpoints
 62
     0
440
 16777216
100
AcDbPoint
 10
3776.25
 20
2437.5
 30
0.0
  0
POINT
  5
1AC8
330
7FF
100
AcDbEntity
  8
Defpoints
 62
     0
440
 16777216
100
AcDbPoint
 10
3776.249999999999
 20
1937.500000000001
 30
0.0
  0
POINT
  5
1AC9
330
7FF
100
AcDbEntity
  8
Defpoints
 62
     0
440
 16777216
100
AcDbPoint
 10
3879.550158566474
 20
1937.500000000001
 30
0.0
  0
ENDBLK
  5
801
330
7FF
100
AcDbEntity
  8
0
100
AcDbBlockEnd
  0
BLOCK
  5
83C
330
83B
100
AcDbEntity
  8
0
100
AcDbBlockBegin
  2
*D24
 70
     1
 10
0.0
 20
0.0
 30
0.0
  3
*D24
  1

  0
LINE
  5
1A5D
330
83B
100
AcDbEntity
  8
寸法
 62
     0
440
 16777216
370
    -2
100
AcDbLine
 10
3156.25
 20
2502.875000000001
 30
0.0
 11
3156.25
 21
2733.892479652936
 31
0.0
  0
LINE
  5
1A5E
330
83B
100
AcDbEntity
  8
寸法
 62
     0
440
 16777216
370
    -2
100
AcDbLine
 10
3776.25
 20
2502.875000000001
 30
0.0
 11
3776.25
 21
2733.892479652936
 31
0.0
  0
LINE
  5
1A5F
330
83B
100
AcDbEntity
  8
寸法
 62
     0
440
 16777216
370
    -2
100
AcDbLine
 10
3193.75
 20
2715.142479652936
 30
0.0
 11
3738.75
 21
2715.142479652936
 31
0.0
  0
SOLID
  5
1A60
330
83B
100
AcDbEntity
  8
寸法
 62
     0
440
 16777216
100
AcDbTrace
 10
3193.75
 20
2721.392479652936
 30
0.0
 11
3193.75
 21
2708.892479652936
 31
0.0
 12
3156.25
 22
2715.142479652936
 32
0.0
 13
3156.25
 23
2715.142479652936
 33
0.0
  0
SOLID
  5
1A61
330
83B
100
AcDbEntity
  8
寸法
 62
     0
440
 16777216
100
AcDbTrace
 10
3738.75
 20
2721.392479652936
 30
0.0
 11
3738.75
 21
2708.892479652936
 31
0.0
 12
3776.25
 22
2715.142479652936
 32
0.0
 13
3776.25
 23
2715.142479652936
 33
0.0
  0
MTEXT
  5
1A62
330
83B
100
AcDbEntity
  8
寸法
 62
     0
440
 16777216
100
AcDbMText
 10
3466.25
 20
2758.267479652936
 30
0.0
 40
37.5
 41
0.0
 46
0.0
 71
     5
 72
     1
  1
620
 73
     1
 44
1.0
  0
POINT
  5
1A63
330
83B
100
AcDbEntity
  8
Defpoints
 62
     0
440
 16777216
100
AcDbPoint
 10
3156.25
 20
2478.5
 30
0.0
  0
POINT
  5
1A64
330
83B
100
AcDbEntity
  8
Defpoints
 62
     0
440
 16777216
100
AcDbPoint
 10
3776.25
 20
2478.5
 30
0.0
  0
POINT
  5
1A65
330
83B
100
AcDbEntity
  8
Defpoints
 62
     0
440
 16777216
100
AcDbPoint
 10
3776.25
 20
2715.142479652936
 30
0.0
  0
ENDBLK
  5
83D
330
83B
100
AcDbEntity
  8
0
100
AcDbBlockEnd
  0
BLOCK
  5
849
330
848
100
AcDbEntity
  8
0
100
AcDbBlockBegin
  2
*D25
 70
     1
 10
0.0
 20
0.0
 30
0.0
  3
*D25
  1

  0
LINE
  5
1ACA
330
848
100
AcDbEntity
  8
寸法
 62
     0
440
 16777216
370
    -2
100
AcDbLine
 10
3781.625
 20
2497.5
 30
0.0
 11
3992.726784932495
 21
2497.5
 31
0.0
  0
LINE
  5
1ACB
330
848
100
AcDbEntity
  8
寸法
 62
     0
440
 16777216
370
    -2
100
AcDbLine
 10
3781.624999999999
 20
1877.5
 30
0.0
 11
3992.726784932495
 21
1877.5
 31
0.0
  0
LINE
  5
1ACC
330
848
100
AcDbEntity
  8
寸法
 62
     0
440
 16777216
370
    -2
100
AcDbLine
 10
3973.976784932495
 20
2460.0
 30
0.0
 11
3973.976784932495
 21
1915.0
 31
0.0
  0
SOLID
  5
1ACD
330
848
100
AcDbEntity
  8
寸法
 62
     0
440
 16777216
100
AcDbTrace
 10
3967.726784932495
 20
2460.0
 30
0.0
 11
3980.226784932495
 21
2460.0
 31
0.0
 12
3973.976784932495
 22
2497.5
 32
0.0
 13
3973.976784932495
 23
2497.5
 33
0.0
  0
SOLID
  5
1ACE
330
848
100
AcDbEntity
  8
寸法
 62
     0
440
 16777216
100
AcDbTrace
 10
3967.726784932495
 20
1915.0
 30
0.0
 11
3980.226784932495
 21
1915.0
 31
0.0
 12
3973.976784932495
 22
1877.5
 32
0.0
 13
3973.976784932495
 23
1877.5
 33
0.0
  0
MTEXT
  5
1ACF
330
848
100
AcDbEntity
  8
寸法
 62
     0
440
 16777216
100
AcDbMText
 10
3930.851784932495
 20
2187.500000000001
 30
0.0
 40
37.5
 41
0.0
 46
0.0
 71
     5
 72
     1
  1
620
 11
0.0000000000000001
 21
1.0
 31
0.0
 73
     1
 44
1.0
  0
POINT
  5
1AD0
330
848
100
AcDbEntity
  8
Defpoints
 62
     0
440
 16777216
100
AcDbPoint
 10
3757.250000000001
 20
2497.5
 30
0.0
  0
POINT
  5
1AD1
330
848
100
AcDbEntity
  8
Defpoints
 62
     0
440
 16777216
100
AcDbPoint
 10
3757.249999999999
 20
1877.5
 30
0.0
  0
POINT
  5
1AD2
330
848
100
AcDbEntity
  8
Defpoints
 62
     0
440
 16777216
100
AcDbPoint
 10
3973.976784932495
 20
1877.5
 30
0.0
  0
ENDBLK
  5
84A
330
848
100
AcDbEntity
  8
0
100
AcDbBlockEnd
  0
BLOCK
  5
95A
330
959
100
AcDbEntity
  8
0
100
AcDbBlockBegin
  2
*D26
 70
     1
 10
0.0
 20
0.0
 30
0.0
  3
*D26
  1

  0
LINE
  5
1AF2
330
959
100
AcDbEntity
  8
寸法
 62
     0
440
 16777216
370
    -2
100
AcDbLine
 10
3799.999999999999
 20
1587.5
 30
0.0
 11
3897.675158566472
 21
1587.5
 31
0.0
  0
LINE
  5
1AF3
330
959
100
AcDbEntity
  8
寸法
 62
     0
440
 16777216
370
    -2
100
AcDbLine
 10
3799.999999999999
 20
1287.5
 30
0.0
 11
3897.675158566472
 21
1287.5
 31
0.0
  0
LINE
  5
1AF4
330
959
100
AcDbEntity
  8
寸法
 62
     0
440
 16777216
370
    -2
100
AcDbLine
 10
3878.925158566472
 20
1550.0
 30
0.0
 11
3878.925158566472
 21
1325.0
 31
0.0
  0
SOLID
  5
1AF5
330
959
100
AcDbEntity
  8
寸法
 62
     0
440
 16777216
100
AcDbTrace
 10
3872.675158566472
 20
1550.0
 30
0.0
 11
3885.175158566472
 21
1550.0
 31
0.0
 12
3878.925158566472
 22
1587.5
 32
0.0
 13
3878.925158566472
 23
1587.5
 33
0.0
  0
SOLID
  5
1AF6
330
959
100
AcDbEntity
  8
寸法
 62
     0
440
 16777216
100
AcDbTrace
 10
3872.675158566472
 20
1325.0
 30
0.0
 11
3885.175158566472
 21
1325.0
 31
0.0
 12
3878.925158566472
 22
1287.5
 32
0.0
 13
3878.925158566472
 23
1287.5
 33
0.0
  0
MTEXT
  5
1AF7
330
959
100
AcDbEntity
  8
寸法
 62
     0
440
 16777216
100
AcDbMText
 10
3835.800158566473
 20
1437.500000000001
 30
0.0
 40
37.5
 41
0.0
 46
0.0
 71
     5
 72
     1
  1
300
 11
0.0000000000000001
 21
1.0
 31
0.0
 73
     1
 44
1.0
  0
POINT
  5
1AF8
330
959
100
AcDbEntity
  8
Defpoints
 62
     0
440
 16777216
100
AcDbPoint
 10
3775.625
 20
1587.5
 30
0.0
  0
POINT
  5
1AF9
330
959
100
AcDbEntity
  8
Defpoints
 62
     0
440
 16777216
100
AcDbPoint
 10
3775.625
 20
1287.5
 30
0.0
  0
POINT
  5
1AFA
330
959
100
AcDbEntity
  8
Defpoints
 62
     0
440
 16777216
100
AcDbPoint
 10
3878.925158566472
 20
1287.5
 30
0.0
  0
ENDBLK
  5
95B
330
959
100
AcDbEntity
  8
0
100
AcDbBlockEnd
  0
BLOCK
  5
972
330
971
100
AcDbEntity
  8
0
100
AcDbBlockBegin
  2
*D27
 70
     1
 10
0.0
 20
0.0
 30
0.0
  3
*D27
  1

  0
LINE
  5
1B2D
330
971
100
AcDbEntity
  8
寸法
 62
     0
440
 16777216
370
    -2
100
AcDbLine
 10
3800.625
 20
987.5
 30
0.0
 11
3897.675158566472
 21
987.4999999999998
 31
0.0
  0
LINE
  5
1B2E
330
971
100
AcDbEntity
  8
寸法
 62
     0
440
 16777216
370
    -2
100
AcDbLine
 10
3800.625
 20
837.5
 30
0.0
 11
3897.675158566472
 21
837.4999999999998
 31
0.0
  0
LINE
  5
1B2F
330
971
100
AcDbEntity
  8
寸法
 62
     0
440
 16777216
370
    -2
100
AcDbLine
 10
3878.925158566472
 20
949.9999999999998
 30
0.0
 11
3878.925158566472
 21
874.9999999999998
 31
0.0
  0
SOLID
  5
1B30
330
971
100
AcDbEntity
  8
寸法
 62
     0
440
 16777216
100
AcDbTrace
 10
3872.675158566472
 20
949.9999999999998
 30
0.0
 11
3885.175158566472
 21
949.9999999999998
 31
0.0
 12
3878.925158566472
 22
987.4999999999998
 32
0.0
 13
3878.925158566472
 23
987.4999999999998
 33
0.0
  0
SOLID
  5
1B31
330
971
100
AcDbEntity
  8
寸法
 62
     0
440
 16777216
100
AcDbTrace
 10
3872.675158566472
 20
874.9999999999998
 30
0.0
 11
3885.175158566472
 21
874.9999999999998
 31
0.0
 12
3878.925158566472
 22
837.4999999999998
 32
0.0
 13
3878.925158566472
 23
837.4999999999998
 33
0.0
  0
MTEXT
  5
1B32
330
971
100
AcDbEntity
  8
寸法
 62
     0
440
 16777216
100
AcDbMText
 10
3835.800158566473
 20
912.5000000000005
 30
0.0
 40
37.5
 41
0.0
 46
0.0
 71
     5
 72
     1
  1
150
 11
0.0000000000000001
 21
1.0
 31
0.0
 73
     1
 44
1.0
  0
POINT
  5
1B33
330
971
100
AcDbEntity
  8
Defpoints
 62
     0
440
 16777216
100
AcDbPoint
 10
3776.249999999999
 20
987.5
 30
0.0
  0
POINT
  5
1B34
330
971
100
AcDbEntity
  8
Defpoints
 62
     0
440
 16777216
100
AcDbPoint
 10
3776.249999999999
 20
837.5
 30
0.0
  0
POINT
  5
1B35
330
971
100
AcDbEntity
  8
Defpoints
 62
     0
440
 16777216
100
AcDbPoint
 10
3878.925158566472
 20
837.4999999999998
 30
0.0
  0
ENDBLK
  5
973
330
971
100
AcDbEntity
  8
0
100
AcDbBlockEnd
  0
BLOCK
  5
1804
330
1803
100
AcDbEntity
  8
0
100
AcDbBlockBegin
  2
*D28
 70
     1
 10
0.0
 20
0.0
 30
0.0
  3
*D28
  1

  0
LINE
  5
181D
330
1803
100
AcDbEntity
  8
寸法
 62
     0
440
 16777216
370
    -2
100
AcDbLine
 10
1293.125
 20
312.5
 30
0.0
 11
1400.70451629386
 21
312.5
 31
0.0
  0
LINE
  5
181E
330
1803
100
AcDbEntity
  8
寸法
 62
     0
440
 16777216
370
    -2
100
AcDbLine
 10
1295.125
 20
362.5
 30
0.0
 11
1400.70451629386
 21
362.5
 31
0.0
  0
LINE
  5
181F
330
1803
100
AcDbEntity
  8
寸法
 62
     0
440
 16777216
370
    -2
100
AcDbLine
 10
1381.95451629386
 20
275.0
 30
0.0
 11
1381.95451629386
 21
237.5
 31
0.0
  0
LINE
  5
1820
330
1803
100
AcDbEntity
  8
寸法
 62
     0
440
 16777216
370
    -2
100
AcDbLine
 10
1381.95451629386
 20
400.0
 30
0.0
 11
1381.95451629386
 21
437.5
 31
0.0
  0
MTEXT
  5
1821
330
1803
100
AcDbEntity
  8
寸法
 62
     0
440
 16777216
100
AcDbMText
 10
1429.063348184683
 20
337.4309994638388
 30
0.0
 40
37.5
 41
0.0
 46
0.0
 71
     5
 72
     1
  1
50
 11
0.0000000000000001
 21
1.0
 31
0.0
 73
     1
 44
1.0
  0
LINE
  5
1822
330
1803
100
AcDbEntity
  8
寸法
 62
     0
440
 16777216
370
    -2
100
AcDbLine
 10
1381.95451629386
 20
312.5
 30
0.0
 11
1381.95451629386
 21
362.5
 31
0.0
  0
SOLID
  5
1823
330
1803
100
AcDbEntity
  8
寸法
 62
     0
440
 16777216
100
AcDbTrace
 10
1375.70451629386
 20
275.0
 30
0.0
 11
1388.20451629386
 21
275.0
 31
0.0
 12
1381.95451629386
 22
312.5
 32
0.0
 13
1381.95451629386
 23
312.5
 33
0.0
  0
SOLID
  5
1824
330
1803
100
AcDbEntity
  8
寸法
 62
     0
440
 16777216
100
AcDbTrace
 10
1375.70451629386
 20
400.0
 30
0.0
 11
1388.20451629386
 21
400.0
 31
0.0
 12
1381.95451629386
 22
362.5
 32
0.0
 13
1381.95451629386
 23
362.5
 33
0.0
  0
POINT
  5
1825
330
1803
100
AcDbEntity
  8
Defpoints
 62
     0
440
 16777216
100
AcDbPoint
 10
1268.75
 20
312.5
 30
0.0
  0
POINT
  5
1826
330
1803
100
AcDbEntity
  8
Defpoints
 62
     0
440
 16777216
100
AcDbPoint
 10
1270.75
 20
362.5
 30
0.0
  0
POINT
  5
1827
330
1803
100
AcDbEntity
  8
Defpoints
 62
     0
440
 16777216
100
AcDbPoint
 10
1381.95451629386
 20
362.5
 30
0.0
  0
ENDBLK
  5
1805
330
1803
100
AcDbEntity
  8
0
100
AcDbBlockEnd
  0
BLOCK
  5
1812
330
1811
100
AcDbEntity
  8
0
100
AcDbBlockBegin
  2
*D29
 70
     1
 10
0.0
 20
0.0
 30
0.0
  3
*D29
  1

  0
LINE
  5
1828
330
1811
100
AcDbEntity
  8
寸法
 62
     0
440
 16777216
370
    -2
100
AcDbLine
 10
708.75
 20
288.125
 30
0.0
 11
708.75
 21
194.5674238486642
 31
0.0
  0
LINE
  5
1829
330
1811
100
AcDbEntity
  8
寸法
 62
     0
440
 16777216
370
    -2
100
AcDbLine
 10
1268.75
 20
288.125
 30
0.0
 11
1268.75
 21
194.5674238486642
 31
0.0
  0
LINE
  5
182A
330
1811
100
AcDbEntity
  8
寸法
 62
     0
440
 16777216
370
    -2
100
AcDbLine
 10
746.25
 20
213.3174238486642
 30
0.0
 11
1231.25
 21
213.3174238486642
 31
0.0
  0
SOLID
  5
182B
330
1811
100
AcDbEntity
  8
寸法
 62
     0
440
 16777216
100
AcDbTrace
 10
746.25
 20
219.5674238486642
 30
0.0
 11
746.25
 21
207.0674238486642
 31
0.0
 12
708.75
 22
213.3174238486642
 32
0.0
 13
708.75
 23
213.3174238486642
 33
0.0
  0
SOLID
  5
182C
330
1811
100
AcDbEntity
  8
寸法
 62
     0
440
 16777216
100
AcDbTrace
 10
1231.25
 20
219.5674238486642
 30
0.0
 11
1231.25
 21
207.0674238486642
 31
0.0
 12
1268.75
 22
213.3174238486642
 32
0.0
 13
1268.75
 23
213.3174238486642
 33
0.0
  0
MTEXT
  5
182D
330
1811
100
AcDbEntity
  8
寸法
 62
     0
440
 16777216
100
AcDbMText
 10
988.7499999999999
 20
256.4424238486643
 30
0.0
 40
37.5
 41
0.0
 46
0.0
 71
     5
 72
     1
  1
560
 73
     1
 44
1.0
  0
POINT
  5
182E
330
1811
100
AcDbEntity
  8
Defpoints
 62
     0
440
 16777216
100
AcDbPoint
 10
708.75
 20
312.5
 30
0.0
  0
POINT
  5
182F
330
1811
100
AcDbEntity
  8
Defpoints
 62
     0
440
 16777216
100
AcDbPoint
 10
1268.75
 20
312.5
 30
0.0
  0
POINT
  5
1830
330
1811
100
AcDbEntity
  8
Defpoints
 62
     0
440
 16777216
100
AcDbPoint
 10
1268.75
 20
213.3174238486642
 30
0.0
  0
ENDBLK
  5
1813
330
1811
100
AcDbEntity
  8
0
100
AcDbBlockEnd
  0
BLOCK
  5
1833
330
1832
100
AcDbEntity
  8
0
100
AcDbBlockBegin
  2
*D30
 70
     1
 10
0.0
 20
0.0
 30
0.0
  3
*D30
  1

  0
LINE
  5
1B93
330
1832
100
AcDbEntity
  8
寸法
 62
     0
440
 16777216
370
    -2
100
AcDbLine
 10
1298.125
 20
1097.499999999999
 30
0.0
 11
1399.704516293861
 21
1097.499999999999
 31
0.0
  0
LINE
  5
1B94
330
1832
100
AcDbEntity
  8
寸法
 62
     0
440
 16777216
370
    -2
100
AcDbLine
 10
1298.125
 20
527.4999999999994
 30
0.0
 11
1399.704516293861
 21
527.4999999999994
 31
0.0
  0
LINE
  5
1B95
330
1832
100
AcDbEntity
  8
寸法
 62
     0
440
 16777216
370
    -2
100
AcDbLine
 10
1380.954516293861
 20
1059.999999999999
 30
0.0
 11
1380.954516293861
 21
564.9999999999994
 31
0.0
  0
SOLID
  5
1B96
330
1832
100
AcDbEntity
  8
寸法
 62
     0
440
 16777216
100
AcDbTrace
 10
1374.70451629386
 20
1059.999999999999
 30
0.0
 11
1387.20451629386
 21
1059.999999999999
 31
0.0
 12
1380.954516293861
 22
1097.499999999999
 32
0.0
 13
1380.954516293861
 23
1097.499999999999
 33
0.0
  0
SOLID
  5
1B97
330
1832
100
AcDbEntity
  8
寸法
 62
     0
440
 16777216
100
AcDbTrace
 10
1374.70451629386
 20
564.9999999999994
 30
0.0
 11
1387.20451629386
 21
564.9999999999994
 31
0.0
 12
1380.954516293861
 22
527.4999999999994
 32
0.0
 13
1380.954516293861
 23
527.4999999999994
 33
0.0
  0
MTEXT
  5
1B98
330
1832
100
AcDbEntity
  8
寸法
 62
     0
440
 16777216
100
AcDbMText
 10
1337.82951629386
 20
812.4999999999996
 30
0.0
 40
37.5
 41
0.0
 46
0.0
 71
     5
 72
     1
  1
570
 11
0.0000000000000001
 21
1.0
 31
0.0
 73
     1
 44
1.0
  0
POINT
  5
1B99
330
1832
100
AcDbEntity
  8
Defpoints
 62
     0
440
 16777216
100
AcDbPoint
 10
1273.75
 20
1097.499999999999
 30
0.0
  0
POINT
  5
1B9A
330
1832
100
AcDbEntity
  8
Defpoints
 62
     0
440
 16777216
100
AcDbPoint
 10
1273.75
 20
527.4999999999995
 30
0.0
  0
POINT
  5
1B9B
330
1832
100
AcDbEntity
  8
Defpoints
 62
     0
440
 16777216
100
AcDbPoint
 10
1380.954516293861
 20
527.4999999999994
 30
0.0
  0
ENDBLK
  5
1834
330
1832
100
AcDbEntity
  8
0
100
AcDbBlockEnd
  0
ENDSEC
  0
SECTION
  2
ENTITIES
  0
LWPOLYLINE
  5
9A
330
67
100
AcDbEntity
  8
用紙
100
AcDbPolyline
 90
        4
 70
     1
 43
0.0
 10
0.0
 20
0.0
 10
4455.0
 20
0.0
 10
4455.0
 20
3150.0
 10
0.0
 20
3150.0
  0
LWPOLYLINE
  5
9B
330
67
100
AcDbEntity
  8
輪郭
100
AcDbPolyline
 90
        4
 70
     1
 43
0.0
 10
150.0
 20
150.0
 10
4305.0
 20
150.0
 10
4305.0
 20
3000.0
 10
150.0
 20
3000.0
  0
LINE
  5
C4
330
67
100
AcDbEntity
  8
表題
100
AcDbLine
 10
3030.0
 20
150.0
 30
0.0
 11
4305.0
 21
150.0
 31
0.0
  0
LINE
  5
C5
330
67
100
AcDbEntity
  8
表題
100
AcDbLine
 10
4305.0
 20
150.0
 30
0.0
 11
4305.0
 21
525.0
 31
0.0
  0
LINE
  5
C6
330
67
100
AcDbEntity
  8
表題
100
AcDbLine
 10
4079.999999999999
 20
225.0
 30
0.0
 11
4079.999999999999
 21
375.0
 31
0.0
  0
LINE
  5
C7
330
67
100
AcDbEntity
  8
表題
100
AcDbLine
 10
3855.0
 20
225.0
 30
0.0
 11
3855.0
 21
375.0
 31
0.0
  0
LINE
  5
C8
330
67
100
AcDbEntity
  8
表題
100
AcDbLine
 10
4305.0
 20
525.0
 30
0.0
 11
3030.0
 21
525.0
 31
0.0
  0
LINE
  5
C9
330
67
100
AcDbEntity
  8
表題
100
AcDbLine
 10
4305.0
 20
375.0
 30
0.0
 11
3030.0
 21
375.0
 31
0.0
  0
LINE
  5
CA
330
67
100
AcDbEntity
  8
表題
100
AcDbLine
 10
4305.0
 20
300.0
 30
0.0
 11
3030.0
 21
300.0
 31
0.0
  0
LINE
  5
CB
330
67
100
AcDbEntity
  8
表題
100
AcDbLine
 10
4305.0
 20
225.0
 30
0.0
 11
3030.0
 21
225.0
 31
0.0
  0
LINE
  5
CC
330
67
100
AcDbEntity
  8
表題
100
AcDbLine
 10
3030.0
 20
525.0
 30
0.0
 11
3030.0
 21
150.0
 31
0.0
  0
LINE
  5
CD
330
67
100
AcDbEntity
  8
表題
100
AcDbLine
 10
3255.0
 20
525.0
 30
0.0
 11
3255.0
 21
375.0
 31
0.0
  0
TEXT
  5
CE
330
67
100
AcDbEntity
  8
表題
100
AcDbText
 10
3054.784263959391
 20
427.5
 30
0.0
 40
45.0
  1
製品名
  7
文字
 72
     1
 11
3142.5
 21
450.0
 31
0.0
100
AcDbText
 73
     2
  0
TEXT
  5
CF
330
67
100
AcDbEntity
  8
表題
100
AcDbText
 10
3429.137055837563
 20
427.5
 30
0.0
 40
45.0
  1
特殊改良ます　ＣＤ５００
  7
文字
 72
     1
 11
3780.0
 21
450.0
 31
0.0
100
AcDbText
 73
     2
  0
TEXT
  5
D0
330
67
100
AcDbEntity
  8
表題
100
AcDbText
 10
3237.829949238578
 20
315.0
 30
0.0
 40
45.0
  1
図　面　番　号
  7
文字
 72
     1
 11
3442.499999999999
 21
337.5
 31
0.0
100
AcDbText
 73
     2
  0
TEXT
  5
D1
330
67
100
AcDbEntity
  8
表題
100
AcDbText
 10
3909.022842639592
 20
315.0
 30
0.0
 40
45.0
  1
担当
  7
文字
 72
     1
 11
3967.499999999999
 21
337.5
 31
0.0
100
AcDbText
 73
     2
  0
TEXT
  5
D2
330
67
100
AcDbEntity
  8
表題
100
AcDbText
 10
4119.403553299492
 20
240.0
 30
0.0
 40
45.0
  1
1：15
  7
文字
 72
     1
 11
4192.5
 21
262.5
 31
0.0
100
AcDbText
 73
     2
  0
TEXT
  5
D3
330
67
100
AcDbEntity
  8
表題
100
AcDbText
 10
3433.591370558376
 20
165.0
 30
0.0
 40
45.0
  1
大生建材株式会社
  7
文字
 72
     1
 11
3667.5
 21
187.5
 31
0.0
100
AcDbText
 73
     2
  0
TEXT
  5
D4
330
67
100
AcDbEntity
  8
表題
100
AcDbText
 10
4134.022842639594
 20
315.0
 30
0.0
 40
45.0
  1
尺度
  7
文字
 72
     1
 11
4192.5
 21
337.5
 31
0.0
100
AcDbText
 73
     2
  0
LINE
  5
172
330
67
100
AcDbEntity
  8
製品
100
AcDbLine
 10
708.7500000000001
 20
1687.6454
 30
0.0
 11
703.7500000000001
 21
1734.6454
 31
0.0
  0
LINE
  5
176
330
67
100
AcDbEntity
  8
製品
100
AcDbLine
 10
1273.75
 20
1734.6454
 30
0.0
 11
1268.75
 21
1687.6454
 31
0.0
  0
LINE
  5
177
102
{ACAD_REACTORS
330
34B
330
363
102
}
330
67
100
AcDbEntity
  8
製品
100
AcDbLine
 10
1268.75
 20
1687.6454
 30
0.0
 11
708.7500000000001
 21
1687.6454
 31
0.0
  0
LINE
  5
181
330
67
100
AcDbEntity
  8
製品2
100
AcDbLine
 10
703.7500000000002
 20
1734.645399999999
 30
0.0
 11
1273.75
 21
1734.6454
 31
0.0
  0
TEXT
  5
235
330
67
100
AcDbEntity
  8
文字
100
AcDbText
 10
919.7875034091451
 20
2846.818145241389
 30
0.0
 40
35.0
  1
汚　蓋
  7
文字
 72
     1
 11
988.0108536629522
 21
2864.318145241389
 31
0.0
100
AcDbText
 73
     2
  0
TEXT
  5
236
330
67
100
AcDbEntity
  8
文字
100
AcDbText
 10
919.7875034091451
 20
1425.681477394537
 30
0.0
 40
35.0
  1
雨　蓋
  7
文字
 72
     1
 11
988.0108536629522
 21
1443.181477394537
 31
0.0
100
AcDbText
 73
     2
  0
TEXT
  5
240
330
67
100
AcDbEntity
  8
文字
100
AcDbText
 10
828.8230364040691
 20
2746.818145241388
 30
0.0
 40
35.0
  1
参考重量　38kg
  7
文字
 72
     1
 11
988.0108536629522
 21
2764.318145241388
 31
0.0
100
AcDbText
 73
     2
  0
TEXT
  5
241
330
67
100
AcDbEntity
  8
文字
100
AcDbText
 10
828.8230364040691
 20
1326.927292807972
 30
0.0
 40
35.0
  1
参考重量　38kg
  7
文字
 72
     1
 11
988.0108536629522
 21
1344.427292807972
 31
0.0
100
AcDbText
 73
     2
  0
LINE
  5
24E
330
67
100
AcDbEntity
  8
製品
100
AcDbLine
 10
1886.5
 20
1487.5
 30
0.0
 11
2568.500000000001
 21
1487.5
 31
0.0
  0
LINE
  5
24F
330
67
100
AcDbEntity
  8
製品
100
AcDbLine
 10
2577.500000000001
 20
1478.5
 30
0.0
 11
2577.500000000001
 21
1387.5
 31
0.0
  0
LINE
  5
250
330
67
100
AcDbEntity
  8
製品
100
AcDbLine
 10
2577.500000000001
 20
1387.5
 30
0.0
 11
1877.5
 21
1387.5
 31
0.0
  0
LINE
  5
251
330
67
100
AcDbEntity
  8
製品
100
AcDbLine
 10
1877.5
 20
1387.5
 30
0.0
 11
1877.5
 21
1478.5
 31
0.0
  0
LINE
  5
25B
330
67
100
AcDbEntity
  8
製品
100
AcDbLine
 10
1886.5
 20
1487.5
 30
0.0
 11
1877.5
 21
1478.5
 31
0.0
  0
LINE
  5
25C
330
67
100
AcDbEntity
  8
製品
100
AcDbLine
 10
2568.5
 20
1487.5
 30
0.0
 11
2577.500000000001
 21
1478.5
 31
0.0
  0
LINE
  5
25D
330
67
100
AcDbEntity
  8
製品2
100
AcDbLine
 10
1877.5
 20
1478.5
 30
0.0
 11
2577.500000000001
 21
1478.5
 31
0.0
  0
LINE
  5
26B
330
67
100
AcDbEntity
  8
製品
100
AcDbLine
 10
1977.5
 20
1387.5
 30
0.0
 11
1972.5
 21
1434.5
 31
0.0
  0
LINE
  5
26D
102
{ACAD_REACTORS
330
49F
102
}
330
67
100
AcDbEntity
  8
製品
100
AcDbLine
 10
1942.5
 20
1434.5
 30
0.0
 11
1937.5
 21
1487.5
 31
0.0
  0
LINE
  5
26E
102
{ACAD_REACTORS
330
4BB
102
}
330
67
100
AcDbEntity
  8
製品
100
AcDbLine
 10
2517.5
 20
1487.500000000004
 30
0.0
 11
2512.500000000001
 21
1434.500000000004
 31
0.0
  0
LINE
  5
26F
330
67
100
AcDbEntity
  8
製品
100
AcDbLine
 10
2512.5
 20
1434.5
 30
0.0
 11
1942.5
 21
1434.5
 31
0.0
  0
LINE
  5
270
330
67
100
AcDbEntity
  8
製品
100
AcDbLine
 10
2482.500000000001
 20
1434.500000000004
 30
0.0
 11
2477.500000000001
 21
1387.500000000004
 31
0.0
  0
LINE
  5
274
330
67
100
AcDbEntity
  8
製品2
100
AcDbLine
 10
1886.5
 20
1487.5
 30
0.0
 11
1886.5
 21
1387.5
 31
0.0
  0
LINE
  5
275
330
67
100
AcDbEntity
  8
製品2
100
AcDbLine
 10
2568.5
 20
1487.5
 30
0.0
 11
2568.5
 21
1387.5
 31
0.0
  0
LWPOLYLINE
  5
2A1
330
67
100
AcDbEntity
  8
製品
100
AcDbPolyline
 90
        4
 70
     1
 43
0.0
 10
3156.25
 20
1587.5
 10
3775.625
 20
1587.5
 10
3775.625
 20
1287.5
 10
3156.25
 20
1287.5
  0
LINE
  5
2A2
330
67
100
AcDbEntity
  8
製品
100
AcDbLine
 10
3216.25
 20
1587.5
 30
0.0
 11
3216.25
 21
1287.5
 31
0.0
  0
LINE
  5
2A3
330
67
100
AcDbEntity
  8
製品
100
AcDbLine
 10
3716.25
 20
1587.5
 30
0.0
 11
3716.25
 21
1287.5
 31
0.0
  0
LWPOLYLINE
  5
2A6
330
67
100
AcDbEntity
  8
製品
100
AcDbPolyline
 90
        4
 70
     1
 43
0.0
 10
3156.25
 20
987.4999999999998
 10
3776.249999999999
 20
987.4999999999998
 10
3776.249999999999
 20
837.5
 10
3156.25
 20
837.5
  0
LINE
  5
2A7
330
67
100
AcDbEntity
  8
製品
100
AcDbLine
 10
3216.25
 20
987.4999999999998
 30
0.0
 11
3216.25
 21
837.4999999999998
 31
0.0
  0
LINE
  5
2A8
330
67
100
AcDbEntity
  8
製品
100
AcDbLine
 10
3716.25
 20
987.5
 30
0.0
 11
3716.249999999999
 21
837.5
 31
0.0
  0
DIMENSION
  5
2D2
330
67
100
AcDbEntity
  8
寸法
100
AcDbDimension
  2
*D1
 10
1273.749999999999
 20
2549.201875192132
 30
0.0
 11
988.7499999999999
 21
2592.326875192132
 31
0.0
 70
    32
 71
     5
 42
569.9999999999997
 73
     0
 74
     0
 75
     0
  3
ISO-25
100
AcDbAlignedDimension
 13
703.75
 23
2472.5
 33
0.0
 14
1273.749999999999
 24
2472.5
 34
0.0
100
AcDbRotatedDimension
  0
DIMENSION
  5
2EA
330
67
100
AcDbEntity
  8
寸法
100
AcDbDimension
  2
*D2
 10
1380.95451629386
 20
1902.5
 30
0.0
 11
1337.82951629386
 21
2187.5
 31
0.0
 70
    32
 71
     5
 42
570.0000000000001
 73
     0
 74
     0
 75
     0
  3
ISO-25
100
AcDbAlignedDimension
 13
1273.749999999999
 23
2472.5
 33
0.0
 14
1273.749999999999
 24
1902.5
 34
0.0
 50
90.0
100
AcDbRotatedDimension
  0
DIMENSION
  5
330
102
{ACAD_XDICTIONARY
360
33F
102
}
102
{ACAD_REACTORS
330
34B
102
}
330
67
100
AcDbEntity
  8
寸法
100
AcDbDimension
  2
*D3
 10
1381.95451629386
 20
1737.6454
 30
0.0
 11
1429.063348184683
 21
1712.576399463839
 31
0.0
 70
   160
 71
     5
 42
50.0
 73
     0
 74
     0
 75
     0
  3
ISO-25
100
AcDbAlignedDimension
 13
1268.75
 23
1687.6454
 33
0.0
 14
1270.75
 24
1737.6454
 34
0.0
 50
90.0
100
AcDbRotatedDimension
1001
ACAD
1000
DSTYLE
1002
{
1070
   279
1070
     2
1002
}
  0
DIMENSION
  5
34C
102
{ACAD_XDICTIONARY
360
359
102
}
102
{ACAD_REACTORS
330
363
102
}
330
67
100
AcDbEntity
  8
寸法
100
AcDbDimension
  2
*D4
 10
1268.75
 20
1588.462823848664
 30
0.0
 11
988.7500000000001
 21
1631.587823848664
 31
0.0
 70
    32
 71
     5
 42
559.9999999999998
 73
     0
 74
     0
 75
     0
  3
ISO-25
100
AcDbAlignedDimension
 13
708.7500000000001
 23
1687.6454
 33
0.0
 14
1268.75
 24
1687.6454
 34
0.0
100
AcDbRotatedDimension
  0
DIMENSION
  5
395
330
67
100
AcDbEntity
  8
寸法
100
AcDbDimension
  2
*D5
 10
1273.75
 20
1175.231152225293
 30
0.0
 11
988.7500000000001
 21
1218.356152225293
 31
0.0
 70
    32
 71
     5
 42
569.9999999999999
 73
     0
 74
     0
 75
     0
  3
ISO-25
100
AcDbAlignedDimension
 13
703.7500000000001
 23
1097.5
 33
0.0
 14
1273.75
 24
1097.499999999999
 34
0.0
100
AcDbRotatedDimension
  0
DIMENSION
  5
3F9
330
67
100
AcDbEntity
  8
寸法
100
AcDbDimension
  2
*D6
 10
2477.5
 20
2046.675807445597
 30
0.0
 11
2252.500000000001
 21
2046.675807445597
 31
0.0
 70
   160
 71
     5
 42
499.9999999999998
 73
     0
 74
     0
 75
     0
  3
ISO-25
100
AcDbAlignedDimension
 13
1977.5
 23
1937.5
 33
0.0
 14
2477.5
 24
1937.5
 34
0.0
100
AcDbRotatedDimension
  0
DIMENSION
  5
411
330
67
100
AcDbEntity
  8
寸法
100
AcDbDimension
  2
*D7
 10
2383.125000000001
 20
1937.5
 30
0.0
 11
2383.125000000001
 21
2212.5
 31
0.0
 70
   160
 71
     5
 42
500.0000000000007
 73
     0
 74
     0
 75
     0
  3
ISO-25
100
AcDbAlignedDimension
 13
2477.5
 23
2437.5
 33
0.0
 14
2477.5
 24
1937.5
 34
0.0
 50
90.0
100
AcDbRotatedDimension
  0
DIMENSION
  5
454
330
67
100
AcDbEntity
  8
寸法
100
AcDbDimension
  2
*D8
 10
2577.500000000001
 20
2590.133942115673
 30
0.0
 11
2227.5
 21
2633.258942115673
 31
0.0
 70
    32
 71
     5
 42
699.9999999999998
 73
     0
 74
     0
 75
     0
  3
ISO-25
100
AcDbAlignedDimension
 13
1877.5
 23
2537.5
 33
0.0
 14
2577.500000000001
 24
2537.5
 34
0.0
100
AcDbRotatedDimension
  0
DIMENSION
  5
46C
330
67
100
AcDbEntity
  8
寸法
100
AcDbDimension
  2
*D9
 10
2674.169830853607
 20
1837.5
 30
0.0
 11
2631.044830853606
 21
2187.5
 31
0.0
 70
    32
 71
     5
 42
700.0000000000007
 73
     0
 74
     0
 75
     0
  3
ISO-25
100
AcDbAlignedDimension
 13
2577.500000000001
 23
2537.5
 33
0.0
 14
2577.500000000001
 24
1837.5
 34
0.0
 50
90.0
100
AcDbRotatedDimension
  0
DIMENSION
  5
484
102
{ACAD_XDICTIONARY
360
493
102
}
102
{ACAD_REACTORS
330
49F
102
}
330
67
100
AcDbEntity
  8
寸法
100
AcDbDimension
  2
*D10
 10
1877.5
 20
1540.378327370962
 30
0.0
 11
1922.56802374535
 21
1587.5
 31
0.0
 70
   160
 71
     5
 42
60.0
 73
     0
 74
     0
 75
     0
  3
ISO-25
100
AcDbAlignedDimension
 13
1937.5
 23
1487.5
 33
0.0
 14
1877.5
 24
1478.5
 34
0.0
100
AcDbRotatedDimension
1001
ACAD
1000
DSTYLE
1002
{
1070
   343
1005
5EA
1070
   173
1070
     1
1070
   344
1005
0
1070
   279
1070
     2
1002
}
  0
DIMENSION
  5
4A0
102
{ACAD_XDICTIONARY
360
4AF
102
}
102
{ACAD_REACTORS
330
4BB
102
}
330
67
100
AcDbEntity
  8
寸法
100
AcDbDimension
  2
*D11
 10
2577.500000000001
 20
1540.378327370967
 30
0.0
 11
2532.5
 21
1587.500000000004
 31
0.0
 70
   160
 71
     5
 42
59.99999999999954
 73
     0
 74
     0
 75
     0
  3
ISO-25
100
AcDbAlignedDimension
 13
2517.5
 23
1487.500000000004
 33
0.0
 14
2577.500000000001
 24
1478.5
 34
0.0
100
AcDbRotatedDimension
1001
ACAD
1000
DSTYLE
1002
{
1070
   343
1005
5EA
1070
   173
1070
     1
1070
   344
1005
0
1070
   279
1070
     2
1002
}
  0
DIMENSION
  5
5B8
330
67
100
AcDbEntity
  8
寸法
100
AcDbDimension
  2
*D12
 10
1977.5
 20
1540.378327370962
 30
0.0
 11
2047.081875063961
 21
1587.5
 31
0.0
 70
   160
 71
     5
 42
40.0
 73
     0
 74
     0
 75
     0
  3
ISO-25
100
AcDbAlignedDimension
 13
1937.5
 23
1487.5
 33
0.0
 14
1977.5
 24
1487.5
 34
0.0
100
AcDbRotatedDimension
1001
ACAD
1000
DSTYLE
1002
{
1070
   173
1070
     1
1070
   279
1070
     2
1070
   343
1005
5EA
1002
}
  0
DIMENSION
  5
604
330
67
100
AcDbEntity
  8
寸法
100
AcDbDimension
  2
*D14
 10
2477.500000000001
 20
1540.378327370967
 30
0.0
 11
2411.559577846848
 21
1587.500000000004
 31
0.0
 70
   160
 71
     5
 42
40.0
 73
     0
 74
     0
 75
     0
  3
ISO-25
100
AcDbAlignedDimension
 13
2517.5
 23
1487.500000000004
 33
0.0
 14
2477.500000000001
 24
1487.500000000004
 34
0.0
100
AcDbRotatedDimension
1001
ACAD
1000
DSTYLE
1002
{
1070
   173
1070
     1
1070
   279
1070
     2
1070
   343
1005
5EA
1002
}
  0
DIMENSION
  5
65A
330
67
100
AcDbEntity
  8
寸法
100
AcDbDimension
  2
*D15
 10
2665.169830853607
 20
1487.5
 30
0.0
 11
2701.723598709312
 21
1538.853778365397
 31
0.0
 70
   160
 71
     5
 42
53.0
 73
     0
 74
     0
 75
     0
  3
ISO-25
100
AcDbAlignedDimension
 13
2577.500000000001
 23
1434.5
 33
0.0
 14
2598.5
 24
1487.5
 34
0.0
 50
90.0
100
AcDbRotatedDimension
1001
ACAD
1000
DSTYLE
1002
{
1070
   173
1070
     1
1070
   279
1070
     2
1070
   343
1005
5EA
1002
}
  0
DIMENSION
  5
676
330
67
100
AcDbEntity
  8
寸法
100
AcDbDimension
  2
*D16
 10
2665.169830853607
 20
1387.5
 30
0.0
 11
2702.943612713036
 21
1337.5
 31
0.0
 70
   160
 71
     5
 42
47.0
 73
     0
 74
     0
 75
     0
  3
ISO-25
100
AcDbAlignedDimension
 13
2577.500000000001
 23
1434.5
 33
0.0
 14
2607.5
 24
1387.5
 34
0.0
 50
90.0
100
AcDbRotatedDimension
1001
ACAD
1000
DSTYLE
1002
{
1070
   173
1070
     1
1070
   279
1070
     2
1070
   343
1005
5EA
1002
}
  0
DIMENSION
  5
6EA
330
67
100
AcDbEntity
  8
寸法
100
AcDbDimension
  2
*D17
 10
2745.360073493021
 20
1387.5
 30
0.0
 11
2779.545211239831
 21
1437.5
 31
0.0
 70
   160
 71
     5
 42
100.0
 73
     0
 74
     0
 75
     0
  3
ISO-25
100
AcDbAlignedDimension
 13
2568.5
 23
1487.5
 33
0.0
 14
2577.500000000001
 24
1387.5
 34
0.0
 50
90.0
100
AcDbRotatedDimension
1001
ACAD
1000
DSTYLE
1002
{
1070
   279
1070
     2
1002
}
  0
DIMENSION
  5
70F
330
67
100
AcDbEntity
  8
寸法
100
AcDbDimension
  2
*D18
 10
3156.25
 20
2631.029970484112
 30
0.0
 11
3094.816875989929
 21
2663.252641701453
 31
0.0
 70
   160
 71
     5
 42
60.0
 73
     0
 74
     0
 75
     0
  3
ISO-25
100
AcDbAlignedDimension
 13
3216.25
 23
2497.662162162163
 33
0.0
 14
3156.25
 24
2478.662162162163
 34
0.0
100
AcDbRotatedDimension
1001
ACAD
1000
DSTYLE
1002
{
1070
   279
1070
     2
1002
}
  0
DIMENSION
  5
72B
330
67
100
AcDbEntity
  8
寸法
100
AcDbDimension
  2
*D19
 10
3776.25
 20
2630.86780832195
 30
0.0
 11
3838.875930610097
 21
2659.785587113235
 31
0.0
 70
   160
 71
     5
 42
60.0
 73
     0
 74
     0
 75
     0
  3
ISO-25
100
AcDbAlignedDimension
 13
3716.25
 23
2497.5
 33
0.0
 14
3776.25
 24
2478.5
 34
0.0
100
AcDbRotatedDimension
1001
ACAD
1000
DSTYLE
1002
{
1070
   279
1070
     2
1002
}
  0
DIMENSION
  5
747
330
67
100
AcDbEntity
  8
寸法
100
AcDbDimension
  2
*D20
 10
3716.25
 20
2630.86780832195
 30
0.0
 11
3466.25
 21
2673.99280832195
 31
0.0
 70
    32
 71
     5
 42
500.0000000000004
 73
     0
 74
     0
 75
     0
  3
ISO-25
100
AcDbAlignedDimension
 13
3216.25
 23
2503.500000000001
 33
0.0
 14
3716.25
 24
2497.5
 34
0.0
100
AcDbRotatedDimension
  0
DIMENSION
  5
78D
330
67
100
AcDbEntity
  8
寸法
100
AcDbDimension
  2
*D21
 10
3879.550158566474
 20
2497.5
 30
0.0
 11
3848.420502454929
 21
2566.516757952984
 31
0.0
 70
   160
 71
     5
 42
60.0
 73
     0
 74
     0
 75
     0
  3
ISO-25
100
AcDbAlignedDimension
 13
3776.25
 23
2437.5
 33
0.0
 14
3757.250000000001
 24
2497.5
 34
0.0
 50
90.0
100
AcDbRotatedDimension
1001
ACAD
1000
DSTYLE
1002
{
1070
   279
1070
     2
1002
}
  0
DIMENSION
  5
7A9
330
67
100
AcDbEntity
  8
寸法
100
AcDbDimension
  2
*D22
 10
3879.550158566473
 20
1877.5
 30
0.0
 11
3845.30752836077
 21
1812.920961906403
 31
0.0
 70
   160
 71
     5
 42
60.0
 73
     0
 74
     0
 75
     0
  3
ISO-25
100
AcDbAlignedDimension
 13
3776.249999999999
 23
1937.500000000001
 33
0.0
 14
3757.249999999999
 24
1877.5
 34
0.0
 50
90.0
100
AcDbRotatedDimension
1001
ACAD
1000
DSTYLE
1002
{
1070
   279
1070
     2
1002
}
  0
DIMENSION
  5
7FE
330
67
100
AcDbEntity
  8
寸法
100
AcDbDimension
  2
*D23
 10
3879.550158566474
 20
1937.500000000001
 30
0.0
 11
3836.425158566473
 21
2187.500000000001
 31
0.0
 70
    32
 71
     5
 42
499.9999999999992
 73
     0
 74
     0
 75
     0
  3
ISO-25
100
AcDbAlignedDimension
 13
3776.25
 23
2437.5
 33
0.0
 14
3776.249999999999
 24
1937.500000000001
 34
0.0
 50
90.0
100
AcDbRotatedDimension
1001
ACAD
1000
DSTYLE
1002
{
1070
   279
1070
     2
1002
}
  0
DIMENSION
  5
83A
330
67
100
AcDbEntity
  8
寸法
100
AcDbDimension
  2
*D24
 10
3776.25
 20
2715.142479652936
 30
0.0
 11
3466.25
 21
2758.267479652936
 31
0.0
 70
    32
 71
     5
 42
620.0000000000004
 73
     0
 74
     0
 75
     0
  3
ISO-25
100
AcDbAlignedDimension
 13
3156.25
 23
2478.5
 33
0.0
 14
3776.25
 24
2478.5
 34
0.0
100
AcDbRotatedDimension
  0
DIMENSION
  5
847
330
67
100
AcDbEntity
  8
寸法
100
AcDbDimension
  2
*D25
 10
3973.976784932495
 20
1877.5
 30
0.0
 11
3930.851784932495
 21
2187.500000000001
 31
0.0
 70
    32
 71
     5
 42
619.9999999999993
 73
     0
 74
     0
 75
     0
  3
ISO-25
100
AcDbAlignedDimension
 13
3757.250000000001
 23
2497.5
 33
0.0
 14
3757.249999999999
 24
1877.5
 34
0.0
 50
90.0
100
AcDbRotatedDimension
  0
DIMENSION
  5
958
330
67
100
AcDbEntity
  8
寸法
100
AcDbDimension
  2
*D26
 10
3878.925158566472
 20
1287.5
 30
0.0
 11
3835.800158566473
 21
1437.500000000001
 31
0.0
 70
    32
 71
     5
 42
300.0
 73
     0
 74
     0
 75
     0
  3
ISO-25
100
AcDbAlignedDimension
 13
3775.625
 23
1587.5
 33
0.0
 14
3775.625
 24
1287.5
 34
0.0
 50
90.0
100
AcDbRotatedDimension
  0
DIMENSION
  5
970
330
67
100
AcDbEntity
  8
寸法
100
AcDbDimension
  2
*D27
 10
3878.925158566472
 20
837.4999999999998
 30
0.0
 11
3835.800158566473
 21
912.5000000000005
 31
0.0
 70
    32
 71
     5
 42
150.0
 73
     0
 74
     0
 75
     0
  3
ISO-25
100
AcDbAlignedDimension
 13
3776.249999999999
 23
987.5
 33
0.0
 14
3776.249999999999
 24
837.5
 34
0.0
 50
90.0
100
AcDbRotatedDimension
  0
TEXT
  5
CDA
330
67
100
AcDbEntity
  8
文字
100
AcDbText
 10
2159.276649746193
 20
2846.818145241389
 30
0.0
 40
35.0
  1
縁　塊
  7
文字
 72
     1
 11
2227.5
 21
2864.318145241389
 31
0.0
100
AcDbText
 73
     2
  0
TEXT
  5
CDB
330
67
100
AcDbEntity
  8
文字
100
AcDbText
 10
2068.312182741117
 20
2746.818145241388
 30
0.0
 40
35.0
  1
参考重量　47kg
  7
文字
 72
     1
 11
2227.5
 21
2764.318145241388
 31
0.0
100
AcDbText
 73
     2
  0
TEXT
  5
CDC
330
67
100
AcDbEntity
  8
文字
100
AcDbText
 10
3398.026649746193
 20
2846.818145241389
 30
0.0
 40
35.0
  1
側　塊
  7
文字
 72
     1
 11
3466.25
 21
2864.318145241389
 31
0.0
100
AcDbText
 73
     2
  0
TEXT
  5
CDD
330
67
100
AcDbEntity
  8
文字
100
AcDbText
 10
3307.062182741117
 20
1655.598257988958
 30
0.0
 40
35.0
  1
参考重量　94kg
  7
文字
 72
     1
 11
3466.25
 21
1673.098257988959
 31
0.0
100
AcDbText
 73
     2
  0
TEXT
  5
CE0
330
67
100
AcDbEntity
  8
文字
100
AcDbText
 10
3307.062182741117
 20
1065.877700836405
 30
0.0
 40
35.0
  1
参考重量　47kg
  7
文字
 72
     1
 11
3466.25
 21
1083.377700836405
 31
0.0
100
AcDbText
 73
     2
  0
LINE
  5
13AE
330
67
100
AcDbEntity
  8
製品
100
AcDbLine
 10
1268.75
 20
312.5
 30
0.0
 11
708.75
 21
312.5
 31
0.0
  0
LWPOLYLINE
  5
1763
330
67
100
AcDbEntity
  8
製品
100
AcDbPolyline
 90
        4
 70
     1
 43
0.0
 10
703.75
 20
2472.5
 10
1273.749999999999
 20
2472.5
 10
1273.749999999999
 20
1902.5
 10
703.75
 20
1902.5
  0
LWPOLYLINE
  5
1764
330
67
100
AcDbEntity
  8
製品
100
AcDbPolyline
 90
        4
 70
     1
 43
0.0
 10
706.7499999999999
 20
2469.5
 10
1270.75
 20
2469.5
 10
1270.75
 20
1905.5
 10
706.7499999999999
 20
1905.5
  0
LWPOLYLINE
  5
1765
330
67
100
AcDbEntity
  8
製品
100
AcDbPolyline
 90
        4
 70
     1
 43
0.0
 10
703.7500000000001
 20
1097.5
 10
1273.75
 20
1097.5
 10
1273.75
 20
527.5
 10
703.7500000000001
 20
527.5
  0
LWPOLYLINE
  5
1766
330
67
100
AcDbEntity
  8
製品
100
AcDbPolyline
 90
        4
 70
     1
 43
0.0
 10
706.7500000000001
 20
1094.5
 10
1270.75
 20
1094.5
 10
1270.75
 20
530.4999999999999
 10
706.7500000000001
 20
530.4999999999999
  0
LINE
  5
17EA
330
67
100
AcDbEntity
  8
製品
100
AcDbLine
 10
703.7500000000001
 20
1734.6454
 30
0.0
 11
706.7500000000001
 21
1737.6454
 31
0.0
  0
LINE
  5
17EB
330
67
100
AcDbEntity
  8
製品
100
AcDbLine
 10
1273.75
 20
1734.6454
 30
0.0
 11
1270.75
 21
1737.6454
 31
0.0
  0
LINE
  5
17F6
330
67
100
AcDbEntity
  8
製品
100
AcDbLine
 10
708.75
 20
312.5
 30
0.0
 11
703.75
 21
359.5
 31
0.0
  0
LINE
  5
17F7
330
67
100
AcDbEntity
  8
製品
100
AcDbLine
 10
706.7499999999999
 20
362.5
 30
0.0
 11
1270.75
 21
362.5
 31
0.0
  0
LINE
  5
17F8
330
67
100
AcDbEntity
  8
製品
100
AcDbLine
 10
1273.749999999999
 20
359.5
 30
0.0
 11
1268.75
 21
312.5
 31
0.0
  0
LINE
  5
17FA
330
67
100
AcDbEntity
  8
製品2
100
AcDbLine
 10
703.7500000000001
 20
359.4999999999998
 30
0.0
 11
1273.749999999999
 21
359.5
 31
0.0
  0
DIMENSION
  5
17FB
330
67
100
AcDbEntity
  8
寸法
100
AcDbDimension
  2
*D28
 10
1381.95451629386
 20
362.5
 30
0.0
 11
1429.063348184683
 21
337.4309994638388
 31
0.0
 70
   160
 71
     5
 42
50.0
 73
     0
 74
     0
 75
     0
  3
ISO-25
100
AcDbAlignedDimension
 13
1268.75
 23
312.5
 33
0.0
 14
1270.75
 24
362.5
 34
0.0
 50
90.0
100
AcDbRotatedDimension
1001
ACAD
1000
DSTYLE
1002
{
1070
   279
1070
     2
1002
}
  0
DIMENSION
  5
17FE
330
67
100
AcDbEntity
  8
寸法
100
AcDbDimension
  2
*D29
 10
1268.75
 20
213.3174238486642
 30
0.0
 11
988.7499999999999
 21
256.4424238486643
 31
0.0
 70
    32
 71
     5
 42
559.9999999999997
 73
     0
 74
     0
 75
     0
  3
ISO-25
100
AcDbAlignedDimension
 13
708.75
 23
312.5
 33
0.0
 14
1268.75
 24
312.5
 34
0.0
100
AcDbRotatedDimension
  0
LINE
  5
1801
330
67
100
AcDbEntity
  8
製品
100
AcDbLine
 10
703.75
 20
359.5
 30
0.0
 11
706.7499999999999
 21
362.5
 31
0.0
  0
LINE
  5
1802
330
67
100
AcDbEntity
  8
製品
100
AcDbLine
 10
1273.749999999999
 20
359.5
 30
0.0
 11
1270.75
 21
362.4999999999998
 31
0.0
  0
DIMENSION
  5
1831
330
67
100
AcDbEntity
  8
寸法
100
AcDbDimension
  2
*D30
 10
1380.954516293861
 20
527.4999999999994
 30
0.0
 11
1337.82951629386
 21
812.4999999999996
 31
0.0
 70
    32
 71
     5
 42
570.0
 73
     0
 74
     0
 75
     0
  3
ISO-25
100
AcDbAlignedDimension
 13
1273.75
 23
1097.499999999999
 33
0.0
 14
1273.75
 24
527.4999999999995
 34
0.0
 50
90.0
100
AcDbRotatedDimension
  0
LINE
  5
1848
330
67
100
AcDbEntity
  8
製品
100
AcDbLine
 10
706.7500000000001
 20
1094.5
 30
0.0
 11
703.7500000000001
 21
1097.5
 31
0.0
  0
LINE
  5
1849
330
67
100
AcDbEntity
  8
製品
100
AcDbLine
 10
1270.75
 20
1094.5
 30
0.0
 11
1273.75
 21
1097.499999999999
 31
0.0
  0
LINE
  5
184A
330
67
100
AcDbEntity
  8
製品
100
AcDbLine
 10
1273.75
 20
527.4999999999995
 30
0.0
 11
1270.75
 21
530.4999999999999
 31
0.0
  0
LINE
  5
184B
330
67
100
AcDbEntity
  8
製品
100
AcDbLine
 10
703.7500000000001
 20
527.5
 30
0.0
 11
706.7500000000001
 21
530.4999999999999
 31
0.0
  0
LINE
  5
184C
330
67
100
AcDbEntity
  8
製品
100
AcDbLine
 10
706.7499999999999
 20
2469.5
 30
0.0
 11
703.75
 21
2472.5
 31
0.0
  0
LINE
  5
184D
330
67
100
AcDbEntity
  8
製品
100
AcDbLine
 10
1270.75
 20
2469.5
 30
0.0
 11
1273.75
 21
2472.499999999999
 31
0.0
  0
LINE
  5
184E
330
67
100
AcDbEntity
  8
製品
100
AcDbLine
 10
1273.75
 20
1902.499999999999
 30
0.0
 11
1270.75
 21
1905.5
 31
0.0
  0
LINE
  5
184F
330
67
100
AcDbEntity
  8
製品
100
AcDbLine
 10
703.75
 20
1902.5
 30
0.0
 11
706.7499999999999
 21
1905.5
 31
0.0
  0
ARC
  5
186E
330
67
100
AcDbEntity
  8
製品
100
AcDbCircle
 10
801.2499999999999
 20
2187.5
 30
0.0
 40
27.5
100
AcDbArc
 50
129.5211963586422
 51
230.4788036413578
  0
ARC
  5
1874
330
67
100
AcDbEntity
  8
製品
100
AcDbCircle
 10
801.2499999999999
 20
2235.0
 30
0.0
 40
17.5
100
AcDbArc
 50
0.0
 51
180.0
  0
ARC
  5
1875
330
67
100
AcDbEntity
  8
製品
100
AcDbCircle
 10
801.2499999999999
 20
2140.0
 30
0.0
 40
17.5
100
AcDbArc
 50
180.0
 51
0.0
  0
LINE
  5
1876
330
67
100
AcDbEntity
  8
製品
100
AcDbLine
 10
783.75
 20
2235.0
 30
0.0
 11
783.75
 21
2208.713203435596
 31
0.0
  0
LINE
  5
1877
330
67
100
AcDbEntity
  8
製品
100
AcDbLine
 10
783.75
 20
2166.286796564404
 30
0.0
 11
783.75
 21
2140.0
 31
0.0
  0
LINE
  5
1878
330
67
100
AcDbEntity
  8
製品
100
AcDbLine
 10
818.75
 20
2166.286796564404
 30
0.0
 11
818.75
 21
2140.0
 31
0.0
  0
LINE
  5
1879
330
67
100
AcDbEntity
  8
製品
100
AcDbLine
 10
818.75
 20
2235.0
 30
0.0
 11
818.75
 21
2208.713203435596
 31
0.0
  0
ARC
  5
187A
330
67
100
AcDbEntity
  8
製品
100
AcDbCircle
 10
801.2499999999999
 20
2187.5
 30
0.0
 40
27.5
100
AcDbArc
 50
309.5211963586422
 51
50.47880364135775
  0
CIRCLE
  5
1889
330
67
100
AcDbEntity
  8
製品
100
AcDbCircle
 10
801.2499999999999
 20
2237.0
 30
0.0
 40
6.5
  0
CIRCLE
  5
188A
330
67
100
AcDbEntity
  8
製品
100
AcDbCircle
 10
801.2499999999999
 20
2138.0
 30
0.0
 40
6.5
  0
LINE
  5
18A6
330
67
100
AcDbEntity
  8
製品
100
AcDbLine
 10
778.7500000000001
 20
1737.5
 30
0.0
 11
781.7500000000001
 21
1726.5
 31
0.0
  0
LINE
  5
18A7
330
67
100
AcDbEntity
  8
製品
100
AcDbLine
 10
823.75
 20
1737.5
 30
0.0
 11
820.7500000000001
 21
1726.5
 31
0.0
  0
LINE
  5
18C6
330
67
100
AcDbEntity
  8
製品
100
AcDbLine
 10
706.7500000000001
 20
1737.5
 30
0.0
 11
1270.75
 21
1737.5
 31
0.0
  0
ARC
  5
18C7
330
67
100
AcDbEntity
  8
製品
100
AcDbCircle
 10
801.2468592121136
 20
1757.648745171608
 30
0.0
 40
39.62752120715954
100
AcDbArc
 50
231.8168006507348
 51
308.1831993492652
  0
LINE
  5
18C8
330
67
100
AcDbEntity
  8
製品
100
AcDbLine
 10
1153.75
 20
1737.5
 30
0.0
 11
1156.75
 21
1726.5
 31
0.0
  0
LINE
  5
18C9
330
67
100
AcDbEntity
  8
製品
100
AcDbLine
 10
1198.75
 20
1737.5
 30
0.0
 11
1195.75
 21
1726.5
 31
0.0
  0
ARC
  5
18CA
330
67
100
AcDbEntity
  8
製品
100
AcDbCircle
 10
1176.246859212113
 20
1757.648745171609
 30
0.0
 40
39.62752120716036
100
AcDbArc
 50
231.816800650736
 51
308.1831993492644
  0
LINE
  5
18CF
330
67
100
AcDbEntity
  8
製品2
100
AcDbLine
 10
794.7500000000002
 20
1726.5
 30
0.0
 11
794.7500000000001
 21
1687.6454
 31
0.0
  0
LINE
  5
18D0
330
67
100
AcDbEntity
  8
製品2
100
AcDbLine
 10
807.7500000000002
 20
1726.5
 30
0.0
 11
807.75
 21
1687.6454
 31
0.0
  0
LINE
  5
18D1
330
67
100
AcDbEntity
  8
製品2
100
AcDbLine
 10
1169.75
 20
1726.5
 30
0.0
 11
1169.75
 21
1687.6454
 31
0.0
  0
LINE
  5
18D2
330
67
100
AcDbEntity
  8
製品2
100
AcDbLine
 10
1182.75
 20
1726.5
 30
0.0
 11
1182.75
 21
1687.6454
 31
0.0
  0
ARC
  5
18DE
330
67
100
AcDbEntity
  8
製品
100
AcDbCircle
 10
806.2500000000001
 20
860.0
 30
0.0
 40
22.5
100
AcDbArc
 50
0.0
 51
180.0
  0
ARC
  5
18DF
330
67
100
AcDbEntity
  8
製品
100
AcDbCircle
 10
806.2500000000001
 20
765.0
 30
0.0
 40
22.5
100
AcDbArc
 50
180.0
 51
0.0
  0
LINE
  5
18E0
330
67
100
AcDbEntity
  8
製品
100
AcDbLine
 10
783.7500000000001
 20
765.0
 30
0.0
 11
783.7500000000001
 21
860.0
 31
0.0
  0
LINE
  5
18E1
330
67
100
AcDbEntity
  8
製品
100
AcDbLine
 10
828.7500000000001
 20
860.0
 30
0.0
 11
828.7500000000001
 21
765.0
 31
0.0
  0
ARC
  5
18E2
330
67
100
AcDbEntity
  8
製品
100
AcDbCircle
 10
806.2500000000001
 20
860.0
 30
0.0
 40
15.0
100
AcDbArc
 50
0.0
 51
180.0
  0
LINE
  5
18E3
330
67
100
AcDbEntity
  8
製品
100
AcDbLine
 10
791.2500000000001
 20
765.0
 30
0.0
 11
791.2500000000001
 21
860.0
 31
0.0
  0
LINE
  5
18E4
330
67
100
AcDbEntity
  8
製品
100
AcDbLine
 10
821.2500000000002
 20
860.0
 30
0.0
 11
821.2500000000002
 21
765.0
 31
0.0
  0
ARC
  5
18E5
330
67
100
AcDbEntity
  8
製品
100
AcDbCircle
 10
806.2500000000001
 20
765.0
 30
0.0
 40
15.0
100
AcDbArc
 50
180.0
 51
0.0
  0
ARC
  5
18E6
330
67
100
AcDbEntity
  8
製品
100
AcDbCircle
 10
1171.25
 20
860.0
 30
0.0
 40
22.5
100
AcDbArc
 50
0.0
 51
180.0
  0
ARC
  5
18E7
330
67
100
AcDbEntity
  8
製品
100
AcDbCircle
 10
1171.25
 20
860.0
 30
0.0
 40
15.0
100
AcDbArc
 50
0.0
 51
180.0
  0
ARC
  5
18E8
330
67
100
AcDbEntity
  8
製品
100
AcDbCircle
 10
1171.25
 20
765.0
 30
0.0
 40
22.5
100
AcDbArc
 50
180.0
 51
0.0
  0
ARC
  5
18E9
330
67
100
AcDbEntity
  8
製品
100
AcDbCircle
 10
1171.25
 20
765.0
 30
0.0
 40
15.0
100
AcDbArc
 50
180.0
 51
0.0
  0
LINE
  5
18EA
330
67
100
AcDbEntity
  8
製品
100
AcDbLine
 10
1148.75
 20
765.0
 30
0.0
 11
1148.75
 21
860.0
 31
0.0
  0
LINE
  5
18EB
330
67
100
AcDbEntity
  8
製品
100
AcDbLine
 10
1156.25
 20
765.0
 30
0.0
 11
1156.25
 21
860.0
 31
0.0
  0
LINE
  5
18EC
330
67
100
AcDbEntity
  8
製品
100
AcDbLine
 10
1193.75
 20
860.0
 30
0.0
 11
1193.75
 21
765.0
 31
0.0
  0
LINE
  5
18ED
330
67
100
AcDbEntity
  8
製品
100
AcDbLine
 10
1186.25
 20
860.0
 30
0.0
 11
1186.25
 21
765.0
 31
0.0
  0
LINE
  5
18F0
330
67
100
AcDbEntity
  8
製品
100
AcDbLine
 10
783.75
 20
362.5
 30
0.0
 11
791.25
 21
312.5
 31
0.0
  0
LINE
  5
18F1
330
67
100
AcDbEntity
  8
製品
100
AcDbLine
 10
828.7499999999999
 20
362.5
 30
0.0
 11
821.25
 21
312.5
 31
0.0
  0
LINE
  5
18F3
330
67
100
AcDbEntity
  8
製品
100
AcDbLine
 10
1148.749999999999
 20
362.5
 30
0.0
 11
1156.25
 21
312.5
 31
0.0
  0
LINE
  5
18F4
330
67
100
AcDbEntity
  8
製品
100
AcDbLine
 10
1193.75
 20
362.5
 30
0.0
 11
1186.25
 21
312.5
 31
0.0
  0
LINE
  5
18FF
330
67
100
AcDbEntity
  8
製品
100
AcDbLine
 10
776.75
 20
1726.5
 30
0.0
 11
825.743718424227
 21
1726.5
 31
0.0
  0
LINE
  5
1900
330
67
100
AcDbEntity
  8
製品
100
AcDbLine
 10
1151.75
 20
1726.5
 30
0.0
 11
1200.743718424227
 21
1726.5
 31
0.0
  0
LINE
  5
1910
330
67
100
AcDbEntity
  8
製品
100
AcDbLine
 10
815.75
 20
2235.0
 30
0.0
 11
815.7499999999998
 21
2207.248417658131
 31
0.0
  0
LINE
  5
1911
330
67
100
AcDbEntity
  8
製品
100
AcDbLine
 10
786.75
 20
2235.0
 30
0.0
 11
786.7499999999998
 21
2207.248417658131
 31
0.0
  0
ARC
  5
1912
330
67
100
AcDbEntity
  8
製品
100
AcDbCircle
 10
801.2499999999999
 20
2235.0
 30
0.0
 40
14.5
100
AcDbArc
 50
0.0
 51
180.0
  0
ARC
  5
1913
330
67
100
AcDbEntity
  8
製品
100
AcDbCircle
 10
801.2499999999999
 20
2187.5
 30
0.0
 40
24.5
100
AcDbArc
 50
126.2874570851098
 51
233.7125429148902
  0
ARC
  5
1914
330
67
100
AcDbEntity
  8
製品
100
AcDbCircle
 10
801.2499999999999
 20
2187.5
 30
0.0
 40
24.5
100
AcDbArc
 50
306.2874570851099
 51
53.71254291489015
  0
LINE
  5
1915
330
67
100
AcDbEntity
  8
製品
100
AcDbLine
 10
815.7499999999998
 20
2167.751582341868
 30
0.0
 11
815.75
 21
2140.0
 31
0.0
  0
LINE
  5
1916
330
67
100
AcDbEntity
  8
製品
100
AcDbLine
 10
786.7499999999998
 20
2167.751582341868
 30
0.0
 11
786.75
 21
2140.0
 31
0.0
  0
ARC
  5
1917
330
67
100
AcDbEntity
  8
製品
100
AcDbCircle
 10
801.2499999999999
 20
2140.0
 30
0.0
 40
14.5
100
AcDbArc
 50
180.0
 51
0.0
  0
LINE
  5
1939
330
67
100
AcDbEntity
  8
製品
100
AcDbLine
 10
1148.75
 20
1737.537453783187
 30
0.0
 11
1151.75
 21
1726.537453783187
 31
0.0
  0
LINE
  5
193A
330
67
100
AcDbEntity
  8
製品
100
AcDbLine
 10
1203.743718424227
 20
1737.5
 30
0.0
 11
1200.743718424227
 21
1726.5
 31
0.0
  0
LINE
  5
193B
330
67
100
AcDbEntity
  8
製品
100
AcDbLine
 10
773.7500000000001
 20
1737.5
 30
0.0
 11
776.75
 21
1726.5
 31
0.0
  0
LINE
  5
193C
330
67
100
AcDbEntity
  8
製品
100
AcDbLine
 10
828.743718424227
 20
1737.5
 30
0.0
 11
825.743718424227
 21
1726.5
 31
0.0
  0
ARC
  5
1942
330
67
100
AcDbEntity
  8
製品
100
AcDbCircle
 10
1176.25
 20
2187.5
 30
0.0
 40
27.5
100
AcDbArc
 50
129.5211963586417
 51
230.4788036413583
  0
ARC
  5
1943
330
67
100
AcDbEntity
  8
製品
100
AcDbCircle
 10
1176.25
 20
2187.5
 30
0.0
 40
24.5
100
AcDbArc
 50
126.2874570851089
 51
233.7125429148911
  0
ARC
  5
1944
330
67
100
AcDbEntity
  8
製品
100
AcDbCircle
 10
1176.25
 20
2187.5
 30
0.0
 40
27.5
100
AcDbArc
 50
309.5211963586417
 51
50.47880364135825
  0
ARC
  5
1945
330
67
100
AcDbEntity
  8
製品
100
AcDbCircle
 10
1176.25
 20
2187.5
 30
0.0
 40
24.5
100
AcDbArc
 50
306.2874570851089
 51
53.71254291489108
  0
ARC
  5
1946
330
67
100
AcDbEntity
  8
製品
100
AcDbCircle
 10
1176.25
 20
2235.0
 30
0.0
 40
17.5
100
AcDbArc
 50
0.0
 51
180.0
  0
ARC
  5
1947
330
67
100
AcDbEntity
  8
製品
100
AcDbCircle
 10
1176.25
 20
2235.0
 30
0.0
 40
14.5
100
AcDbArc
 50
0.0
 51
180.0
  0
ARC
  5
1948
330
67
100
AcDbEntity
  8
製品
100
AcDbCircle
 10
1176.25
 20
2140.0
 30
0.0
 40
17.5
100
AcDbArc
 50
180.0
 51
0.0
  0
ARC
  5
1949
330
67
100
AcDbEntity
  8
製品
100
AcDbCircle
 10
1176.25
 20
2140.0
 30
0.0
 40
14.5
100
AcDbArc
 50
180.0
 51
0.0
  0
LINE
  5
194A
330
67
100
AcDbEntity
  8
製品
100
AcDbLine
 10
1158.75
 20
2235.0
 30
0.0
 11
1158.75
 21
2208.713203435596
 31
0.0
  0
LINE
  5
194B
330
67
100
AcDbEntity
  8
製品
100
AcDbLine
 10
1161.75
 20
2235.0
 30
0.0
 11
1161.749999999999
 21
2207.248417658131
 31
0.0
  0
LINE
  5
194C
330
67
100
AcDbEntity
  8
製品
100
AcDbLine
 10
1158.75
 20
2166.286796564404
 30
0.0
 11
1158.75
 21
2140.0
 31
0.0
  0
LINE
  5
194D
330
67
100
AcDbEntity
  8
製品
100
AcDbLine
 10
1161.749999999999
 20
2167.751582341868
 30
0.0
 11
1161.75
 21
2140.0
 31
0.0
  0
LINE
  5
194E
330
67
100
AcDbEntity
  8
製品
100
AcDbLine
 10
1193.75
 20
2166.286796564404
 30
0.0
 11
1193.75
 21
2140.0
 31
0.0
  0
LINE
  5
194F
330
67
100
AcDbEntity
  8
製品
100
AcDbLine
 10
1190.749999999999
 20
2167.751582341868
 30
0.0
 11
1190.749999999999
 21
2140.0
 31
0.0
  0
LINE
  5
1950
330
67
100
AcDbEntity
  8
製品
100
AcDbLine
 10
1193.75
 20
2235.0
 30
0.0
 11
1193.75
 21
2208.713203435596
 31
0.0
  0
LINE
  5
1951
330
67
100
AcDbEntity
  8
製品
100
AcDbLine
 10
1190.749999999999
 20
2235.0
 30
0.0
 11
1190.749999999999
 21
2207.248417658131
 31
0.0
  0
CIRCLE
  5
1952
330
67
100
AcDbEntity
  8
製品
100
AcDbCircle
 10
1176.25
 20
2237.0
 30
0.0
 40
6.5
  0
CIRCLE
  5
1953
330
67
100
AcDbEntity
  8
製品
100
AcDbCircle
 10
1176.25
 20
2138.0
 30
0.0
 40
6.5
  0
LWPOLYLINE
  5
195D
330
67
100
AcDbEntity
  8
製品
100
AcDbPolyline
 90
        4
 70
     1
 43
0.0
 10
1877.5
 20
2537.5
 10
2577.500000000001
 20
2537.5
 10
2577.500000000001
 20
1837.5
 10
1877.5
 20
1837.5
  0
LWPOLYLINE
  5
1982
330
67
100
AcDbEntity
  8
製品
100
AcDbPolyline
 90
        4
 70
     1
 43
0.0
 10
1886.5
 20
2528.500000000001
 10
2568.5
 20
2528.500000000001
 10
2568.5
 20
1846.499999999999
 10
1886.5
 20
1846.499999999999
  0
LINE
  5
1983
330
67
100
AcDbEntity
  8
製品
100
AcDbLine
 10
1886.5
 20
2528.500000000001
 30
0.0
 11
1877.5
 21
2537.5
 31
0.0
  0
LINE
  5
1984
330
67
100
AcDbEntity
  8
製品
100
AcDbLine
 10
2568.5
 20
2528.500000000001
 30
0.0
 11
2577.500000000001
 21
2537.5
 31
0.0
  0
LINE
  5
1985
330
67
100
AcDbEntity
  8
製品
100
AcDbLine
 10
2568.5
 20
1846.499999999999
 30
0.0
 11
2577.500000000001
 21
1837.5
 31
0.0
  0
LINE
  5
1986
330
67
100
AcDbEntity
  8
製品
100
AcDbLine
 10
1877.5
 20
1837.5
 30
0.0
 11
1886.5
 21
1846.499999999999
 31
0.0
  0
LWPOLYLINE
  5
1987
330
67
100
AcDbEntity
  8
製品
100
AcDbPolyline
 90
        4
 70
     1
 43
0.0
 10
1937.5
 20
2477.500000000001
 10
2517.5
 20
2477.500000000001
 10
2517.5
 20
1897.499999999999
 10
1937.5
 20
1897.499999999999
  0
LWPOLYLINE
  5
1988
330
67
100
AcDbEntity
  8
製品
100
AcDbPolyline
 90
        4
 70
     1
 43
0.0
 10
1942.5
 20
2472.500000000001
 10
2512.5
 20
2472.500000000001
 10
2512.5
 20
1902.499999999999
 10
1942.5
 20
1902.499999999999
  0
LWPOLYLINE
  5
1989
330
67
100
AcDbEntity
  8
製品
100
AcDbPolyline
 90
        4
 70
     1
 43
0.0
 10
1972.5
 20
2442.500000000001
 10
2482.5
 20
2442.500000000001
 10
2482.5
 20
1932.5
 10
1972.5
 20
1932.499999999999
  0
LWPOLYLINE
  5
198A
330
67
100
AcDbEntity
  8
製品
100
AcDbPolyline
 90
        4
 70
     1
 43
0.0
 10
1977.5
 20
2437.5
 10
2477.5
 20
2437.5
 10
2477.5
 20
1937.5
 10
1977.5
 20
1937.5
  0
LWPOLYLINE
  5
1A33
330
67
100
AcDbEntity
  8
製品
100
AcDbPolyline
 90
        8
 70
     1
 43
0.0
 10
3175.25
 20
2497.5
 10
3757.250000000001
 20
2497.5
 10
3776.25
 20
2478.5
 10
3776.249999999999
 20
1896.500000000001
 10
3757.249999999999
 20
1877.5
 10
3175.25
 20
1877.5
 10
3156.25
 20
1896.5
 10
3156.25
 20
2478.5
  0
LWPOLYLINE
  5
1AD3
330
67
100
AcDbEntity
  8
製品
100
AcDbPolyline
 90
        8
 70
     1
 43
0.0
 10
3244.25
 20
2437.5
 10
3688.250000000001
 20
2437.5
 42
-0.4142135623730961
 10
3716.250000000001
 20
2409.5
 10
3716.25
 20
1965.500000000001
 42
-0.414213562373094
 10
3688.25
 20
1937.500000000001
 10
3244.25
 20
1937.5
 42
-0.4142135623730953
 10
3216.25
 20
1965.5
 10
3216.25
 20
2409.499999999999
 42
-0.4142135623730948
  0
LINE
  5
1B70
330
67
100
AcDbEntity
  8
鉄筋
100
AcDbLine
 10
733.7499999999998
 20
2457.5
 30
0.0
 11
733.7499999999998
 21
1917.5
 31
0.0
  0
LINE
  5
1B71
330
67
100
AcDbEntity
  8
鉄筋
100
AcDbLine
 10
718.7499999999999
 20
2442.5
 30
0.0
 11
1258.75
 21
2442.5
 31
0.0
  0
LINE
  5
1B72
330
67
100
AcDbEntity
  8
鉄筋
100
AcDbLine
 10
718.7499999999999
 20
2272.5
 30
0.0
 11
1258.75
 21
2272.5
 31
0.0
  0
LINE
  5
1B73
330
67
100
AcDbEntity
  8
鉄筋
100
AcDbLine
 10
718.7499999999999
 20
2102.5
 30
0.0
 11
1258.75
 21
2102.5
 31
0.0
  0
LINE
  5
1B74
330
67
100
AcDbEntity
  8
鉄筋
100
AcDbLine
 10
718.7499999999999
 20
1932.5
 30
0.0
 11
1258.75
 21
1932.5
 31
0.0
  0
LINE
  5
1B75
330
67
100
AcDbEntity
  8
鉄筋
100
AcDbLine
 10
903.7499999999999
 20
2457.5
 30
0.0
 11
903.7499999999999
 21
1917.5
 31
0.0
  0
LINE
  5
1B76
330
67
100
AcDbEntity
  8
鉄筋
100
AcDbLine
 10
1073.75
 20
2457.5
 30
0.0
 11
1073.75
 21
1917.5
 31
0.0
  0
LINE
  5
1B77
330
67
100
AcDbEntity
  8
鉄筋
100
AcDbLine
 10
1243.75
 20
2457.5
 30
0.0
 11
1243.75
 21
1917.5
 31
0.0
  0
CIRCLE
  5
1B78
330
67
100
AcDbEntity
  8
鉄筋2
100
AcDbCircle
 10
733.75
 20
1704.6454
 30
0.0
 40
2.0
  0
CIRCLE
  5
1B79
330
67
100
AcDbEntity
  8
鉄筋2
100
AcDbCircle
 10
903.7499999999999
 20
1704.6454
 30
0.0
 40
2.0
  0
CIRCLE
  5
1B7A
330
67
100
AcDbEntity
  8
鉄筋2
100
AcDbCircle
 10
1073.75
 20
1704.6454
 30
0.0
 40
2.0
  0
CIRCLE
  5
1B7B
330
67
100
AcDbEntity
  8
鉄筋2
100
AcDbCircle
 10
1243.75
 20
1704.6454
 30
0.0
 40
2.0
  0
LINE
  5
1B7C
330
67
100
AcDbEntity
  8
鉄筋
100
AcDbLine
 10
718.75
 20
1702.6454
 30
0.0
 11
1258.75
 21
1702.6454
 31
0.0
  0
LINE
  5
1B7D
330
67
100
AcDbEntity
  8
鉄筋
100
AcDbLine
 10
733.75
 20
1082.5
 30
0.0
 11
733.75
 21
542.5000000000002
 31
0.0
  0
LINE
  5
1B7E
330
67
100
AcDbEntity
  8
鉄筋
100
AcDbLine
 10
718.75
 20
1067.5
 30
0.0
 11
1258.75
 21
1067.5
 31
0.0
  0
LINE
  5
1B7F
330
67
100
AcDbEntity
  8
鉄筋
100
AcDbLine
 10
718.75
 20
897.5000000000003
 30
0.0
 11
1258.75
 21
897.5000000000003
 31
0.0
  0
LINE
  5
1B80
330
67
100
AcDbEntity
  8
鉄筋
100
AcDbLine
 10
718.75
 20
727.5000000000002
 30
0.0
 11
1258.75
 21
727.5000000000002
 31
0.0
  0
LINE
  5
1B81
330
67
100
AcDbEntity
  8
鉄筋
100
AcDbLine
 10
718.75
 20
557.5000000000001
 30
0.0
 11
1258.75
 21
557.5000000000001
 31
0.0
  0
LINE
  5
1B82
330
67
100
AcDbEntity
  8
鉄筋
100
AcDbLine
 10
903.7499999999999
 20
1082.5
 30
0.0
 11
903.7499999999999
 21
542.5000000000002
 31
0.0
  0
LINE
  5
1B83
330
67
100
AcDbEntity
  8
鉄筋
100
AcDbLine
 10
1073.75
 20
1082.5
 30
0.0
 11
1073.75
 21
542.5000000000002
 31
0.0
  0
LINE
  5
1B84
330
67
100
AcDbEntity
  8
鉄筋
100
AcDbLine
 10
1243.75
 20
1082.5
 30
0.0
 11
1243.75
 21
542.5000000000002
 31
0.0
  0
CIRCLE
  5
1B85
330
67
100
AcDbEntity
  8
鉄筋2
100
AcDbCircle
 10
733.7499999999998
 20
329.5000000000002
 30
0.0
 40
2.0
  0
CIRCLE
  5
1B86
330
67
100
AcDbEntity
  8
鉄筋2
100
AcDbCircle
 10
903.7499999999999
 20
329.5000000000002
 30
0.0
 40
2.0
  0
CIRCLE
  5
1B87
330
67
100
AcDbEntity
  8
鉄筋2
100
AcDbCircle
 10
1073.75
 20
329.5000000000002
 30
0.0
 40
2.0
  0
CIRCLE
  5
1B88
330
67
100
AcDbEntity
  8
鉄筋2
100
AcDbCircle
 10
1243.75
 20
329.5000000000002
 30
0.0
 40
2.0
  0
LINE
  5
1B89
330
67
100
AcDbEntity
  8
鉄筋
100
AcDbLine
 10
718.7499999999999
 20
327.5000000000002
 30
0.0
 11
1258.75
 21
327.5000000000002
 31
0.0
  0
MULTILEADER
  5
1BBB
330
67
100
AcDbEntity
  8
寸法
 92
     1064
310
280400001A0000000C00000016000000000000C00C00000033000000000000000C00000013000000993A0000BC000000260000005D74D145174D8F40E1798B19F98F9C40000000000000000000000000000000000000000000000000000000000000F03F000000000000F03F00000000000000000000000000000000C60300
310
0001000000010000000000000000003E40000000000000F03F0000000000000000000000000000F03F0000000000000000000000000000000000000000000000000000000001000000320000002DFF33FF200030FFB430B730C330AF30000079000000000000004600BC000000260000005D74D14517559040E1798B19F98F
310
9C40000000000000000000000000000000000000000000000000000000000000F03F000000000000F03F0000000000000000000000000000000036002D003400000003000000010000000000000000003E40000000000000F03F0000000000000000000000000000F03F000000000000000000000000000000000000000000
310
000000000000000100000000000000000000007400780074002E00730068007800000000000000BC000000260000005D74D14517BD9140E1798B19F98F9C40000000000000000000000000000000000000000000000000000000000000F03F000000000000F03F000000000000000000000000000000002C67000001000000
310
010000000000000000003E40000000000000F03F0000000000000000000000000000F03F0000000000000000000000000000000000000000000000000000000001000000320000002DFF33FF200030FFB430B730C330AF300000882B000000000000A42D0C00000033000000000000000C00000010000000050000000C0000
310
0016000000000000C00C00000012000000FF7F00000C00000013000000010000000C00000014000000010000005400000007000000030000000000000000BE8E400000000000BA9D4000000000000000000000000000E68E400000000000329E40000000000000000000000000000E8F400000000000BA9D40000000000000
310
00000C00000013000000891300003C00000006000000020000000000000000E68E400000000000BA9D4000000000000000000000000000E68E40F8D6FFEABE8B9C4000000000000000000C00000013000000112700003C00000006000000020000000000000000E68E40F8D6FFEABE8B9C4000000000000000003333333333
310
118F40F8D6FFEABE8B9C4000000000000000000C00000016000000000000C00C00000012000000FF7F00000C00000017000000000000000C000000130000009A3A00003C00000006000000020000003333333333118F40F8D6FFEABE8B9C400000000000000000175D74D1C5629240F8D6FFEABE8B9C400000000000000000
310
0C00000016000000000000C00C00000012000000FF7F00000C00000017000000FFFFFFFF0C0000003300000000000000
100
AcDbMLeader
300
CONTEXT_DATA{
 40
15.0
 10
994.1499999999999
 20
1826.936443326469
 30
0.0
 41
30.0
140
30.0
145
16.35
174
     6
175
     6
176
     0
177
     0
290
     1
304
{\fMS PGothic|b0|i0|c128|p50;φ}6-4{\fMS PGothic|b0|i0|c128|p50;本}
 11
0.0
 21
0.0
 31
1.0
340
50
 12
1010.5
 22
1862.936443326469
 32
0.0
 13
1.0
 23
0.0
 33
0.0
 42
0.0
 43
0.0
 44
0.0
 45
1.0
170
     1
 90
-1073741824
171
     1
172
     5
 91
-1073741824
141
0.0
 92
        0
291
     0
292
     0
173
     0
293
     0
142
0.0
143
0.0
294
     0
295
     0
296
     0
110
988.7500000000001
120
1932.5
130
0.0
111
1.0
121
0.0
131
0.0
112
0.0
122
1.0
132
0.0
297
     0
302
LEADER{
290
     1
291
     1
 10
988.7500000000001
 20
1826.936443326469
 30
0.0
 11
1.0
 21
0.0
 31
0.0
 90
        0
 40
5.399999999999999
304
LEADER_LINE{
 10
988.7500000000001
 20
1932.5
 30
0.0
 91
        0
305
}
303
}
301
}
340
62
 90
   279552
170
     1
 91
-1056964608
341
56
171
    -2
290
     1
291
     1
 41
0.36
 42
2.0
172
     2
343
50
173
     6
 95
        6
174
     1
175
     0
 92
-1056964608
292
     0
 93
-1056964608
 10
1.0
 20
1.0
 30
1.0
 43
0.0
176
     0
293
     0
294
     0
178
     0
179
     1
 45
15.0
1001
ACAD_MLEADERVER
1070
     2
  0
MULTILEADER
  5
1BBF
330
67
100
AcDbEntity
  8
寸法
 92
      500
310
F4010000170000000C00000016000000000000C00C00000033000000000000000C00000013000000993A00000C00000033000000000000000C00000010000000050000000C00000016000000000000C00C00000012000000FF7F00000C00000013000000010000000C00000014000000010000005400000007000000030000
310
003F2DD66084F69240DFACD00CA1999F400000000000000000D02A09FA806E934034AEABAE8C859F4000000000000000004D42B1967DF692403131640DA1719F4000000000000000000C00000013000000891300003C0000000600000002000000C6B7C3FB80F69240086F1A0DA1859F400000000000000000309C10CD20C7
310
90400000000000869F4000000000000000000C00000013000000112700003C0000000600000002000000309C10CD20C790400000000000869F4000000000000000009602773387B190400000000000869F4000000000000000000C00000016000000000000C00C00000012000000FF7F00000C00000017000000000000000C
310
000000130000009A3A00003C00000006000000020000002F9C10CD207090400000000000869F4000000000000000009502773387B190400000000000869F4000000000000000000C00000016000000000000C00C00000012000000FF7F00000C00000017000000FFFFFFFF0C0000003300000000000000
100
AcDbMLeader
300
CONTEXT_DATA{
 40
15.0
 10
1035.682032260449
 20
2017.5
 30
0.0
 41
30.0
140
30.0
145
16.35
174
     6
175
     6
176
     2
177
     0
290
     1
304

 11
0.0
 21
0.0
 31
1.0
340
50
 12
1052.032032260449
 22
2047.5
 32
0.0
 13
1.0
 23
0.0
 33
0.0
 42
0.0
 43
0.0
 44
0.0
 45
1.0
170
     1
 90
-1073741824
171
     3
172
     5
 91
-1073741824
141
0.0
 92
        0
291
     0
292
     0
173
     0
293
     0
142
0.0
143
0.0
294
     0
295
     0
296
     0
110
1243.625953810919
120
2017.387385065563
130
0.0
111
1.0
121
0.0
131
0.0
112
0.0
122
1.0
132
0.0
297
     0
302
LEADER{
290
     1
291
     1
 10
1073.782032260449
 20
2017.5
 30
0.0
 11
-1.0
 21
0.0
 31
0.0
 90
        0
 40
5.399999999999999
304
LEADER_LINE{
 10
1243.625953810919
 20
2017.387385065563
 30
0.0
 91
        0
305
}
303
}
301
}
340
62
 90
   279552
170
     1
 91
-1056964608
341
56
171
    -2
290
     1
291
     1
 41
0.36
 42
2.0
172
     2
343
50
173
     6
 95
        6
174
     1
175
     2
 92
-1056964608
292
     0
 93
-1056964608
 10
1.0
 20
1.0
 30
1.0
 43
0.0
176
     0
293
     0
294
     0
178
     0
179
     3
 45
15.0
1001
ACAD_MLEADERVER
1070
     2
  0
MULTILEADER
  5
1BC0
330
67
100
AcDbEntity
  8
寸法
 92
      500
310
F4010000170000000C00000016000000000000C00C00000033000000000000000C00000013000000993A00000C00000033000000000000000C00000010000000050000000C00000016000000000000C00C00000012000000FF7F00000C00000013000000010000000C00000014000000010000005400000007000000030000
310
00309C10CD204F904000000000009A9F400000000000000000309C10CD20C790400000000000869F400000000000000000309C10CD204F90400000000000729F4000000000000000000C00000013000000891300003C0000000600000002000000309C10CD204F90400000000000869F400000000000000000FFFFFFFFFF3D
310
8C400000000000869F4000000000000000000C00000013000000112700003C0000000600000002000000FFFFFFFFFF3D8C400000000000869F400000000000000000CCCCCCCCCC128C400000000000869F4000000000000000000C00000016000000000000C00C00000012000000FF7F00000C00000017000000000000000C
310
000000130000009A3A00003C0000000600000002000000FFFFFFFFFF8F8B400000000000869F400000000000000000CCCCCCCCCC128C400000000000869F4000000000000000000C00000016000000000000C00C00000012000000FF7F00000C00000017000000FFFFFFFF0C0000003300000000000000
100
AcDbMLeader
300
CONTEXT_DATA{
 40
15.0
 10
865.6499999999999
 20
2017.5
 30
0.0
 41
30.0
140
30.0
145
16.35
174
     6
175
     6
176
     2
177
     0
290
     1
304

 11
0.0
 21
0.0
 31
1.0
340
50
 12
881.9999999999998
 22
2047.5
 32
0.0
 13
1.0
 23
0.0
 33
0.0
 42
0.0
 43
0.0
 44
0.0
 45
1.0
170
     1
 90
-1073741824
171
     3
172
     5
 91
-1073741824
141
0.0
 92
        0
291
     0
292
     0
173
     0
293
     0
142
0.0
143
0.0
294
     0
295
     0
296
     0
110
1073.782032260449
120
2017.5
130
0.0
111
1.0
121
0.0
131
0.0
112
0.0
122
1.0
132
0.0
297
     0
302
LEADER{
290
     1
291
     1
 10
903.7499999999999
 20
2017.5
 30
0.0
 11
-1.0
 21
0.0
 31
0.0
 90
        0
 40
5.399999999999999
304
LEADER_LINE{
 10
1073.782032260449
 20
2017.5
 30
0.0
 91
        0
305
}
303
}
301
}
340
62
 90
   279552
170
     1
 91
-1056964608
341
56
171
    -2
290
     1
291
     1
 41
0.36
 42
2.0
172
     2
343
50
173
     6
 95
        6
174
     1
175
     2
 92
-1056964608
292
     0
 93
-1056964608
 10
1.0
 20
1.0
 30
1.0
 43
0.0
176
     0
293
     0
294
     0
178
     0
179
     3
 45
15.0
1001
ACAD_MLEADERVER
1070
     2
  0
MULTILEADER
  5
1BC1
330
67
100
AcDbEntity
  8
寸法
 92
      500
310
F4010000170000000C00000016000000000000C00C00000033000000000000000C00000013000000993A00000C00000033000000000000000C00000010000000050000000C00000016000000000000C00C00000012000000FF7F00000C00000013000000010000000C00000014000000010000005400000007000000030000
310
00FFFFFFFFFF4D8B4000000000009A9F400000000000000000FFFFFFFFFF3D8C400000000000869F400000000000000000FFFFFFFFFF4D8B400000000000729F4000000000000000000C00000013000000891300003C0000000600000002000000FFFFFFFFFF4D8B400000000000869F400000000000000000FFFFFFFFFFED
310
86400000000000869F4000000000000000000C00000013000000112700003C0000000600000002000000FFFFFFFFFFED86400000000000869F400000000000000000CCCCCCCCCCC286400000000000869F4000000000000000000C00000016000000000000C00C00000012000000FF7F00000C00000017000000000000000C
310
000000130000009A3A00003C0000000600000002000000FFFFFFFFFF3F86400000000000869F400000000000000000CCCCCCCCCCC286400000000000869F4000000000000000000C00000016000000000000C00C00000012000000FF7F00000C00000017000000FFFFFFFF0C0000003300000000000000
100
AcDbMLeader
300
CONTEXT_DATA{
 40
15.0
 10
695.6499999999998
 20
2017.5
 30
0.0
 41
30.0
140
30.0
145
16.35
174
     6
175
     6
176
     2
177
     0
290
     1
304

 11
0.0
 21
0.0
 31
1.0
340
50
 12
711.9999999999999
 22
2047.5
 32
0.0
 13
1.0
 23
0.0
 33
0.0
 42
0.0
 43
0.0
 44
0.0
 45
1.0
170
     1
 90
-1073741824
171
     3
172
     5
 91
-1073741824
141
0.0
 92
        0
291
     0
292
     0
173
     0
293
     0
142
0.0
143
0.0
294
     0
295
     0
296
     0
110
903.7499999999999
120
2017.5
130
0.0
111
1.0
121
0.0
131
0.0
112
0.0
122
1.0
132
0.0
297
     0
302
LEADER{
290
     1
291
     1
 10
733.7499999999998
 20
2017.5
 30
0.0
 11
-1.0
 21
0.0
 31
0.0
 90
        0
 40
5.399999999999999
304
LEADER_LINE{
 10
903.7499999999999
 20
2017.5
 30
0.0
 91
        0
305
}
303
}
301
}
340
62
 90
   279552
170
     1
 91
-1056964608
341
56
171
    -2
290
     1
291
     1
 41
0.36
 42
2.0
172
     2
343
50
173
     6
 95
        6
174
     1
175
     2
 92
-1056964608
292
     0
 93
-1056964608
 10
1.0
 20
1.0
 30
1.0
 43
0.0
176
     0
293
     0
294
     0
178
     0
179
     3
 45
15.0
1001
ACAD_MLEADERVER
1070
     2
  0
MULTILEADER
  5
1BC2
330
67
100
AcDbEntity
  8
寸法
 92
     1064
310
280400001A0000000C00000016000000000000C00C00000033000000000000000C00000013000000993A0000BC000000260000005D2FC915F7747C40E9A28B2E3A8A9F40000000000000000000000000000000000000000000000000000000000000F03F000000000000F03F00000000000000000000000000000000C60300
310
0001000000010000000000000000003E40000000000000F03F0000000000000000000000000000F03F0000000000000000000000000000000000000000000000000000000001000000320000002DFF33FF200030FFB430B730C330AF30000000000000000000000000BC0000002600000017186CA1252F7F40E9A28B2E3A8A
310
9F40000000000000000000000000000000000000000000000000000000000000F03F000000000000F03F0000000000000000000000000000000034002D003400000003000000010000000000000000003E40000000000000F03F0000000000000000000000000000F03F000000000000000000000000000000000000000000
310
000000000000000100000000000000000000007400780074002E00730068007800000000000000BC000000260000000C0CB6D092678240E9A28B2E3A8A9F40000000000000000000000000000000000000000000000000000000000000F03F000000000000F03F000000000000000000000000000000002C67000001000000
310
010000000000000000003E40000000000000F03F0000000000000000000000000000F03F0000000000000000000000000000000000000000000000000000000001000000320000002DFF33FF200030FFB430B730C330AF3000006C0000000000000000000C00000033000000000000000C00000010000000050000000C0000
310
0016000000000000C00C00000012000000FF7F00000C00000013000000010000000C0000001400000001000000540000000700000003000000FFFFFFFFFFFD854000000000009A9F400000000000000000FFFFFFFFFFED86400000000000869F400000000000000000FFFFFFFFFFFD85400000000000729F40000000000000
310
00000C00000013000000891300003C0000000600000002000000FFFFFFFFFFFD85400000000000869F40000000000000000080DDFBE7EF6084400000000000869F4000000000000000000C00000013000000112700003C000000060000000200000080DDFBE7EF6084400000000000869F4000000000000000004DAAC8B4BC
310
3584400000000000869F4000000000000000000C00000016000000000000C00C00000012000000FF7F00000C00000017000000000000000C000000130000009A3A00003C0000000600000002000000A446268AC8027D400000000000869F4000000000000000004DAAC8B4BC3584400000000000869F400000000000000000
310
0C00000016000000000000C00C00000012000000FF7F00000C00000017000000FFFFFFFF0C0000003300000000000000
100
AcDbMLeader
300
CONTEXT_DATA{
 40
15.0
 10
447.8239598746446
 20
2017.5
 30
0.0
 41
30.0
140
30.0
145
16.35
174
     6
175
     6
176
     2
177
     0
290
     1
304
{\fMS PGothic|b0|i0|c128|p50;φ}4-4{\fMS PGothic|b0|i0|c128|p50;本}
 11
0.0
 21
0.0
 31
1.0
340
50
 12
630.3671416928263
 22
2053.5
 32
0.0
 13
1.0
 23
0.0
 33
0.0
 42
0.0
 43
0.0
 44
0.0
 45
1.0
170
     1
 90
-1073741824
171
     3
172
     5
 91
-1073741824
141
0.0
 92
        0
291
     0
292
     0
173
     0
293
     0
142
0.0
143
0.0
294
     0
295
     0
296
     0
110
733.7499999999998
120
2017.5
130
0.0
111
1.0
121
0.0
131
0.0
112
0.0
122
1.0
132
0.0
297
     0
302
LEADER{
290
     1
291
     1
 10
652.1171416928264
 20
2017.5
 30
0.0
 11
-1.0
 21
0.0
 31
0.0
 90
        0
 40
5.399999999999999
304
LEADER_LINE{
 10
733.7499999999998
 20
2017.5
 30
0.0
 91
        0
305
}
303
}
301
}
340
62
 90
   279552
170
     1
 91
-1056964608
341
56
171
    -2
290
     1
291
     1
 41
0.36
 42
2.0
172
     2
343
50
173
     6
 95
        6
174
     1
175
     2
 92
-1056964608
292
     0
 93
-1056964608
 10
1.0
 20
1.0
 30
1.0
 43
0.0
176
     0
293
     0
294
     0
178
     0
179
     3
 45
15.0
1001
ACAD_MLEADERVER
1070
     2
  0
MTEXT
  5
1BC3
330
67
100
AcDbEntity
  8
寸法
100
AcDbMText
 10
1010.5
 20
2302.5
 30
0.0
 40
30.0
 41
0.0
 46
0.0
 71
     1
 72
     5
  1

 73
     1
 44
1.0
  0
LWPOLYLINE
  5
1BC5
330
67
100
AcDbEntity
  8
寸法
  6
ByBlock
370
    -2
100
AcDbPolyline
 90
        2
 70
     0
 43
0.0
 10
988.7500000000001
 20
2412.5
 10
988.7500000000001
 20
2272.5
  0
SOLID
  5
1BC6
330
67
100
AcDbEntity
  8
寸法
100
AcDbTrace
 10
983.75
 20
2412.5
 30
0.0
 11
988.7500000000001
 21
2442.5
 31
0.0
 12
993.75
 22
2412.5
 32
0.0
 13
993.75
 23
2412.5
 33
0.0
  0
MTEXT
  5
1BC8
330
67
100
AcDbEntity
  8
寸法
100
AcDbMText
 10
1010.5
 20
2132.5
 30
0.0
 40
30.0
 41
0.0
 46
0.0
 71
     1
 72
     5
  1

 73
     1
 44
1.0
  0
LWPOLYLINE
  5
1BCA
330
67
100
AcDbEntity
  8
寸法
  6
ByBlock
370
    -2
100
AcDbPolyline
 90
        2
 70
     0
 43
0.0
 10
988.7500000000001
 20
2242.5
 10
988.7500000000001
 20
2102.5
  0
SOLID
  5
1BCB
330
67
100
AcDbEntity
  8
寸法
100
AcDbTrace
 10
983.75
 20
2242.5
 30
0.0
 11
988.7500000000001
 21
2272.5
 31
0.0
 12
993.75
 22
2242.5
 32
0.0
 13
993.75
 23
2242.5
 33
0.0
  0
MTEXT
  5
1BCD
330
67
100
AcDbEntity
  8
寸法
100
AcDbMText
 10
1010.5
 20
1962.5
 30
0.0
 40
30.0
 41
0.0
 46
0.0
 71
     1
 72
     5
  1

 73
     1
 44
1.0
  0
LWPOLYLINE
  5
1BCF
330
67
100
AcDbEntity
  8
寸法
  6
ByBlock
370
    -2
100
AcDbPolyline
 90
        2
 70
     0
 43
0.0
 10
988.7500000000001
 20
2072.5
 10
988.7500000000001
 20
1932.5
  0
SOLID
  5
1BD0
330
67
100
AcDbEntity
  8
寸法
100
AcDbTrace
 10
983.75
 20
2072.5
 30
0.0
 11
988.7500000000001
 21
2102.5
 31
0.0
 12
993.75
 22
2072.5
 32
0.0
 13
993.75
 23
2072.5
 33
0.0
  0
LINE
  5
1BD2
330
67
100
AcDbEntity
  8
鉄筋
100
AcDbLine
 10
988.7500000000001
 20
1082.5
 30
0.0
 11
988.7500000000001
 21
542.5000000000002
 31
0.0
  0
LWPOLYLINE
  5
1BD3
330
67
100
AcDbEntity
  8
寸法
  6
ByBlock
370
    -2
100
AcDbPolyline
 90
        2
 70
     0
 43
0.0
 10
988.7500000000001
 20
1037.5
 10
988.7500000000001
 20
897.5000000000003
  0
SOLID
  5
1BD4
330
67
100
AcDbEntity
  8
寸法
100
AcDbTrace
 10
983.75
 20
1037.5
 30
0.0
 11
988.7500000000001
 21
1067.5
 31
0.0
 12
993.75
 22
1037.5
 32
0.0
 13
993.75
 23
1037.5
 33
0.0
  0
LWPOLYLINE
  5
1BD5
330
67
100
AcDbEntity
  8
寸法
  6
ByBlock
370
    -2
100
AcDbPolyline
 90
        2
 70
     0
 43
0.0
 10
988.7500000000001
 20
867.5000000000002
 10
988.7500000000001
 20
727.5000000000002
  0
SOLID
  5
1BD6
330
67
100
AcDbEntity
  8
寸法
100
AcDbTrace
 10
983.75
 20
867.5000000000002
 30
0.0
 11
988.7500000000001
 21
897.5000000000003
 31
0.0
 12
993.75
 22
867.5000000000002
 32
0.0
 13
993.75
 23
867.5000000000002
 33
0.0
  0
LWPOLYLINE
  5
1BD7
330
67
100
AcDbEntity
  8
寸法
  6
ByBlock
370
    -2
100
AcDbPolyline
 90
        2
 70
     0
 43
0.0
 10
988.7500000000001
 20
697.5000000000002
 10
988.7500000000001
 20
557.5000000000001
  0
SOLID
  5
1BD8
330
67
100
AcDbEntity
  8
寸法
100
AcDbTrace
 10
983.75
 20
697.5000000000002
 30
0.0
 11
988.7500000000001
 21
727.5000000000002
 31
0.0
 12
993.75
 22
697.5000000000002
 32
0.0
 13
993.75
 23
697.5000000000002
 33
0.0
  0
MULTILEADER
  5
1BD9
330
67
100
AcDbEntity
  8
寸法
 92
     1064
310
280400001A0000000C00000016000000000000C00C00000033000000000000000C00000013000000993A0000BC000000260000005D74D145174D8F4087E72D66E44F7C40000000000000000000000000000000000000000000000000000000000000F03F000000000000F03F00000000000000000000000000000000C60300
310
0001000000010000000000000000003E40000000000000F03F0000000000000000000000000000F03F0000000000000000000000000000000000000000000000000000000001000000320000002DFF33FF200030FFB430B730C330AF3000006C000000000000000000BC000000260000005D74D1451755904087E72D66E44F
310
7C40000000000000000000000000000000000000000000000000000000000000F03F000000000000F03F0000000000000000000000000000000036002D003400000003000000010000000000000000003E40000000000000F03F0000000000000000000000000000F03F000000000000000000000000000000000000000000
310
000000000000000100000000000000000000007400780074002E00730068007800000000000000BC000000260000005D74D14517BD914087E72D66E44F7C40000000000000000000000000000000000000000000000000000000000000F03F000000000000F03F000000000000000000000000000000002C67000001000000
310
010000000000000000003E40000000000000F03F0000000000000000000000000000F03F0000000000000000000000000000000000000000000000000000000001000000320000002DFF33FF200030FFB430B730C330AF300000000000000000000000000C00000033000000000000000C00000010000000050000000C0000
310
0016000000000000C00C00000012000000FF7F00000C00000013000000010000000C00000014000000010000005400000007000000030000000000000000BE8E4002000000007C804000000000000000000000000000E68E4002000000006C8140000000000000000000000000000E8F4002000000007C8040000000000000
310
00000C00000013000000891300003C00000006000000020000000000000000E68E4002000000007C804000000000000000000000000000E68E40E45BFFABFB3E7C4000000000000000000C00000013000000112700003C00000006000000020000000000000000E68E40E45BFFABFB3E7C4000000000000000003333333333
310
118F40E45BFFABFB3E7C4000000000000000000C00000016000000000000C00C00000012000000FF7F00000C00000017000000000000000C000000130000009A3A00003C00000006000000020000003333333333118F40E45BFFABFB3E7C400000000000000000175D74D1C5629240E45BFFABFB3E7C400000000000000000
310
0C00000016000000000000C00C00000012000000FF7F00000C00000017000000FFFFFFFF0C0000003300000000000000
100
AcDbMLeader
300
CONTEXT_DATA{
 40
15.0
 10
994.1499999999999
 20
451.9364433264692
 30
0.0
 41
30.0
140
30.0
145
16.35
174
     6
175
     6
176
     0
177
     0
290
     1
304
{\fMS PGothic|b0|i0|c128|p50;φ}6-4{\fMS PGothic|b0|i0|c128|p50;本}
 11
0.0
 21
0.0
 31
1.0
340
50
 12
1010.5
 22
487.9364433264693
 32
0.0
 13
1.0
 23
0.0
 33
0.0
 42
0.0
 43
0.0
 44
0.0
 45
1.0
170
     1
 90
-1073741824
171
     1
172
     5
 91
-1073741824
141
0.0
 92
        0
291
     0
292
     0
173
     0
293
     0
142
0.0
143
0.0
294
     0
295
     0
296
     0
110
988.7500000000001
120
557.5000000000001
130
0.0
111
1.0
121
0.0
131
0.0
112
0.0
122
1.0
132
0.0
297
     0
302
LEADER{
290
     1
291
     1
 10
988.7500000000001
 20
451.9364433264692
 30
0.0
 11
1.0
 21
0.0
 31
0.0
 90
        0
 40
5.399999999999999
304
LEADER_LINE{
 10
988.7500000000001
 20
557.5000000000001
 30
0.0
 91
        0
305
}
303
}
301
}
340
62
 90
   279552
170
     1
 91
-1056964608
341
56
171
    -2
290
     1
291
     1
 41
0.36
 42
2.0
172
     2
343
50
173
     6
 95
        6
174
     1
175
     0
 92
-1056964608
292
     0
 93
-1056964608
 10
1.0
 20
1.0
 30
1.0
 43
0.0
176
     0
293
     0
294
     0
178
     0
179
     1
 45
15.0
1001
ACAD_MLEADERVER
1070
     2
  0
MULTILEADER
  5
1BDA
330
67
100
AcDbEntity
  8
寸法
 92
      500
310
F4010000170000000C00000016000000000000C00C00000033000000000000000C00000013000000993A00000C00000033000000000000000C00000010000000050000000C00000016000000000000C00C00000012000000FF7F00000C00000013000000010000000C00000014000000010000005400000007000000030000
310
003F2DD66084F69240C159A119423B84400000000000000000D02A09FA806E93406A5C575D1913844000000000000000004D42B1967DF692406562C81A42EB834000000000000000000C00000013000000891300003C0000000600000002000000C6B7C3FB80F6924013DE341A421384400000000000000000309C10CD20C7
310
9040020000000014844000000000000000000C00000013000000112700003C0000000600000002000000309C10CD20C79040020000000014844000000000000000009602773387B19040020000000014844000000000000000000C00000016000000000000C00C00000012000000FF7F00000C00000017000000000000000C
310
000000130000009A3A00003C00000006000000020000002F9C10CD20709040020000000014844000000000000000009502773387B19040020000000014844000000000000000000C00000016000000000000C00C00000012000000FF7F00000C00000017000000FFFFFFFF0C0000003300000000000000
100
AcDbMLeader
300
CONTEXT_DATA{
 40
15.0
 10
1035.682032260449
 20
642.5000000000002
 30
0.0
 41
30.0
140
30.0
145
16.35
174
     6
175
     6
176
     2
177
     0
290
     1
304

 11
0.0
 21
0.0
 31
1.0
340
50
 12
1052.032032260449
 22
672.5000000000002
 32
0.0
 13
1.0
 23
0.0
 33
0.0
 42
0.0
 43
0.0
 44
0.0
 45
1.0
170
     1
 90
-1073741824
171
     3
172
     5
 91
-1073741824
141
0.0
 92
        0
291
     0
292
     0
173
     0
293
     0
142
0.0
143
0.0
294
     0
295
     0
296
     0
110
1243.625953810919
120
642.3873850655629
130
0.0
111
1.0
121
0.0
131
0.0
112
0.0
122
1.0
132
0.0
297
     0
302
LEADER{
290
     1
291
     1
 10
1073.782032260449
 20
642.5000000000002
 30
0.0
 11
-1.0
 21
0.0
 31
0.0
 90
        0
 40
5.399999999999999
304
LEADER_LINE{
 10
1243.625953810919
 20
642.3873850655629
 30
0.0
 91
        0
305
}
303
}
301
}
340
62
 90
   279552
170
     1
 91
-1056964608
341
56
171
    -2
290
     1
291
     1
 41
0.36
 42
2.0
172
     2
343
50
173
     6
 95
        6
174
     1
175
     2
 92
-1056964608
292
     0
 93
-1056964608
 10
1.0
 20
1.0
 30
1.0
 43
0.0
176
     0
293
     0
294
     0
178
     0
179
     3
 45
15.0
1001
ACAD_MLEADERVER
1070
     2
  0
MULTILEADER
  5
1BDB
330
67
100
AcDbEntity
  8
寸法
 92
      500
310
F4010000170000000C00000016000000000000C00C00000033000000000000000C00000013000000993A00000C00000033000000000000000C00000010000000050000000C00000016000000000000C00C00000012000000FF7F00000C00000013000000010000000C00000014000000010000005400000007000000030000
310
00309C10CD204F904002000000003C84400000000000000000309C10CD20C7904002000000001484400000000000000000309C10CD204F90400200000000EC834000000000000000000C00000013000000891300003C0000000600000002000000309C10CD204F904002000000001484400000000000000000FFFFFFFFFF3D
310
8C40020000000014844000000000000000000C00000013000000112700003C0000000600000002000000FFFFFFFFFF3D8C4002000000001484400000000000000000CCCCCCCCCC128C40020000000014844000000000000000000C00000016000000000000C00C00000012000000FF7F00000C00000017000000000000000C
310
000000130000009A3A00003C0000000600000002000000FFFFFFFFFF8F8B4002000000001484400000000000000000CCCCCCCCCC128C40020000000014844000000000000000000C00000016000000000000C00C00000012000000FF7F00000C00000017000000FFFFFFFF0C0000003300000000000000
100
AcDbMLeader
300
CONTEXT_DATA{
 40
15.0
 10
865.6499999999999
 20
642.5000000000002
 30
0.0
 41
30.0
140
30.0
145
16.35
174
     6
175
     6
176
     2
177
     0
290
     1
304

 11
0.0
 21
0.0
 31
1.0
340
50
 12
881.9999999999998
 22
672.5000000000002
 32
0.0
 13
1.0
 23
0.0
 33
0.0
 42
0.0
 43
0.0
 44
0.0
 45
1.0
170
     1
 90
-1073741824
171
     3
172
     5
 91
-1073741824
141
0.0
 92
        0
291
     0
292
     0
173
     0
293
     0
142
0.0
143
0.0
294
     0
295
     0
296
     0
110
1073.782032260449
120
642.5000000000002
130
0.0
111
1.0
121
0.0
131
0.0
112
0.0
122
1.0
132
0.0
297
     0
302
LEADER{
290
     1
291
     1
 10
903.7499999999999
 20
642.5000000000002
 30
0.0
 11
-1.0
 21
0.0
 31
0.0
 90
        0
 40
5.399999999999999
304
LEADER_LINE{
 10
1073.782032260449
 20
642.5000000000002
 30
0.0
 91
        0
305
}
303
}
301
}
340
62
 90
   279552
170
     1
 91
-1056964608
341
56
171
    -2
290
     1
291
     1
 41
0.36
 42
2.0
172
     2
343
50
173
     6
 95
        6
174
     1
175
     2
 92
-1056964608
292
     0
 93
-1056964608
 10
1.0
 20
1.0
 30
1.0
 43
0.0
176
     0
293
     0
294
     0
178
     0
179
     3
 45
15.0
1001
ACAD_MLEADERVER
1070
     2
  0
MULTILEADER
  5
1BDC
330
67
100
AcDbEntity
  8
寸法
 92
      500
310
F4010000170000000C00000016000000000000C00C00000033000000000000000C00000013000000993A00000C00000033000000000000000C00000010000000050000000C00000016000000000000C00C00000012000000FF7F00000C00000013000000010000000C00000014000000010000005400000007000000030000
310
00FFFFFFFFFF4D8B4002000000003C84400000000000000000FFFFFFFFFF3D8C4002000000001484400000000000000000FFFFFFFFFF4D8B400200000000EC834000000000000000000C00000013000000891300003C0000000600000002000000FFFFFFFFFF4D8B4002000000001484400000000000000000FFFFFFFFFFED
310
8640020000000014844000000000000000000C00000013000000112700003C0000000600000002000000FFFFFFFFFFED864002000000001484400000000000000000CCCCCCCCCCC28640020000000014844000000000000000000C00000016000000000000C00C00000012000000FF7F00000C00000017000000000000000C
310
000000130000009A3A00003C0000000600000002000000FFFFFFFFFF3F864002000000001484400000000000000000CCCCCCCCCCC28640020000000014844000000000000000000C00000016000000000000C00C00000012000000FF7F00000C00000017000000FFFFFFFF0C0000003300000000000000
100
AcDbMLeader
300
CONTEXT_DATA{
 40
15.0
 10
695.6499999999998
 20
642.5000000000002
 30
0.0
 41
30.0
140
30.0
145
16.35
174
     6
175
     6
176
     2
177
     0
290
     1
304

 11
0.0
 21
0.0
 31
1.0
340
50
 12
711.9999999999999
 22
672.5000000000002
 32
0.0
 13
1.0
 23
0.0
 33
0.0
 42
0.0
 43
0.0
 44
0.0
 45
1.0
170
     1
 90
-1073741824
171
     3
172
     5
 91
-1073741824
141
0.0
 92
        0
291
     0
292
     0
173
     0
293
     0
142
0.0
143
0.0
294
     0
295
     0
296
     0
110
903.7499999999999
120
642.5000000000002
130
0.0
111
1.0
121
0.0
131
0.0
112
0.0
122
1.0
132
0.0
297
     0
302
LEADER{
290
     1
291
     1
 10
733.7499999999998
 20
642.5000000000002
 30
0.0
 11
-1.0
 21
0.0
 31
0.0
 90
        0
 40
5.399999999999999
304
LEADER_LINE{
 10
903.7499999999999
 20
642.5000000000002
 30
0.0
 91
        0
305
}
303
}
301
}
340
62
 90
   279552
170
     1
 91
-1056964608
341
56
171
    -2
290
     1
291
     1
 41
0.36
 42
2.0
172
     2
343
50
173
     6
 95
        6
174
     1
175
     2
 92
-1056964608
292
     0
 93
-1056964608
 10
1.0
 20
1.0
 30
1.0
 43
0.0
176
     0
293
     0
294
     0
178
     0
179
     3
 45
15.0
1001
ACAD_MLEADERVER
1070
     2
  0
MULTILEADER
  5
1BDD
330
67
100
AcDbEntity
  8
寸法
 92
     1064
310
280400001A0000000C00000016000000000000C00C00000033000000000000000C00000013000000993A0000BC000000260000005D2FC915F7747C40D345175D741C8440000000000000000000000000000000000000000000000000000000000000F03F000000000000F03F00000000000000000000000000000000C60300
310
0001000000010000000000000000003E40000000000000F03F0000000000000000000000000000F03F0000000000000000000000000000000000000000000000000000000001000000320000002DFF33FF200030FFB430B730C330AF30000000000000000000000000BC0000002600000017186CA1252F7F40D345175D741C
310
8440000000000000000000000000000000000000000000000000000000000000F03F000000000000F03F0000000000000000000000000000000034002D003400000003000000010000000000000000003E40000000000000F03F0000000000000000000000000000F03F000000000000000000000000000000000000000000
310
000000000000000100000000000000000000007400780074002E00730068007800000000000000BC000000260000000C0CB6D092678240D345175D741C8440000000000000000000000000000000000000000000000000000000000000F03F000000000000F03F000000000000000000000000000000002C67000001000000
310
010000000000000000003E40000000000000F03F0000000000000000000000000000F03F0000000000000000000000000000000000000000000000000000000001000000320000002DFF33FF200030FFB430B730C330AF3000006C0000000000000000000C00000033000000000000000C00000010000000050000000C0000
310
0016000000000000C00C00000012000000FF7F00000C00000013000000010000000C0000001400000001000000540000000700000003000000FFFFFFFFFFFD854002000000003C84400000000000000000FFFFFFFFFFED864002000000001484400000000000000000FFFFFFFFFFFD85400200000000EC8340000000000000
310
00000C00000013000000891300003C0000000600000002000000FFFFFFFFFFFD85400200000000148440000000000000000080DDFBE7EF608440020000000014844000000000000000000C00000013000000112700003C000000060000000200000080DDFBE7EF608440020000000014844000000000000000004DAAC8B4BC
310
358440020000000014844000000000000000000C00000016000000000000C00C00000012000000FF7F00000C00000017000000000000000C000000130000009A3A00003C0000000600000002000000A446268AC8027D40020000000014844000000000000000004DAAC8B4BC35844002000000001484400000000000000000
310
0C00000016000000000000C00C00000012000000FF7F00000C00000017000000FFFFFFFF0C0000003300000000000000
100
AcDbMLeader
300
CONTEXT_DATA{
 40
15.0
 10
447.8239598746446
 20
642.5000000000002
 30
0.0
 41
30.0
140
30.0
145
16.35
174
     6
175
     6
176
     2
177
     0
290
     1
304
{\fMS PGothic|b0|i0|c128|p50;φ}4-4{\fMS PGothic|b0|i0|c128|p50;本}
 11
0.0
 21
0.0
 31
1.0
340
50
 12
630.3671416928263
 22
678.5000000000002
 32
0.0
 13
1.0
 23
0.0
 33
0.0
 42
0.0
 43
0.0
 44
0.0
 45
1.0
170
     1
 90
-1073741824
171
     3
172
     5
 91
-1073741824
141
0.0
 92
        0
291
     0
292
     0
173
     0
293
     0
142
0.0
143
0.0
294
     0
295
     0
296
     0
110
733.7499999999998
120
642.5000000000002
130
0.0
111
1.0
121
0.0
131
0.0
112
0.0
122
1.0
132
0.0
297
     0
302
LEADER{
290
     1
291
     1
 10
652.1171416928264
 20
642.5000000000002
 30
0.0
 11
-1.0
 21
0.0
 31
0.0
 90
        0
 40
5.399999999999999
304
LEADER_LINE{
 10
733.7499999999998
 20
642.5000000000002
 30
0.0
 91
        0
305
}
303
}
301
}
340
62
 90
   279552
170
     1
 91
-1056964608
341
56
171
    -2
290
     1
291
     1
 41
0.36
 42
2.0
172
     2
343
50
173
     6
 95
        6
174
     1
175
     2
 92
-1056964608
292
     0
 93
-1056964608
 10
1.0
 20
1.0
 30
1.0
 43
0.0
176
     0
293
     0
294
     0
178
     0
179
     3
 45
15.0
1001
ACAD_MLEADERVER
1070
     2
  0
LWPOLYLINE
  5
1C42
102
{ACAD_REACTORS
330
1CC6
102
}
330
67
100
AcDbEntity
  8
鉄筋
100
AcDbPolyline
 90
        4
 70
     1
 43
0.0
 10
1922.5
 20
2492.500000000001
 10
2532.5
 20
2492.500000000001
 10
2532.5
 20
1882.499999999999
 10
1922.5
 20
1882.499999999999
  0
LWPOLYLINE
  5
1C43
102
{ACAD_REACTORS
330
1CC3
102
}
330
67
100
AcDbEntity
  8
鉄筋
100
AcDbPolyline
 90
        4
 70
     1
 43
0.0
 10
1962.5
 20
2452.500000000001
 10
2492.5
 20
2452.500000000001
 10
2492.5
 20
1922.5
 10
1962.5
 20
1922.499999999999
  0
LINE
  5
1C44
330
67
100
AcDbEntity
  8
鉄筋
100
AcDbLine
 10
2492.5
 20
2297.5
 30
0.0
 11
2562.5
 21
2297.5
 31
0.0
  0
LWPOLYLINE
  5
1C45
102
{ACAD_REACTORS
330
1CC9
102
}
330
67
100
AcDbEntity
  8
鉄筋
100
AcDbPolyline
 90
        4
 70
     1
 43
0.0
 10
1892.5
 20
2522.500000000001
 10
2562.5
 20
2522.500000000001
 10
2562.5
 20
1852.499999999999
 10
1892.5
 20
1852.499999999999
  0
LINE
  5
1C46
330
67
100
AcDbEntity
  8
鉄筋
100
AcDbLine
 10
2117.5
 20
2522.500000000001
 30
0.0
 11
2117.5
 21
2452.500000000001
 31
0.0
  0
LINE
  5
1C47
330
67
100
AcDbEntity
  8
鉄筋
100
AcDbLine
 10
2337.5
 20
2522.500000000001
 30
0.0
 11
2337.5
 21
2452.500000000001
 31
0.0
  0
LINE
  5
1C48
102
{ACAD_REACTORS
330
1CBD
102
}
330
67
100
AcDbEntity
  8
鉄筋
100
AcDbLine
 10
2117.500000000001
 20
1922.499999999999
 30
0.0
 11
2117.500000000001
 21
1852.499999999999
 31
0.0
  0
LINE
  5
1C49
102
{ACAD_REACTORS
330
1CC0
102
}
330
67
100
AcDbEntity
  8
鉄筋
100
AcDbLine
 10
2337.5
 20
1922.499999999999
 30
0.0
 11
2337.5
 21
1852.499999999999
 31
0.0
  0
LINE
  5
1C4A
330
67
100
AcDbEntity
  8
鉄筋
100
AcDbLine
 10
2492.5
 20
2077.5
 30
0.0
 11
2562.5
 21
2077.5
 31
0.0
  0
LINE
  5
1C4B
330
67
100
AcDbEntity
  8
鉄筋
100
AcDbLine
 10
1892.5
 20
2297.5
 30
0.0
 11
1962.5
 21
2297.5
 31
0.0
  0
LINE
  5
1C4C
330
67
100
AcDbEntity
  8
鉄筋
100
AcDbLine
 10
1892.5
 20
2077.5
 30
0.0
 11
1962.5
 21
2077.5
 31
0.0
  0
LINE
  5
1C5B
330
67
100
AcDbEntity
  8
鉄筋
100
AcDbLine
 10
1892.5
 20
1402.5
 30
0.0
 11
1892.5
 21
1472.5
 31
0.0
  0
LINE
  5
1C5C
330
67
100
AcDbEntity
  8
鉄筋
100
AcDbLine
 10
1892.5
 20
1472.5
 30
0.0
 11
1927.5
 21
1472.5
 31
0.0
  0
LINE
  5
1C5D
330
67
100
AcDbEntity
  8
鉄筋
100
AcDbLine
 10
1927.5
 20
1472.5
 30
0.0
 11
1927.5
 21
1419.5
 31
0.0
  0
LINE
  5
1C5E
330
67
100
AcDbEntity
  8
鉄筋
100
AcDbLine
 10
1927.5
 20
1419.5
 30
0.0
 11
1962.5
 21
1419.5
 31
0.0
  0
LINE
  5
1C5F
330
67
100
AcDbEntity
  8
鉄筋
100
AcDbLine
 10
1962.5
 20
1419.5
 30
0.0
 11
1962.5
 21
1402.5
 31
0.0
  0
LINE
  5
1C60
330
67
100
AcDbEntity
  8
鉄筋
100
AcDbLine
 10
1962.5
 20
1402.5
 30
0.0
 11
1892.5
 21
1402.5
 31
0.0
  0
LINE
  5
1C61
330
67
100
AcDbEntity
  8
鉄筋
100
AcDbLine
 10
2527.5
 20
1472.5
 30
0.0
 11
2562.5
 21
1472.5
 31
0.0
  0
LINE
  5
1C62
330
67
100
AcDbEntity
  8
鉄筋
100
AcDbLine
 10
2562.5
 20
1472.5
 30
0.0
 11
2562.5
 21
1402.5
 31
0.0
  0
LINE
  5
1C63
330
67
100
AcDbEntity
  8
鉄筋
100
AcDbLine
 10
2562.5
 20
1402.5
 30
0.0
 11
2492.5
 21
1402.5
 31
0.0
  0
LINE
  5
1C64
330
67
100
AcDbEntity
  8
鉄筋
100
AcDbLine
 10
2492.5
 20
1402.5
 30
0.0
 11
2492.5
 21
1419.5
 31
0.0
  0
LINE
  5
1C65
330
67
100
AcDbEntity
  8
鉄筋
100
AcDbLine
 10
2492.5
 20
1419.5
 30
0.0
 11
2527.5
 21
1419.5
 31
0.0
  0
LINE
  5
1C66
330
67
100
AcDbEntity
  8
鉄筋
100
AcDbLine
 10
2527.5
 20
1419.5
 30
0.0
 11
2527.5
 21
1472.5
 31
0.0
  0
CIRCLE
  5
1C73
330
67
100
AcDbEntity
  8
鉄筋2
100
AcDbCircle
 10
1894.5
 20
1470.5
 30
0.0
 40
2.0
  0
CIRCLE
  5
1C74
330
67
100
AcDbEntity
  8
鉄筋2
100
AcDbCircle
 10
1925.5
 20
1470.5
 30
0.0
 40
2.0
  0
CIRCLE
  5
1C75
330
67
100
AcDbEntity
  8
鉄筋2
100
AcDbCircle
 10
1894.5
 20
1404.5
 30
0.0
 40
2.0
  0
CIRCLE
  5
1C76
330
67
100
AcDbEntity
  8
鉄筋2
100
AcDbCircle
 10
1960.5
 20
1404.5
 30
0.0
 40
2.0
  0
CIRCLE
  5
1C77
330
67
100
AcDbEntity
  8
鉄筋2
100
AcDbCircle
 10
1960.5
 20
1417.5
 30
0.0
 40
2.0
  0
CIRCLE
  5
1C78
330
67
100
AcDbEntity
  8
鉄筋2
100
AcDbCircle
 10
2529.5
 20
1470.5
 30
0.0
 40
2.0
  0
CIRCLE
  5
1C79
330
67
100
AcDbEntity
  8
鉄筋2
100
AcDbCircle
 10
2560.5
 20
1470.5
 30
0.0
 40
2.0
  0
CIRCLE
  5
1C7A
330
67
100
AcDbEntity
  8
鉄筋2
100
AcDbCircle
 10
2560.5
 20
1404.5
 30
0.0
 40
2.0
  0
CIRCLE
  5
1C7B
330
67
100
AcDbEntity
  8
鉄筋2
100
AcDbCircle
 10
2494.5
 20
1404.5
 30
0.0
 40
2.0
  0
CIRCLE
  5
1C7C
330
67
100
AcDbEntity
  8
鉄筋2
100
AcDbCircle
 10
2494.5
 20
1417.5
 30
0.0
 40
2.0
  0
LWPOLYLINE
  5
1C9F
330
67
100
AcDbEntity
  8
鉄筋
100
AcDbPolyline
 90
        4
 70
     1
 43
0.0
 10
3186.25
 20
2467.5
 10
3746.249999999999
 20
2467.5
 10
3746.249999999999
 20
1907.5
 10
3186.25
 20
1907.5
  0
CIRCLE
  5
1CA0
330
67
100
AcDbEntity
  8
鉄筋2
100
AcDbCircle
 10
3188.25
 20
1909.5
 30
0.0
 40
2.0
  0
CIRCLE
  5
1CA1
330
67
100
AcDbEntity
  8
鉄筋2
100
AcDbCircle
 10
3188.25
 20
2094.1666667
 30
0.0
 40
2.0
  0
CIRCLE
  5
1CA2
330
67
100
AcDbEntity
  8
鉄筋2
100
AcDbCircle
 10
3188.25
 20
2280.8333333
 30
0.0
 40
2.0
  0
CIRCLE
  5
1CA3
330
67
100
AcDbEntity
  8
鉄筋2
100
AcDbCircle
 10
3188.25
 20
2465.5
 30
0.0
 40
2.0
  0
CIRCLE
  5
1CA4
330
67
100
AcDbEntity
  8
鉄筋2
100
AcDbCircle
 10
3374.9166667
 20
2465.5
 30
0.0
 40
2.0
  0
CIRCLE
  5
1CA5
330
67
100
AcDbEntity
  8
鉄筋2
100
AcDbCircle
 10
3559.583333300001
 20
2465.5
 30
0.0
 40
2.0
  0
CIRCLE
  5
1CA6
330
67
100
AcDbEntity
  8
鉄筋2
100
AcDbCircle
 10
3744.25
 20
2465.5
 30
0.0
 40
2.0
  0
CIRCLE
  5
1CA7
330
67
100
AcDbEntity
  8
鉄筋2
100
AcDbCircle
 10
3744.25
 20
2280.8333333
 30
0.0
 40
2.0
  0
CIRCLE
  5
1CA9
330
67
100
AcDbEntity
  8
鉄筋2
100
AcDbCircle
 10
3744.25
 20
2094.166666700001
 30
0.0
 40
2.0
  0
CIRCLE
  5
1CAA
330
67
100
AcDbEntity
  8
鉄筋2
100
AcDbCircle
 10
3744.249999999999
 20
1909.499999999999
 30
0.0
 40
2.0
  0
CIRCLE
  5
1CAB
330
67
100
AcDbEntity
  8
鉄筋2
100
AcDbCircle
 10
3559.583333299999
 20
1909.5
 30
0.0
 40
2.0
  0
CIRCLE
  5
1CAC
330
67
100
AcDbEntity
  8
鉄筋2
100
AcDbCircle
 10
3374.9166667
 20
1909.5
 30
0.0
 40
2.0
  0
CIRCLE
  5
1CAD
102
{ACAD_REACTORS
330
1CD8
102
}
330
67
100
AcDbEntity
  8
鉄筋2
100
AcDbCircle
 10
3184.25
 20
1557.5
 30
0.0
 40
2.0
  0
CIRCLE
  5
1CAE
102
{ACAD_REACTORS
330
1CD5
102
}
330
67
100
AcDbEntity
  8
鉄筋2
100
AcDbCircle
 10
3184.25
 20
1437.5
 30
0.0
 40
2.0
  0
CIRCLE
  5
1CAF
102
{ACAD_REACTORS
330
1CD2
102
}
330
67
100
AcDbEntity
  8
鉄筋2
100
AcDbCircle
 10
3184.25
 20
1317.5
 30
0.0
 40
2.0
  0
CIRCLE
  5
1CB0
330
67
100
AcDbEntity
  8
鉄筋2
100
AcDbCircle
 10
3748.249999999998
 20
1317.5
 30
0.0
 40
2.0
  0
CIRCLE
  5
1CB1
330
67
100
AcDbEntity
  8
鉄筋2
100
AcDbCircle
 10
3748.249999999998
 20
1437.5
 30
0.0
 40
2.0
  0
CIRCLE
  5
1CB2
330
67
100
AcDbEntity
  8
鉄筋2
100
AcDbCircle
 10
3748.249999999998
 20
1557.5
 30
0.0
 40
2.0
  0
CIRCLE
  5
1CB3
330
67
100
AcDbEntity
  8
鉄筋2
100
AcDbCircle
 10
3748.249999999997
 20
957.4999999999981
 30
0.0
 40
2.0
  0
CIRCLE
  5
1CB4
330
67
100
AcDbEntity
  8
鉄筋2
100
AcDbCircle
 10
3748.249999999997
 20
867.5
 30
0.0
 40
2.0
  0
CIRCLE
  5
1CB5
102
{ACAD_REACTORS
330
1CE7
102
}
330
67
100
AcDbEntity
  8
鉄筋2
100
AcDbCircle
 10
3184.25
 20
867.5
 30
0.0
 40
2.0
  0
CIRCLE
  5
1CB6
102
{ACAD_REACTORS
330
1CE4
102
}
330
67
100
AcDbEntity
  8
鉄筋2
100
AcDbCircle
 10
3184.25
 20
957.4999999999997
 30
0.0
 40
2.0
  0
LINE
  5
1CB7
330
67
100
AcDbEntity
  8
鉄筋
100
AcDbLine
 10
3186.25
 20
972.4999999999996
 30
0.0
 11
3186.25
 21
852.5
 31
0.0
  0
LINE
  5
1CB8
330
67
100
AcDbEntity
  8
鉄筋
100
AcDbLine
 10
3746.249999999997
 20
972.499999999998
 30
0.0
 11
3746.249999999997
 21
852.5
 31
0.0
  0
LINE
  5
1CB9
102
{ACAD_REACTORS
330
1CCF
102
}
330
67
100
AcDbEntity
  8
鉄筋
100
AcDbLine
 10
3746.249999999998
 20
1572.5
 30
0.0
 11
3746.249999999998
 21
1302.5
 31
0.0
  0
LINE
  5
1CBA
102
{ACAD_REACTORS
330
1CCC
102
}
330
67
100
AcDbEntity
  8
鉄筋
100
AcDbLine
 10
3186.25
 20
1302.5
 30
0.0
 11
3186.25
 21
1572.5
 31
0.0
  0
MULTILEADER
  5
1CBB
102
{ACAD_XDICTIONARY
360
1CBC
102
}
102
{ACAD_REACTORS
330
1CBD
102
}
330
67
100
AcDbEntity
  8
寸法
 92
     1064
310
280400001A0000000C00000016000000000000C00C00000033000000000000000C00000013000000993A0000BC0000002600000097F9C43F52F0A24005C0C30A829D9B40000000000000000000000000000000000000000000000000000000000000F03F000000000000F03F00000000000000000000000000000000C60300
310
0001000000010000000000000000003E40000000000000F03F0000000000000000000000000000F03F0000000000000000000000000000000000000000000000000000000001000000320000002DFF33FF200030FFB430B730C330AF3000006C000000000000000000BC00000026000000AF5639119847A34005C0C30A829D
310
9B40000000000000000000000000000000000000000000000000000000000000F03F000000000000F03F0000000000000000000000000000000034002D003800000003000000010000000000000000003E40000000000000F03F0000000000000000000000000000F03F000000000000000000000000000000000000000000
310
000000000000000100000000000000000000007400780074002E00730068007800000000000000BC00000026000000AF56391198FBA34005C0C30A829D9B40000000000000000000000000000000000000000000000000000000000000F03F000000000000F03F000000000000000000000000000000002C67000001000000
310
010000000000000000003E40000000000000F03F0000000000000000000000000000F03F0000000000000000000000000000000000000000000000000000000001000000320000002DFF33FF200030FFB430B730C330AF300000000000000000000000000C00000033000000000000000C00000010000000050000000C0000
310
0016000000000000C00C00000012000000FF7F00000C00000013000000010000000C000000140000000100000054000000070000000300000071B130A5BEC0A040A0D45A02A6E89C40000000000000000001000000008BA0407C8EEF539F219D40000000000000000051AA1C1F14C7A040E09D74EE960E9D40000000000000
310
00000C00000013000000891300003C0000000600000002000000E1AD2662E9C3A04040B967789EFB9C400000000000000000809C506E8CD6A2401C1D38DC47999B4000000000000000000C00000013000000112700003C0000000600000002000000809C506E8CD6A2401C1D38DC47999B4000000000000000004D691D3B59
310
E1A2401C1D38DC47999B4000000000000000000C00000016000000000000C00C00000012000000FF7F00000C00000017000000000000000C000000130000009A3A00003C00000006000000020000004D691D3B59E1A2401C1D38DC47999B4000000000000000000CCB0A576F4EA4401C1D38DC47999B400000000000000000
310
0C00000016000000000000C00C00000012000000FF7F00000C00000017000000FFFFFFFF0C0000003300000000000000
100
AcDbMLeader
300
CONTEXT_DATA{
 40
15.0
 10
2416.674279135803
 20
1766.320176007058
 30
0.0
 41
30.0
140
30.0
145
16.35
174
     6
175
     6
176
     0
177
     0
290
     1
304
{\fMS PGothic|b0|i0|c128|p50;φ}4-8{\fMS PGothic|b0|i0|c128|p50;本}
 11
0.0
 21
0.0
 31
1.0
340
50
 12
2433.024279135803
 22
1802.320176007057
 32
0.0
 13
1.0
 23
0.0
 33
0.0
 42
0.0
 43
0.0
 44
0.0
 45
1.0
170
     1
 90
-1073741824
171
     1
172
     5
 91
-1073741824
141
0.0
 92
        0
291
     0
292
     0
173
     0
293
     0
142
0.0
143
0.0
294
     0
295
     0
296
     0
110
2117.500000000001
120
1864.405593627044
130
0.0
111
1.0
121
0.0
131
0.0
112
0.0
122
1.0
132
0.0
297
     0
302
LEADER{
290
     1
291
     1
 10
2411.274279135803
 20
1766.320176007058
 30
0.0
 11
1.0
 21
0.0
 31
0.0
 90
        0
 40
5.399999999999999
304
LEADER_LINE{
 10
2117.500000000001
 20
1864.405593627044
 30
0.0
 91
        0
305
}
303
}
301
}
340
62
 90
   279552
170
     1
 91
-1056964608
341
56
171
    -2
290
     1
291
     1
 41
0.36
 42
2.0
172
     2
343
50
173
     6
 95
        6
174
     1
175
     0
 92
-1056964608
292
     0
 93
-1056964608
 10
1.0
 20
1.0
 30
1.0
 43
0.0
176
     0
293
     0
294
     0
178
     0
179
     1
 45
15.0
1001
ACAD_MLEADERVER
1070
     2
  0
MULTILEADER
  5
1CBE
102
{ACAD_XDICTIONARY
360
1CBF
102
}
102
{ACAD_REACTORS
330
1CC0
102
}
330
67
100
AcDbEntity
  8
寸法
 92
      500
310
F4010000170000000C00000016000000000000C00C00000033000000000000000C00000013000000993A00000C00000033000000000000000C00000010000000050000000C00000016000000000000C00C00000012000000FF7F00000C00000013000000010000000C00000014000000010000005400000007000000030000
310
005AD873EF125FA24086C15AFFB2B59C400000000000000000000000000043A2407C8EEF539F219D400000000000000000B4A8DFB80E6FA24035977637BECD9C4000000000000000000C00000013000000891300003C000000060000000200000087C029D41067A2405EAC689BB8C19C400000000000000000809C506E8CD6
310
A2401C1D38DC47999B4000000000000000000C00000013000000112700003C0000000600000002000000809C506E8CD6A2401C1D38DC47999B4000000000000000004D691D3B59E1A2401C1D38DC47999B4000000000000000000C00000016000000000000C00C00000012000000FF7F00000C00000017000000000000000C
310
000000130000009A3A00003C00000006000000020000004D691D3B59E1A2401C1D38DC47999B400000000000000000809C506E0C02A3401C1D38DC47999B4000000000000000000C00000016000000000000C00C00000012000000FF7F00000C00000017000000FFFFFFFF0C0000003300000000000000
100
AcDbMLeader
300
CONTEXT_DATA{
 40
15.0
 10
2416.674279135803
 20
1766.320176007058
 30
0.0
 41
30.0
140
30.0
145
16.35
174
     6
175
     6
176
     0
177
     0
290
     1
304

 11
0.0
 21
0.0
 31
1.0
340
50
 12
2433.024279135803
 22
1796.320176007058
 32
0.0
 13
1.0
 23
0.0
 33
0.0
 42
0.0
 43
0.0
 44
0.0
 45
1.0
170
     1
 90
-1073741824
171
     1
172
     5
 91
-1073741824
141
0.0
 92
        0
291
     0
292
     0
173
     0
293
     0
142
0.0
143
0.0
294
     0
295
     0
296
     0
110
2337.5
120
1864.405593627044
130
0.0
111
1.0
121
0.0
131
0.0
112
0.0
122
1.0
132
0.0
297
     0
302
LEADER{
290
     1
291
     1
 10
2411.274279135803
 20
1766.320176007058
 30
0.0
 11
1.0
 21
0.0
 31
0.0
 90
        0
 40
5.399999999999999
304
LEADER_LINE{
 10
2337.5
 20
1864.405593627044
 30
0.0
 91
        0
305
}
303
}
301
}
340
62
 90
   279552
170
     1
 91
-1056964608
341
56
171
    -2
290
     1
291
     1
 41
0.36
 42
2.0
172
     2
343
50
173
     6
 95
        6
174
     1
175
     0
 92
-1056964608
292
     0
 93
-1056964608
 10
1.0
 20
1.0
 30
1.0
 43
0.0
176
     0
293
     0
294
     0
178
     0
179
     1
 45
15.0
1001
ACAD_MLEADERVER
1070
     2
  0
MULTILEADER
  5
1CC1
102
{ACAD_XDICTIONARY
360
1CC2
102
}
102
{ACAD_REACTORS
330
1CC3
102
}
330
67
100
AcDbEntity
  8
寸法
 92
     1064
310
280400001A0000000C00000016000000000000C00C00000033000000000000000C00000013000000993A0000BC00000026000000A764B5A9B99A9940D1FF3C4C75B99C40000000000000000000000000000000000000000000000000000000000000F03F000000000000F03F00000000000000000000000000000000C60300
310
0001000000010000000000000000003E40000000000000F03F0000000000000000000000000000F03F0000000000000000000000000000000000000000000000000000000001000000320000002DFF33FF200030FFB430B730C330AF30000000000000000000000000BC00000026000000D51E9E4C45499A40D1FF3C4C75B9
310
9C40000000000000000000000000000000000000000000000000000000000000F03F000000000000F03F0000000000000000000000000000000034002D003500000003000000010000000000000000003E40000000000000F03F0000000000000000000000000000F03F000000000000000000000000000000000000000000
310
000000000000000100000000000000000000007400780074002E00730068007800000000000000BC00000026000000D51E9E4C45B19B40D1FF3C4C75B99C40000000000000000000000000000000000000000000000000000000000000F03F000000000000F03F000000000000000000000000000000002C67000001000000
310
010000000000000000003E40000000000000F03F0000000000000000000000000000F03F0000000000000000000000000000000000000000000000000000000001000000320000002DFF33FF200030FFB430B730C330AF3000006C0000000000000000000C00000033000000000000000C00000010000000050000000C0000
310
0016000000000000C00C00000012000000FF7F00000C00000013000000010000000C0000001400000001000000540000000700000003000000FF47BDD93A499E40B86C9EA7DB879E4000000000000000000100000000AA9E40548E6C8C95D19E4000000000000000003F3ADA335F669E406D028D54756C9E40000000000000
310
00000C00000013000000891300003C00000006000000020000001FC1CB06CD579E4093B7157E287A9E400000000000000000900741D8F3AD9C40E85CB11D3BB59C4000000000000000000C00000013000000112700003C0000000600000002000000900741D8F3AD9C40E85CB11D3BB59C400000000000000000F66DA73E5A
310
989C40E85CB11D3BB59C4000000000000000000C00000016000000000000C00C00000012000000FF7F00000C00000017000000000000000C000000130000009A3A00003C000000060000000200000078AACC062EBE9940E85CB11D3BB59C400000000000000000F66DA73E5A989C40E85CB11D3BB59C400000000000000000
310
0C00000016000000000000C00C00000012000000FF7F00000C00000017000000FFFFFFFF0C0000003300000000000000
100
AcDbMLeader
300
CONTEXT_DATA{
 40
15.0
 10
1631.194947812943
 20
1837.307730456634
 30
0.0
 41
30.0
140
30.0
145
16.35
174
     6
175
     6
176
     2
177
     0
290
     1
304
{\fMS PGothic|b0|i0|c128|p50;φ}4-5{\fMS PGothic|b0|i0|c128|p50;本}
 11
0.0
 21
0.0
 31
1.0
340
50
 12
1813.738129631125
 22
1873.307730456634
 32
0.0
 13
1.0
 23
0.0
 33
0.0
 42
0.0
 43
0.0
 44
0.0
 45
1.0
170
     1
 90
-1073741824
171
     3
172
     5
 91
-1073741824
141
0.0
 92
        0
291
     0
292
     0
173
     0
293
     0
142
0.0
143
0.0
294
     0
295
     0
296
     0
110
1962.5
120
1972.396043487727
130
0.0
111
1.0
121
0.0
131
0.0
112
0.0
122
1.0
132
0.0
297
     0
302
LEADER{
290
     1
291
     1
 10
1835.488129631125
 20
1837.307730456634
 30
0.0
 11
-1.0
 21
0.0
 31
0.0
 90
        0
 40
5.399999999999999
304
LEADER_LINE{
 10
1962.5
 20
1972.396043487727
 30
0.0
 91
        0
305
}
303
}
301
}
340
62
 90
   279552
170
     1
 91
-1056964608
341
56
171
    -2
290
     1
291
     1
 41
0.36
 42
2.0
172
     2
343
50
173
     6
 95
        6
174
     1
175
     2
 92
-1056964608
292
     0
 93
-1056964608
 10
1.0
 20
1.0
 30
1.0
 43
0.0
176
     0
293
     0
294
     0
178
     0
179
     3
 45
15.0
1001
ACAD_MLEADERVER
1070
     2
  0
MULTILEADER
  5
1CC4
102
{ACAD_XDICTIONARY
360
1CC5
102
}
102
{ACAD_REACTORS
330
1CC6
102
}
330
67
100
AcDbEntity
  8
寸法
 92
      500
310
F4010000170000000C00000016000000000000C00C00000033000000000000000C00000013000000993A00000C00000033000000000000000C00000010000000050000000C00000016000000000000C00C00000012000000FF7F00000C00000013000000010000000C00000014000000010000005400000007000000030000
310
00584034B656C29D40016E9A3220099F40000000000000000001000000000A9E40BC759B4D6F6B9F400000000000000000908446A718E69D4027E42EC232F79E4000000000000000000C00000013000000891300003C00000006000000020000007462BDAE37D49D4014A9647A29009F400000000000000000900741D8F3AD
310
9C40E85CB11D3BB59C4000000000000000000C00000013000000112700003C0000000600000002000000900741D8F3AD9C40E85CB11D3BB59C400000000000000000F66DA73E5A989C40E85CB11D3BB59C4000000000000000000C00000016000000000000C00C00000012000000FF7F00000C00000017000000000000000C
310
000000130000009A3A00003C00000006000000020000008F0741D8F3569C40E85CB11D3BB59C400000000000000000F56DA73E5A989C40E85CB11D3BB59C4000000000000000000C00000016000000000000C00C00000012000000FF7F00000C00000017000000FFFFFFFF0C0000003300000000000000
100
AcDbMLeader
300
CONTEXT_DATA{
 40
15.0
 10
1797.388129631125
 20
1837.307730456634
 30
0.0
 41
30.0
140
30.0
145
16.35
174
     6
175
     6
176
     2
177
     0
290
     1
304

 11
0.0
 21
0.0
 31
1.0
340
50
 12
1813.738129631125
 22
1867.307730456634
 32
0.0
 13
1.0
 23
0.0
 33
0.0
 42
0.0
 43
0.0
 44
0.0
 45
1.0
170
     1
 90
-1073741824
171
     3
172
     5
 91
-1073741824
141
0.0
 92
        0
291
     0
292
     0
173
     0
293
     0
142
0.0
143
0.0
294
     0
295
     0
296
     0
110
1922.5
120
2010.858694485722
130
0.0
111
1.0
121
0.0
131
0.0
112
0.0
122
1.0
132
0.0
297
     0
302
LEADER{
290
     1
291
     1
 10
1835.488129631125
 20
1837.307730456634
 30
0.0
 11
-1.0
 21
0.0
 31
0.0
 90
        0
 40
5.399999999999999
304
LEADER_LINE{
 10
1922.5
 20
2010.858694485722
 30
0.0
 91
        0
305
}
303
}
301
}
340
62
 90
   279552
170
     1
 91
-1056964608
341
56
171
    -2
290
     1
291
     1
 41
0.36
 42
2.0
172
     2
343
50
173
     6
 95
        6
174
     1
175
     2
 92
-1056964608
292
     0
 93
-1056964608
 10
1.0
 20
1.0
 30
1.0
 43
0.0
176
     0
293
     0
294
     0
178
     0
179
     3
 45
15.0
1001
ACAD_MLEADERVER
1070
     2
  0
MULTILEADER
  5
1CC7
102
{ACAD_XDICTIONARY
360
1CC8
102
}
102
{ACAD_REACTORS
330
1CC9
102
}
330
67
100
AcDbEntity
  8
寸法
 92
      500
310
F4010000170000000C00000016000000000000C00C00000033000000000000000C00000013000000993A00000C00000033000000000000000C00000010000000050000000C00000016000000000000C00C00000012000000FF7F00000C00000013000000010000000C00000014000000010000005400000007000000030000
310
0015614700A45E9D4081D1535ABC7C9F4000000000000000000100000000929D4014E4DBA704EB9F40000000000000000013FA53202F859D40B26018350A729F4000000000000000000C00000013000000891300003C000000060000000200000094AD4D90E9719D401A19B64763779F400000000000000000900741D8F3AD
310
9C40E85CB11D3BB59C4000000000000000000C00000013000000112700003C0000000600000002000000900741D8F3AD9C40E85CB11D3BB59C400000000000000000F66DA73E5A989C40E85CB11D3BB59C4000000000000000000C00000016000000000000C00C00000012000000FF7F00000C00000017000000000000000C
310
000000130000009A3A00003C00000006000000020000008F0741D8F3569C40E85CB11D3BB59C400000000000000000F56DA73E5A989C40E85CB11D3BB59C4000000000000000000C00000016000000000000C00C00000012000000FF7F00000C00000017000000FFFFFFFF0C0000003300000000000000
100
AcDbMLeader
300
CONTEXT_DATA{
 40
15.0
 10
1797.388129631125
 20
1837.307730456634
 30
0.0
 41
30.0
140
30.0
145
16.35
174
     6
175
     6
176
     2
177
     0
290
     1
304

 11
0.0
 21
0.0
 31
1.0
340
50
 12
1813.738129631125
 22
1867.307730456634
 32
0.0
 13
1.0
 23
0.0
 33
0.0
 42
0.0
 43
0.0
 44
0.0
 45
1.0
170
     1
 90
-1073741824
171
     3
172
     5
 91
-1073741824
141
0.0
 92
        0
291
     0
292
     0
173
     0
293
     0
142
0.0
143
0.0
294
     0
295
     0
296
     0
110
1892.5
120
2042.754546581074
130
0.0
111
1.0
121
0.0
131
0.0
112
0.0
122
1.0
132
0.0
297
     0
302
LEADER{
290
     1
291
     1
 10
1835.488129631125
 20
1837.307730456634
 30
0.0
 11
-1.0
 21
0.0
 31
0.0
 90
        0
 40
5.399999999999999
304
LEADER_LINE{
 10
1892.5
 20
2042.754546581074
 30
0.0
 91
        0
305
}
303
}
301
}
340
62
 90
   279552
170
     1
 91
-1056964608
341
56
171
    -2
290
     1
291
     1
 41
0.36
 42
2.0
172
     2
343
50
173
     6
 95
        6
174
     1
175
     2
 92
-1056964608
292
     0
 93
-1056964608
 10
1.0
 20
1.0
 30
1.0
 43
0.0
176
     0
293
     0
294
     0
178
     0
179
     3
 45
15.0
1001
ACAD_MLEADERVER
1070
     2
  0
MULTILEADER
  5
1CCA
102
{ACAD_XDICTIONARY
360
1CCB
102
}
102
{ACAD_REACTORS
330
1CCC
102
}
330
67
100
AcDbEntity
  8
寸法
 92
     1068
310
2C0400001A0000000C00000016000000000000C00C00000033000000000000000C00000013000000993A0000BC00000026000000C30B37291701AE4079AD0840DF109340000000000000000000000000000000000000000000000000000000000000F03F000000000000F03F00000000000000000000000000000000C60300
310
0001000000010000000000000000003E40000000000000F03F0000000000000000000000000000F03F0000000000000000000000000000000000000000000000000000000001000000320000002DFF33FF200030FFB430B730C330AF30000000000000000000000000C000000026000000DB68ABFA5C58AE4079AD0840DF10
310
9340000000000000000000000000000000000000000000000000000000000000F03F000000000000F03F0000000000000000000000000000000034002D00310032000000000004000000010000000000000000003E40000000000000F03F0000000000000000000000000000F03F0000000000000000000000000000000000
310
00000000000000000000000100000000000000000000007400780074002E00730068007800000000000000BC00000026000000DB68ABFA5C34AF4079AD0840DF109340000000000000000000000000000000000000000000000000000000000000F03F000000000000F03F000000000000000000000000000000002C670000
310
01000000010000000000000000003E40000000000000F03F0000000000000000000000000000F03F0000000000000000000000000000000000000000000000000000000001000000320000002DFF33FF200030FFB430B730C330AF300000000000000000000000000C00000033000000000000000C00000010000000050000
310
000C00000016000000000000C00C00000012000000FF7F00000C00000013000000010000000C0000001400000001000000540000000700000003000000530FF1EAAA1CA940F1B1365F7F3395400000000000000000FFFFFFFF7FE4A840C4A04D46326295400000000000000000E0FDD24F3421A9400361CD72745A95400000
310
0000000000000C00000013000000891300003C00000006000000020000009906629DEF1EA9407A0902E9F94695400000000000000000ACAEC25751E7AD40900A7D11A50C934000000000000000000C00000013000000112700003C0000000600000002000000ACAEC25751E7AD40900A7D11A50C9340000000000000000079
310
7B8F241EF2AD40900A7D11A50C934000000000000000000C00000016000000000000C00C00000012000000FF7F00000C00000017000000000000000C000000130000009A3A00003C0000000600000002000000797B8F241EF2AD40900A7D11A50C9340000000000000000038DD7C403487AF40900A7D11A50C934000000000
310
000000000C00000016000000000000C00C00000012000000FF7F00000C00000017000000FFFFFFFF0C0000003300000000000000
100
AcDbMLeader
300
CONTEXT_DATA{
 40
15.0
 10
3833.05887268431
 20
1219.161199525613
 30
0.0
 41
30.0
140
30.0
145
16.35
174
     6
175
     6
176
     0
177
     0
290
     1
304
{\fMS PGothic|b0|i0|c128|p50;φ}4-12{\fMS PGothic|b0|i0|c128|p50;本}
 11
0.0
 21
0.0
 31
1.0
340
50
 12
3849.40887268431
 22
1255.161199525613
 32
0.0
 13
1.0
 23
0.0
 33
0.0
 42
0.0
 43
0.0
 44
0.0
 45
1.0
170
     1
 90
-1073741824
171
     1
172
     5
 91
-1073741824
141
0.0
 92
        0
291
     0
292
     0
173
     0
293
     0
142
0.0
143
0.0
294
     0
295
     0
296
     0
110
3186.25
120
1368.549096310555
130
0.0
111
1.0
121
0.0
131
0.0
112
0.0
122
1.0
132
0.0
297
     0
302
LEADER{
290
     1
291
     1
 10
3827.65887268431
 20
1219.161199525613
 30
0.0
 11
1.0
 21
0.0
 31
0.0
 90
        0
 40
5.399999999999999
304
LEADER_LINE{
 10
3186.25
 20
1368.549096310555
 30
0.0
 91
        0
305
}
303
}
301
}
340
62
 90
   279552
170
     1
 91
-1056964608
341
56
171
    -2
290
     1
291
     1
 41
0.36
 42
2.0
172
     2
343
50
173
     6
 95
        6
174
     1
175
     0
 92
-1056964608
292
     0
 93
-1056964608
 10
1.0
 20
1.0
 30
1.0
 43
0.0
176
     0
293
     0
294
     0
178
     0
179
     1
 45
15.0
1001
ACAD_MLEADERVER
1070
     2
  0
MULTILEADER
  5
1CCD
102
{ACAD_XDICTIONARY
360
1CCE
102
}
102
{ACAD_REACTORS
330
1CCF
102
}
330
67
100
AcDbEntity
  8
寸法
 92
      500
310
F4010000170000000C00000016000000000000C00C00000033000000000000000C00000013000000993A00000C00000033000000000000000C00000010000000050000000C00000016000000000000C00C00000012000000FF7F00000C00000013000000010000000C00000014000000010000005400000007000000030000
310
00527E77E37B58AD4002663AD5F4ED94400000000000000000FCFFFFFF7F44AD406CBBF0DADB60954000000000000000001A9A8E5B096AAD407EC3913F2101954000000000000000000C00000013000000891300003C0000000600000002000000360C839F4261AD40C014660A8BF794400000000000000000ACAEC25751E7
310
AD40900A7D11A50C934000000000000000000C00000013000000112700003C0000000600000002000000ACAEC25751E7AD40900A7D11A50C93400000000000000000797B8F241EF2AD40900A7D11A50C934000000000000000000C00000016000000000000C00C00000012000000FF7F00000C00000017000000000000000C
310
000000130000009A3A00003C0000000600000002000000797B8F241EF2AD40900A7D11A50C93400000000000000000ACAEC257D112AE40900A7D11A50C934000000000000000000C00000016000000000000C00C00000012000000FF7F00000C00000017000000FFFFFFFF0C0000003300000000000000
100
AcDbMLeader
300
CONTEXT_DATA{
 40
15.0
 10
3833.05887268431
 20
1219.161199525613
 30
0.0
 41
30.0
140
30.0
145
16.35
174
     6
175
     6
176
     0
177
     0
290
     1
304

 11
0.0
 21
0.0
 31
1.0
340
50
 12
3849.40887268431
 22
1249.161199525613
 32
0.0
 13
1.0
 23
0.0
 33
0.0
 42
0.0
 43
0.0
 44
0.0
 45
1.0
170
     1
 90
-1073741824
171
     1
172
     5
 91
-1073741824
141
0.0
 92
        0
291
     0
292
     0
173
     0
293
     0
142
0.0
143
0.0
294
     0
295
     0
296
     0
110
3746.249999999998
120
1368.214702378692
130
0.0
111
1.0
121
0.0
131
0.0
112
0.0
122
1.0
132
0.0
297
     0
302
LEADER{
290
     1
291
     1
 10
3827.65887268431
 20
1219.161199525613
 30
0.0
 11
1.0
 21
0.0
 31
0.0
 90
        0
 40
5.399999999999999
304
LEADER_LINE{
 10
3746.249999999998
 20
1368.214702378692
 30
0.0
 91
        0
305
}
303
}
301
}
340
62
 90
   279552
170
     1
 91
-1056964608
341
56
171
    -2
290
     1
291
     1
 41
0.36
 42
2.0
172
     2
343
50
173
     6
 95
        6
174
     1
175
     0
 92
-1056964608
292
     0
 93
-1056964608
 10
1.0
 20
1.0
 30
1.0
 43
0.0
176
     0
293
     0
294
     0
178
     0
179
     1
 45
15.0
1001
ACAD_MLEADERVER
1070
     2
  0
MULTILEADER
  5
1CD0
102
{ACAD_XDICTIONARY
360
1CD1
102
}
102
{ACAD_REACTORS
330
1CD2
102
}
330
67
100
AcDbEntity
  8
寸法
 92
     1064
310
280400001A0000000C00000016000000000000C00C00000033000000000000000C00000013000000993A0000BC000000260000005F62F254D8CFA640399AEBE20FA09340000000000000000000000000000000000000000000000000000000000000F03F000000000000F03F00000000000000000000000000000000C60300
310
0001000000010000000000000000003E40000000000000F03F0000000000000000000000000000F03F0000000000000000000000000000000000000000000000000000000001000000320000002DFF33FF200030FFB430B730C330AF30000000000000000000000000BC0000002600000077BF66261E27A740399AEBE20FA0
310
9340000000000000000000000000000000000000000000000000000000000000F03F000000000000F03F0000000000000000000000000000000034002D003300000003000000010000000000000000003E40000000000000F03F0000000000000000000000000000F03F000000000000000000000000000000000000000000
310
000000000000000100000000000000000000007400780074002E00730068007800000000000000BC0000002600000077BF66261EDBA740399AEBE20FA09340000000000000000000000000000000000000000000000000000000000000F03F000000000000F03F000000000000000000000000000000002C67000001000000
310
010000000000000000003E40000000000000F03F0000000000000000000000000000F03F0000000000000000000000000000000000000000000000000000000001000000320000002DFF33FF200030FFB430B730C330AF300000000000000000000000000C00000033000000000000000C00000010000000050000000C0000
310
0016000000000000C00C00000012000000FF7F00000C00000013000000010000000C00000014000000010000005400000007000000030000005906A08F31AAA84061D988669C5194400000000000000000FFFFFFFF7FDCA8400000000000969440000000000000000067AB57C300B8A840F769DB2CAD349440000000000000
310
00000C00000013000000891300003C0000000600000002000000E0D87B2919B1A840AC21B2C9244394400000000000000000D433386C7559A84050F75FB4D59B934000000000000000000C00000013000000112700003C0000000600000002000000D433386C7559A84050F75FB4D59B9340000000000000000007676B9FA8
310
4EA84050F75FB4D59B934000000000000000000C00000016000000000000C00C00000012000000FF7F00000C00000017000000000000000C000000130000009A3A00003C000000060000000200000048057E8392E1A64050F75FB4D59B9340000000000000000007676B9FA84EA84050F75FB4D59B93400000000000000000
310
0C00000016000000000000C00C00000012000000FF7F00000C00000017000000FFFFFFFF0C0000003300000000000000
100
AcDbMLeader
300
CONTEXT_DATA{
 40
15.0
 10
2912.436159456391
 20
1254.958695888013
 30
0.0
 41
30.0
140
30.0
145
16.35
174
     6
175
     6
176
     2
177
     0
290
     1
304
{\fMS PGothic|b0|i0|c128|p50;φ}4-3{\fMS PGothic|b0|i0|c128|p50;本}
 11
0.0
 21
0.0
 31
1.0
340
50
 12
3094.979341274573
 22
1290.958695888013
 32
0.0
 13
1.0
 23
0.0
 33
0.0
 42
0.0
 43
0.0
 44
0.0
 45
1.0
170
     1
 90
-1073741824
171
     3
172
     5
 91
-1073741824
141
0.0
 92
        0
291
     0
292
     0
173
     0
293
     0
142
0.0
143
0.0
294
     0
295
     0
296
     0
110
3182.25
120
1317.5
130
0.0
111
1.0
121
0.0
131
0.0
112
0.0
122
1.0
132
0.0
297
     0
302
LEADER{
290
     1
291
     1
 10
3116.729341274573
 20
1254.958695888013
 30
0.0
 11
-1.0
 21
0.0
 31
0.0
 90
        0
 40
5.399999999999999
304
LEADER_LINE{
 10
3182.25
 20
1317.5
 30
0.0
 91
        0
305
}
303
}
301
}
340
62
 90
   279552
170
     1
 91
-1056964608
341
56
171
    -2
290
     1
291
     1
 41
0.36
 42
2.0
172
     2
343
50
173
     6
 95
        6
174
     1
175
     2
 92
-1056964608
292
     0
 93
-1056964608
 10
1.0
 20
1.0
 30
1.0
 43
0.0
176
     0
293
     0
294
     0
178
     0
179
     3
 45
15.0
1001
ACAD_MLEADERVER
1070
     2
  0
MULTILEADER
  5
1CD3
102
{ACAD_XDICTIONARY
360
1CD4
102
}
102
{ACAD_REACTORS
330
1CD5
102
}
330
67
100
AcDbEntity
  8
寸法
 92
      500
310
F4010000170000000C00000016000000000000C00C00000033000000000000000C00000013000000993A00000C00000033000000000000000C00000010000000050000000C00000016000000000000C00C00000012000000FF7F00000C00000013000000010000000C00000014000000010000005400000007000000030000
310
00EDC2EA4FBABFA840450978756D06964000000000000000000D636581B2DDA840D4C55FCC4A7096400000000000000000F1514ED683D2A84031CE9CD6B5F8954000000000000000000C00000013000000891300003C00000006000000020000006F8A1C131FC9A840BB6B0AA691FF95400000000000000000D433386C7559
310
A84050F75FB4D59B934000000000000000000C00000013000000112700003C0000000600000002000000D433386C7559A84050F75FB4D59B9340000000000000000007676B9FA84EA84050F75FB4D59B934000000000000000000C00000016000000000000C00C00000012000000FF7F00000C00000017000000000000000C
310
000000130000009A3A00003C0000000600000002000000D433386CF52DA84050F75FB4D59B9340000000000000000007676B9FA84EA84050F75FB4D59B934000000000000000000C00000016000000000000C00C00000012000000FF7F00000C00000017000000FFFFFFFF0C0000003300000000000000
100
AcDbMLeader
300
CONTEXT_DATA{
 40
15.0
 10
3078.629341274573
 20
1254.958695888013
 30
0.0
 41
30.0
140
30.0
145
16.35
174
     6
175
     6
176
     2
177
     0
290
     1
304

 11
0.0
 21
0.0
 31
1.0
340
50
 12
3094.979341274573
 22
1284.958695888013
 32
0.0
 13
1.0
 23
0.0
 33
0.0
 42
0.0
 43
0.0
 44
0.0
 45
1.0
170
     1
 90
-1073741824
171
     3
172
     5
 91
-1073741824
141
0.0
 92
        0
291
     0
292
     0
173
     0
293
     0
142
0.0
143
0.0
294
     0
295
     0
296
     0
110
3182.84864346346
120
1436.073045250367
130
0.0
111
1.0
121
0.0
131
0.0
112
0.0
122
1.0
132
0.0
297
     0
302
LEADER{
290
     1
291
     1
 10
3116.729341274573
 20
1254.958695888013
 30
0.0
 11
-1.0
 21
0.0
 31
0.0
 90
        0
 40
5.399999999999999
304
LEADER_LINE{
 10
3182.84864346346
 20
1436.073045250367
 30
0.0
 91
        0
305
}
303
}
301
}
340
62
 90
   279552
170
     1
 91
-1056964608
341
56
171
    -2
290
     1
291
     1
 41
0.36
 42
2.0
172
     2
343
50
173
     6
 95
        6
174
     1
175
     2
 92
-1056964608
292
     0
 93
-1056964608
 10
1.0
 20
1.0
 30
1.0
 43
0.0
176
     0
293
     0
294
     0
178
     0
179
     3
 45
15.0
1001
ACAD_MLEADERVER
1070
     2
  0
MULTILEADER
  5
1CD6
102
{ACAD_XDICTIONARY
360
1CD7
102
}
102
{ACAD_REACTORS
330
1CD8
102
}
330
67
100
AcDbEntity
  8
寸法
 92
      500
310
F4010000170000000C00000016000000000000C00C00000033000000000000000C00000013000000993A00000C00000033000000000000000C00000010000000050000000C00000016000000000000C00C00000012000000FF7F00000C00000013000000010000000C00000014000000010000005400000007000000030000
310
0055090AC63FC7A840E634D20A02DF97400000000000000000643C0E46E8DDA840A4441375E84F9840000000000000000097683731C8DAA84047DD33D969D6974000000000000000000C00000013000000891300003C0000000600000002000000F6B8A0FB03D1A840170903F2B5DA97400000000000000000D433386C7559
310
A84050F75FB4D59B934000000000000000000C00000013000000112700003C0000000600000002000000D433386C7559A84050F75FB4D59B9340000000000000000007676B9FA84EA84050F75FB4D59B934000000000000000000C00000016000000000000C00C00000012000000FF7F00000C00000017000000000000000C
310
000000130000009A3A00003C0000000600000002000000D433386CF52DA84050F75FB4D59B9340000000000000000007676B9FA84EA84050F75FB4D59B934000000000000000000C00000016000000000000C00C00000012000000FF7F00000C00000017000000FFFFFFFF0C0000003300000000000000
100
AcDbMLeader
300
CONTEXT_DATA{
 40
15.0
 10
3078.629341274573
 20
1254.958695888013
 30
0.0
 41
30.0
140
30.0
145
16.35
174
     6
175
     6
176
     2
177
     0
290
     1
304

 11
0.0
 21
0.0
 31
1.0
340
50
 12
3094.979341274573
 22
1284.958695888013
 32
0.0
 13
1.0
 23
0.0
 33
0.0
 42
0.0
 43
0.0
 44
0.0
 45
1.0
170
     1
 90
-1073741824
171
     3
172
     5
 91
-1073741824
141
0.0
 92
        0
291
     0
292
     0
173
     0
293
     0
142
0.0
143
0.0
294
     0
295
     0
296
     0
110
3182.95365948188
120
1555.977009106698
130
0.0
111
1.0
121
0.0
131
0.0
112
0.0
122
1.0
132
0.0
297
     0
302
LEADER{
290
     1
291
     1
 10
3116.729341274573
 20
1254.958695888013
 30
0.0
 11
-1.0
 21
0.0
 31
0.0
 90
        0
 40
5.399999999999999
304
LEADER_LINE{
 10
3182.95365948188
 20
1555.977009106698
 30
0.0
 91
        0
305
}
303
}
301
}
340
62
 90
   279552
170
     1
 91
-1056964608
341
56
171
    -2
290
     1
291
     1
 41
0.36
 42
2.0
172
     2
343
50
173
     6
 95
        6
174
     1
175
     2
 92
-1056964608
292
     0
 93
-1056964608
 10
1.0
 20
1.0
 30
1.0
 43
0.0
176
     0
293
     0
294
     0
178
     0
179
     3
 45
15.0
1001
ACAD_MLEADERVER
1070
     2
  0
MULTILEADER
  5
1CD9
330
67
100
AcDbEntity
  8
寸法
 92
     1068
310
2C0400001A0000000C00000016000000000000C00C00000033000000000000000C00000013000000993A0000BC00000026000000C30B37291701AE40671976F359E18740000000000000000000000000000000000000000000000000000000000000F03F000000000000F03F00000000000000000000000000000000C60300
310
0001000000010000000000000000003E40000000000000F03F0000000000000000000000000000F03F0000000000000000000000000000000000000000000000000000000001000000320000002DFF33FF200030FFB430B730C330AF30000000000000000000000000C000000026000000DB68ABFA5C58AE40671976F359E1
310
8740000000000000000000000000000000000000000000000000000000000000F03F000000000000F03F0000000000000000000000000000000034002D00310032000000000004000000010000000000000000003E40000000000000F03F0000000000000000000000000000F03F0000000000000000000000000000000000
310
00000000000000000000000100000000000000000000007400780074002E00730068007800000000000000BC00000026000000DB68ABFA5C34AF40671976F359E18740000000000000000000000000000000000000000000000000000000000000F03F000000000000F03F000000000000000000000000000000002C670000
310
01000000010000000000000000003E40000000000000F03F0000000000000000000000000000F03F0000000000000000000000000000000000000000000000000000000001000000320000002DFF33FF200030FFB430B730C330AF300000000000000000000000000C00000033000000000000000C00000010000000050000
310
000C00000016000000000000C00C00000012000000FF7F00000C00000013000000010000000C0000001400000001000000540000000700000003000000530FF1EAAA1CA9405922D2319A268C400000000000000000FFFFFFFF7FE4A840FEFFFFFFFF838C400000000000000000E0FDD24F3421A9407C80FF5884748C400000
310
0000000000000C00000013000000891300003C00000006000000020000009906629DEF1EA9406AD168458F4D8C400000000000000000ACAEC25751E7AD4096D35E96E5D8874000000000000000000C00000013000000112700003C0000000600000002000000ACAEC25751E7AD4096D35E96E5D88740000000000000000079
310
7B8F241EF2AD4096D35E96E5D8874000000000000000000C00000016000000000000C00C00000012000000FF7F00000C00000017000000000000000C000000130000009A3A00003C0000000600000002000000797B8F241EF2AD4096D35E96E5D88740000000000000000038DD7C403487AF4096D35E96E5D8874000000000
310
000000000C00000016000000000000C00C00000012000000FF7F00000C00000017000000FFFFFFFF0C0000003300000000000000
100
AcDbMLeader
300
CONTEXT_DATA{
 40
15.0
 10
3833.05887268431
 20
763.1121032150574
 30
0.0
 41
30.0
140
30.0
145
16.35
174
     6
175
     6
176
     0
177
     0
290
     1
304
{\fMS PGothic|b0|i0|c128|p50;φ}4-12{\fMS PGothic|b0|i0|c128|p50;本}
 11
0.0
 21
0.0
 31
1.0
340
50
 12
3849.40887268431
 22
799.1121032150574
 32
0.0
 13
1.0
 23
0.0
 33
0.0
 42
0.0
 43
0.0
 44
0.0
 45
1.0
170
     1
 90
-1073741824
171
     1
172
     5
 91
-1073741824
141
0.0
 92
        0
291
     0
292
     0
173
     0
293
     0
142
0.0
143
0.0
294
     0
295
     0
296
     0
110
3186.25
120
912.4999999999998
130
0.0
111
1.0
121
0.0
131
0.0
112
0.0
122
1.0
132
0.0
297
     0
302
LEADER{
290
     1
291
     1
 10
3827.65887268431
 20
763.1121032150574
 30
0.0
 11
1.0
 21
0.0
 31
0.0
 90
        0
 40
5.399999999999999
304
LEADER_LINE{
 10
3186.25
 20
912.4999999999998
 30
0.0
 91
        0
305
}
303
}
301
}
340
62
 90
   279552
170
     1
 91
-1056964608
341
56
171
    -2
290
     1
291
     1
 41
0.36
 42
2.0
172
     2
343
50
173
     6
 95
        6
174
     1
175
     0
 92
-1056964608
292
     0
 93
-1056964608
 10
1.0
 20
1.0
 30
1.0
 43
0.0
176
     0
293
     0
294
     0
178
     0
179
     1
 45
15.0
1001
ACAD_MLEADERVER
1070
     2
  0
MULTILEADER
  5
1CDC
330
67
100
AcDbEntity
  8
寸法
 92
      500
310
F4010000170000000C00000016000000000000C00C00000033000000000000000C00000013000000993A00000C00000033000000000000000C00000010000000050000000C00000016000000000000C00C00000012000000FF7F00000C00000013000000010000000C00000014000000010000005400000007000000030000
310
00527E77E37B58AD407A8AD91D859B8B400000000000000000FCFFFFFF7F44AD404E35462953818C4000000000000000001A9A8E5B096AAD40724588F2DDC18B4000000000000000000C00000013000000891300003C0000000600000002000000360C839F4261AD40F6E73088B1AE8B400000000000000000ACAEC25751E7
310
AD4096D35E96E5D8874000000000000000000C00000013000000112700003C0000000600000002000000ACAEC25751E7AD4096D35E96E5D887400000000000000000797B8F241EF2AD4096D35E96E5D8874000000000000000000C00000016000000000000C00C00000012000000FF7F00000C00000017000000000000000C
310
000000130000009A3A00003C0000000600000002000000797B8F241EF2AD4096D35E96E5D887400000000000000000ACAEC257D112AE4096D35E96E5D8874000000000000000000C00000016000000000000C00C00000012000000FF7F00000C00000017000000FFFFFFFF0C0000003300000000000000
100
AcDbMLeader
300
CONTEXT_DATA{
 40
15.0
 10
3833.05887268431
 20
763.1121032150574
 30
0.0
 41
30.0
140
30.0
145
16.35
174
     6
175
     6
176
     0
177
     0
290
     1
304

 11
0.0
 21
0.0
 31
1.0
340
50
 12
3849.40887268431
 22
793.1121032150574
 32
0.0
 13
1.0
 23
0.0
 33
0.0
 42
0.0
 43
0.0
 44
0.0
 45
1.0
170
     1
 90
-1073741824
171
     1
172
     5
 91
-1073741824
141
0.0
 92
        0
291
     0
292
     0
173
     0
293
     0
142
0.0
143
0.0
294
     0
295
     0
296
     0
110
3746.249999999998
120
912.165606068136
130
0.0
111
1.0
121
0.0
131
0.0
112
0.0
122
1.0
132
0.0
297
     0
302
LEADER{
290
     1
291
     1
 10
3827.65887268431
 20
763.1121032150574
 30
0.0
 11
1.0
 21
0.0
 31
0.0
 90
        0
 40
5.399999999999999
304
LEADER_LINE{
 10
3746.249999999998
 20
912.165606068136
 30
0.0
 91
        0
305
}
303
}
301
}
340
62
 90
   279552
170
     1
 91
-1056964608
341
56
171
    -2
290
     1
291
     1
 41
0.36
 42
2.0
172
     2
343
50
173
     6
 95
        6
174
     1
175
     0
 92
-1056964608
292
     0
 93
-1056964608
 10
1.0
 20
1.0
 30
1.0
 43
0.0
176
     0
293
     0
294
     0
178
     0
179
     1
 45
15.0
1001
ACAD_MLEADERVER
1070
     2
  0
MULTILEADER
  5
1CE2
102
{ACAD_XDICTIONARY
360
1CE3
102
}
102
{ACAD_REACTORS
330
1CE4
102
}
330
67
100
AcDbEntity
  8
寸法
 92
      500
310
F4010000170000000C00000016000000000000C00C00000033000000000000000C00000013000000993A00000C00000033000000000000000C00000010000000050000000C00000016000000000000C00C00000012000000FF7F00000C00000013000000010000000C00000014000000010000005400000007000000030000
310
004CA5FDE0F1BBA84073B56351781E8D400000000000000000FFFFFFFF7FDCA840FDFFFFFFFFEB8D400000000000000000B4331F825ECEA840CAF0769358FF8C4000000000000000000C00000013000000891300003C0000000600000002000000806C8E3128C5A8401E536D72E80E8D4000000000000000003EB1D78E6B5A
310
A8404F7D6C85F41B894000000000000000000C00000013000000112700003C00000006000000020000003EB1D78E6B5AA8404F7D6C85F41B8940000000000000000071E40AC29E4FA8404F7D6C85F41B894000000000000000000C00000016000000000000C00C00000012000000FF7F00000C00000017000000000000000C
310
000000130000009A3A00003C00000006000000020000003EB1D78EEB2EA8404F7D6C85F41B8940000000000000000071E40AC29E4FA8404F7D6C85F41B894000000000000000000C00000016000000000000C00C00000012000000FF7F00000C00000017000000FFFFFFFF0C0000003300000000000000
100
AcDbMLeader
300
CONTEXT_DATA{
 40
15.0
 10
3079.110074177157
 20
803.4943951106779
 30
0.0
 41
30.0
140
30.0
145
16.35
174
     6
175
     6
176
     2
177
     0
290
     1
304

 11
0.0
 21
0.0
 31
1.0
340
50
 12
3095.460074177156
 22
833.4943951106778
 32
0.0
 13
1.0
 23
0.0
 33
0.0
 42
0.0
 43
0.0
 44
0.0
 45
1.0
170
     1
 90
-1073741824
171
     3
172
     5
 91
-1073741824
141
0.0
 92
        0
291
     0
292
     0
173
     0
293
     0
142
0.0
143
0.0
294
     0
295
     0
296
     0
110
3182.25
120
957.4999999999997
130
0.0
111
1.0
121
0.0
131
0.0
112
0.0
122
1.0
132
0.0
297
     0
302
LEADER{
290
     1
291
     1
 10
3117.210074177157
 20
803.4943951106779
 30
0.0
 11
-1.0
 21
0.0
 31
0.0
 90
        0
 40
5.399999999999999
304
LEADER_LINE{
 10
3182.25
 20
957.4999999999997
 30
0.0
 91
        0
305
}
303
}
301
}
340
62
 90
   279552
170
     1
 91
-1056964608
341
56
171
    -2
290
     1
291
     1
 41
0.36
 42
2.0
172
     2
343
50
173
     6
 95
        6
174
     1
175
     2
 92
-1056964608
292
     0
 93
-1056964608
 10
1.0
 20
1.0
 30
1.0
 43
0.0
176
     0
293
     0
294
     0
178
     0
179
     3
 45
15.0
1001
ACAD_MLEADERVER
1070
     2
  0
MULTILEADER
  5
1CE5
102
{ACAD_XDICTIONARY
360
1CE6
102
}
102
{ACAD_REACTORS
330
1CE7
102
}
330
67
100
AcDbEntity
  8
寸法
 92
     1064
310
280400001A0000000C00000016000000000000C00C00000033000000000000000C00000013000000993A0000BC00000026000000C9DF9177CED0A64020C383E268248940000000000000000000000000000000000000000000000000000000000000F03F000000000000F03F00000000000000000000000000000000C60300
310
0001000000010000000000000000003E40000000000000F03F0000000000000000000000000000F03F0000000000000000000000000000000000000000000000000000000001000000320000002DFF33FF200030FFB430B730C330AF30000000000000000000000000BC00000026000000E13C06491428A74020C383E26824
310
8940000000000000000000000000000000000000000000000000000000000000F03F000000000000F03F0000000000000000000000000000000034002D003200000003000000010000000000000000003E40000000000000F03F0000000000000000000000000000F03F000000000000000000000000000000000000000000
310
000000000000000100000000000000000000007400780074002E00730068007800000000000000BC00000026000000E13C064914DCA74020C383E268248940000000000000000000000000000000000000000000000000000000000000F03F000000000000F03F000000000000000000000000000000002C67000001000000
310
010000000000000000003E40000000000000F03F0000000000000000000000000000F03F0000000000000000000000000000000000000000000000000000000001000000320000002DFF33FF200030FFB430B730C330AF300000000000000000000000000C00000033000000000000000C00000010000000050000000C0000
310
0016000000000000C00C00000012000000FF7F00000C00000013000000010000000C0000001400000001000000540000000700000003000000FF2468AE4EABA8403150E1CC23888A40000000000000000095D0B8749CDDA8405D437CE8EE108B400000000000000000E848112A1EB9A840AFD83B6C464E8A40000000000000
310
00000C00000013000000891300003C0000000600000002000000F4B63C6C36B2A84070948E1C356B8A4000000000000000003EB1D78E6B5AA8404F7D6C85F41B894000000000000000000C00000013000000112700003C00000006000000020000003EB1D78E6B5AA8404F7D6C85F41B8940000000000000000071E40AC29E
310
4FA8404F7D6C85F41B894000000000000000000C00000016000000000000C00C00000012000000FF7F00000C00000017000000000000000C000000130000009A3A00003C0000000600000002000000B2821DA688E2A6404F7D6C85F41B8940000000000000000071E40AC29E4FA8404F7D6C85F41B89400000000000000000
310
0C00000016000000000000C00C00000012000000FF7F00000C00000017000000FFFFFFFF0C0000003300000000000000
100
AcDbMLeader
300
CONTEXT_DATA{
 40
15.0
 10
2912.916892358975
 20
803.4943951106779
 30
0.0
 41
30.0
140
30.0
145
16.35
174
     6
175
     6
176
     2
177
     0
290
     1
304
{\fMS PGothic|b0|i0|c128|p50;φ}4-2{\fMS PGothic|b0|i0|c128|p50;本}
 11
0.0
 21
0.0
 31
1.0
340
50
 12
3095.460074177156
 22
839.4943951106778
 32
0.0
 13
1.0
 23
0.0
 33
0.0
 42
0.0
 43
0.0
 44
0.0
 45
1.0
170
     1
 90
-1073741824
171
     3
172
     5
 91
-1073741824
141
0.0
 92
        0
291
     0
292
     0
173
     0
293
     0
142
0.0
143
0.0
294
     0
295
     0
296
     0
110
3182.805578017675
120
866.1166543682153
130
0.0
111
1.0
121
0.0
131
0.0
112
0.0
122
1.0
132
0.0
297
     0
302
LEADER{
290
     1
291
     1
 10
3117.210074177157
 20
803.4943951106779
 30
0.0
 11
-1.0
 21
0.0
 31
0.0
 90
        0
 40
5.399999999999999
304
LEADER_LINE{
 10
3182.805578017675
 20
866.1166543682153
 30
0.0
 91
        0
305
}
303
}
301
}
340
62
 90
   279552
170
     1
 91
-1056964608
341
56
171
    -2
290
     1
291
     1
 41
0.36
 42
2.0
172
     2
343
50
173
     6
 95
        6
174
     1
175
     2
 92
-1056964608
292
     0
 93
-1056964608
 10
1.0
 20
1.0
 30
1.0
 43
0.0
176
     0
293
     0
294
     0
178
     0
179
     3
 45
15.0
1001
ACAD_MLEADERVER
1070
     2
  0
ENDSEC
  0
SECTION
  2
OBJECTS
  0
DICTIONARY
  5
C
330
0
100
AcDbDictionary
281
     1
  3
ACAD_CIP_PREVIOUS_PRODUCT_INFO
350
14E
  3
ACAD_COLOR
350
5E
  3
ACAD_GROUP
350
D
  3
ACAD_LAYOUT
350
5D
  3
ACAD_MATERIAL
350
10
  3
ACAD_MLEADERSTYLE
350
61
  3
ACAD_MLINESTYLE
350
5A
  3
ACAD_PLOTSETTINGS
350
5C
  3
ACAD_PLOTSTYLENAME
350
E
  3
ACAD_SCALELIST
350
3D
  3
ACAD_TABLESTYLE
350
5F
  3
ACAD_VISUALSTYLE
350
29
  3
ACDB_RECOMPOSE_DATA
350
1D1B
  3
AcDbVariableDictionary
350
8E
  0
DICTIONARY
  5
A1
330
2
100
AcDbDictionary
280
     1
281
     1
  3
ACAD_LAYERSTATES
360
A2
  0
DICTIONARY
  5
9C
330
67
100
AcDbDictionary
280
     1
281
     1
  3
ACAD_SORTENTS
360
9D
  0
DICTIONARY
  5
33F
330
330
100
AcDbDictionary
280
     1
281
     1
  3
ACAD_DIMASSOC
360
34B
  0
DICTIONARY
  5
359
330
34C
100
AcDbDictionary
280
     1
281
     1
  3
ACAD_DIMASSOC
360
363
  0
DICTIONARY
  5
493
330
484
100
AcDbDictionary
280
     1
281
     1
  3
ACAD_DIMASSOC
360
49F
  0
DICTIONARY
  5
4AF
330
4A0
100
AcDbDictionary
280
     1
281
     1
  3
ACAD_DIMASSOC
360
4BB
  0
DICTIONARY
  5
1CBC
330
1CBB
100
AcDbDictionary
280
     1
281
     1
  3
ACAD_DIMASSOC
360
1CBD
  0
DICTIONARY
  5
1CBF
330
1CBE
100
AcDbDictionary
280
     1
281
     1
  3
ACAD_DIMASSOC
360
1CC0
  0
DICTIONARY
  5
1CC2
330
1CC1
100
AcDbDictionary
280
     1
281
     1
  3
ACAD_DIMASSOC
360
1CC3
  0
DICTIONARY
  5
1CC5
330
1CC4
100
AcDbDictionary
280
     1
281
     1
  3
ACAD_DIMASSOC
360
1CC6
  0
DICTIONARY
  5
1CC8
330
1CC7
100
AcDbDictionary
280
     1
281
     1
  3
ACAD_DIMASSOC
360
1CC9
  0
DICTIONARY
  5
1CCB
330
1CCA
100
AcDbDictionary
280
     1
281
     1
  3
ACAD_DIMASSOC
360
1CCC
  0
DICTIONARY
  5
1CCE
330
1CCD
100
AcDbDictionary
280
     1
281
     1
  3
ACAD_DIMASSOC
360
1CCF
  0
DICTIONARY
  5
1CD1
330
1CD0
100
AcDbDictionary
280
     1
281
     1
  3
ACAD_DIMASSOC
360
1CD2
  0
DICTIONARY
  5
1CD4
330
1CD3
100
AcDbDictionary
280
     1
281
     1
  3
ACAD_DIMASSOC
360
1CD5
  0
DICTIONARY
  5
1CD7
330
1CD6
100
AcDbDictionary
280
     1
281
     1
  3
ACAD_DIMASSOC
360
1CD8
  0
DICTIONARY
  5
1CE3
330
1CE2
100
AcDbDictionary
280
     1
281
     1
  3
ACAD_DIMASSOC
360
1CE4
  0
DICTIONARY
  5
1CE6
330
1CE5
100
AcDbDictionary
280
     1
281
     1
  3
ACAD_DIMASSOC
360
1CE7
  0
XRECORD
  5
14E
102
{ACAD_REACTORS
330
C
102
}
330
C
100
AcDbXrecord
280
     1
300
ACDLT
300
2012
300

  0
DICTIONARY
  5
5E
102
{ACAD_REACTORS
330
C
102
}
330
C
100
AcDbDictionary
281
     1
  0
DICTIONARY
  5
D
102
{ACAD_REACTORS
330
C
102
}
330
C
100
AcDbDictionary
281
     1
  0
DICTIONARY
  5
5D
102
{ACAD_REACTORS
330
C
102
}
330
C
100
AcDbDictionary
281
     1
  3
Model
350
6A
  3
レイアウト1
350
66
  3
レイアウト2
350
6E
  0
DICTIONARY
  5
10
102
{ACAD_REACTORS
330
C
102
}
330
C
100
AcDbDictionary
281
     1
  3
ByBlock
350
19
  3
ByLayer
350
11
  3
Global
350
21
  0
DICTIONARY
  5
61
102
{ACAD_REACTORS
330
C
102
}
330
C
100
AcDbDictionary
281
     1
  3
Standard
350
62
  0
DICTIONARY
  5
5A
102
{ACAD_REACTORS
330
C
102
}
330
C
100
AcDbDictionary
281
     1
  3
Standard
350
5B
  0
DICTIONARY
  5
5C
102
{ACAD_REACTORS
330
C
102
}
330
C
100
AcDbDictionary
281
     1
  0
ACDBDICTIONARYWDFLT
  5
E
102
{ACAD_REACTORS
330
C
102
}
330
C
100
AcDbDictionary
281
     1
  3
Normal
350
F
100
AcDbDictionaryWithDefault
340
F
  0
DICTIONARY
  5
3D
102
{ACAD_REACTORS
330
C
102
}
330
C
100
AcDbDictionary
281
     1
  3
A0
350
3E
  3
A1
350
3F
  3
A2
350
40
  3
A3
350
41
  3
A4
350
42
  3
A5
350
43
  3
A6
350
44
  3
A7
350
45
  3
A8
350
46
  3
A9
350
47
  3
B0
350
48
  3
B1
350
49
  3
B2
350
4A
  3
B3
350
4B
  3
B4
350
4C
  3
B5
350
4D
  3
B6
350
4E
  0
DICTIONARY
  5
5F
102
{ACAD_REACTORS
330
C
102
}
330
C
100
AcDbDictionary
281
     1
  3
Standard
350
60
  0
DICTIONARY
  5
29
102
{ACAD_REACTORS
330
C
102
}
330
C
100
AcDbDictionary
281
     1
  3
2dWireframe
350
2F
  3
3D Hidden
350
31
  3
3dWireframe
350
30
  3
Basic
350
2E
  3
Brighten
350
35
  3
ColorChange
350
39
  3
Conceptual
350
32
  3
Dim
350
34
  3
EdgeColorOff
350
3C
  3
Facepattern
350
38
  3
Flat
350
2A
  3
FlatWithEdges
350
2B
  3
Gouraud
350
2C
  3
GouraudWithEdges
350
2D
  3
Hidden
350
142
  3
JitterOff
350
3A
  3
Linepattern
350
37
  3
OverhangOff
350
3B
  3
Realistic
350
33
  3
Shaded
350
147
  3
Shaded with edges
350
146
  3
Shades of Gray
350
143
  3
Sketchy
350
144
  3
Thicken
350
36
  3
Wireframe
350
141
  3
X-Ray
350
145
  0
XRECORD
  5
1D1B
102
{ACAD_REACTORS
330
C
102
}
330
C
100
AcDbXrecord
280
     1
 90
        1
330
60
330
330
330
484
330
4A0
330
5B8
330
604
330
65A
330
676
330
6EA
330
70F
330
72B
330
78D
330
7A9
330
7FE
330
17FB
  0
DICTIONARY
  5
8E
102
{ACAD_REACTORS
330
C
102
}
330
C
100
AcDbDictionary
281
     1
  3
CANNOSCALE
350
91
  3
CMLEADERSTYLE
350
90
  3
CTABLESTYLE
350
8F
  3
MLEADERSCALE
350
831
  3
XCLIPFRAME
350
1D19
  0
DICTIONARY
  5
A2
102
{ACAD_REACTORS
330
A1
102
}
330
A1
100
AcDbDictionary
281
     1
  0
SORTENTSTABLE
  5
9D
102
{ACAD_REACTORS
330
9C
102
}
330
9C
100
AcDbSortentsTable
330
67
331
C6
  5
C6
331
240
  5
12AD
331
747
  5
1801
331
604
  5
17F6
331
18CA
  5
18E5
331
18C6
  5
111C
331
1B84
  5
1B88
331
1A33
  5
1355
331
1B80
  5
1B84
331
1BC3
  5
1BBF
331
1B7C
  5
1B80
331
1B78
  5
1B7C
331
1C49
  5
1C49
331
2A7
  5
136D
331
2A3
  5
136B
331
CDD
  5
1879
331
72B
  5
17FE
331
9A
  5
9A
331
18A6
  5
18E0
331
7FE
  5
1848
331
5B8
  5
17F5
331
1BBF
  5
1BD0
331
18F1
  5
1916
331
1BBB
  5
1BCF
331
1B74
  5
1B77
331
1C45
  5
1C45
331
188A
  5
18DF
331
1B70
  5
1B72
331
1950
  5
1953
331
26F
  5
1326
331
26B
  5
131D
331
70F
  5
17FB
331
25B
  5
131B
331
18ED
  5
1914
331
411
  5
1376
331
18E9
  5
1910
331
194C
  5
194F
331
187A
  5
189B
331
18E5
  5
18ED
331
1876
  5
18AD
331
1948
  5
194B
331
18E1
  5
18F3
331
1944
  5
1947
331
1C7C
  5
1C7C
331
1C78
  5
1C78
331
1BDA
  5
1BDC
331
1C74
  5
1C74
331
D1
  5
D1
331
CD
  5
CD
331
24F
  5
1317
331
3F9
  5
1375
331
2EA
  5
1371
331
C9
  5
C9
331
186E
  5
1898
331
1764
  5
D38
331
4A0
  5
17EB
331
193C
  5
1944
331
2D2
  5
136F
331
184E
  5
1895
331
1987
  5
1984
331
17FB
  5
1888
331
1983
  5
1A33
331
1914
  5
189D
331
1BD6
  5
1BD8
331
184A
  5
1891
331
18D1
  5
18E8
331
1910
  5
18DD
331
1BD2
  5
1BD4
331
1C64
  5
1C6D
331
1C60
  5
1C65
331
1BCA
  5
1BC8
331
1C5C
  5
1C5D
331
C5
  5
C5
331
395
  5
1374
331
17F7
  5
1885
331
18C9
  5
18E4
331
17EB
  5
1882
331
1B87
  5
1BB1
331
CE0
  5
187D
331
1900
  5
193B
331
1B83
  5
1B87
331
1BC6
  5
1BC4
331
1B7F
  5
1B83
331
1BC2
  5
1BD3
331
1B7B
  5
1B7F
331
1C4C
  5
1C4C
331
1C48
  5
1C48
331
2A6
  5
136C
331
484
  5
17EA
331
2A2
  5
136A
331
CDC
  5
1875
331
46C
  5
17C7
331
18F4
  5
1939
331
1B77
  5
1B7B
331
970
  5
184C
331
18F0
  5
1915
331
1953
  5
1959
331
1B73
  5
1B76
331
1C44
  5
1C44
331
1889
  5
18DE
331
26E
  5
1325
331
454
  5
17C2
331
177
  5
11EB
331
958
  5
184B
331
18EC
  5
1913
331
194F
  5
1952
331
7A9
  5
1831
331
18E8
  5
1900
331
194B
  5
194E
331
1879
  5
18CA
331
6EA
  5
17FA
331
18E4
  5
18F4
331
1947
  5
194A
331
1875
  5
18A1
331
18E0
  5
18F0
331
1943
  5
1946
331
1C7B
  5
1C7B
331
1BDD
  5
1C30
331
1C77
  5
1C77
331
1BD9
  5
1BDB
331
1C73
  5
1C73
331
D4
  5
D4
331
D0
  5
D0
331
CC
  5
CC
331
24E
  5
1316
331
78D
  5
1802
331
C8
  5
C8
331
1802
  5
188D
331
1763
  5
CE0
331
676
  5
17F8
331
198A
  5
1988
331
193B
  5
1943
331
17FE
  5
1889
331
1986
  5
1B71
331
1917
  5
18A9
331
184D
  5
1894
331
17FA
  5
1887
331
1982
  5
198A
331
1913
  5
189A
331
1BD5
  5
1BD7
331
1849
  5
1890
331
18D0
  5
18E7
331
1C63
  5
1C6B
331
1BCD
  5
1BCB
331
1C5F
  5
1C63
331
1C5B
  5
1C5B
331
C4
  5
C4
331
236
  5
12AB
331
17F6
  5
1884
331
65A
  5
17F7
331
18C8
  5
18E3
331
1831
  5
188E
331
17EA
  5
1881
331
1B86
  5
1BB0
331
1B82
  5
1B86
331
1BC5
  5
1BC2
331
1B7E
  5
1B82
331
1AD3
  5
1364
331
1BC1
  5
1BD2
331
1B7A
  5
1B7E
331
1C4B
  5
1C4B
331
2A1
  5
1369
331
275
  5
132B
331
18FF
  5
193A
331
CDB
  5
184E
331
34C
  5
1373
331
18F3
  5
1917
331
1B76
  5
1B7A
331
1C47
  5
1C47
331
1952
  5
1958
331
1B72
  5
1B74
331
1C43
  5
1989
331
26D
  5
1320
331
25D
  5
131C
331
176
  5
11C5
331
18EB
  5
1912
331
194E
  5
1951
331
172
  5
E38
331
18E7
  5
18FF
331
1878
  5
18BA
331
194A
  5
194D
331
330
  5
1372
331
18E3
  5
18F1
331
1874
  5
189E
331
1946
  5
1949
331
1942
  5
1945
331
1C7A
  5
1C7A
331
1C76
  5
1C76
331
1BDC
  5
1C2B
331
1BD8
  5
1BDA
331
D3
  5
D3
331
CF
  5
CF
331
251
  5
131A
331
847
  5
184A
331
CB
  5
CB
331
18DF
  5
18EC
331
1766
  5
E36
331
1801
  5
188A
331
1989
  5
1987
331
193A
  5
1942
331
13AE
  5
11EE
331
1985
  5
1B70
331
1916
  5
18B8
331
184C
  5
1893
331
1912
  5
18A0
331
1C66
  5
1C71
331
1BD4
  5
1BD6
331
1848
  5
188F
331
1C62
  5
1C69
331
1BD0
  5
1BCE
331
1C5E
  5
1C61
331
1B89
  5
1BBB
331
1BC8
  5
1BC5
331
C7
  5
C7
331
241
  5
12AE
331
18CF
  5
18E6
331
235
  5
128C
331
2A8
  5
136E
331
18C7
  5
18E2
331
1B85
  5
1B89
331
1B81
  5
1B85
331
1B7D
  5
1B81
331
1BC0
  5
1BD1
331
1B79
  5
1B7D
331
1C4A
  5
1C4A
331
9B
  5
9B
331
274
  5
132A
331
18A7
  5
18E1
331
CDA
  5
184D
331
195D
  5
1983
331
270
  5
1329
331
1B75
  5
1B79
331
1C46
  5
1C46
331
1B71
  5
1B73
331
1C42
  5
1985
331
1951
  5
1957
331
181
  5
128B
331
25C
  5
1318
331
18EA
  5
1911
331
194D
  5
1950
331
18E6
  5
18FD
331
1877
  5
18B2
331
1949
  5
194C
331
18E2
  5
18EB
331
1945
  5
1948
331
1C79
  5
1C79
331
1BDB
  5
1BDD
331
1C75
  5
1C75
331
D2
  5
D2
331
CE
  5
CE
331
250
  5
1319
331
CA
  5
CA
331
18DE
  5
18EA
331
1765
  5
E30
331
1988
  5
1986
331
1939
  5
193C
331
184F
  5
1897
331
83A
  5
1849
331
1984
  5
1AD3
331
1BD7
  5
1BD9
331
1915
  5
18C9
331
184B
  5
1892
331
18D2
  5
18E9
331
17F8
  5
1886
331
1BD3
  5
1BD5
331
1C65
  5
1C6F
331
1911
  5
18B0
331
1BCF
  5
1BCD
331
1C61
  5
1C67
331
1BCB
  5
1BCA
331
1C5D
  5
1C5F
331
1B88
  5
1BB9
  0
DIMASSOC
  5
34B
102
{ACAD_REACTORS
330
33F
102
}
330
33F
100
AcDbDimAssoc
330
330
 90
        1
 70
     0
 71
     0
  1
AcDbOsnapPointRef
 72
    13
331
177
 73
     2
 91
        0
 40
0.0
 10
0.0
 20
0.0
 30
2.000000000000000E+50
 75
     0
  0
DIMASSOC
  5
363
102
{ACAD_REACTORS
330
359
102
}
330
359
100
AcDbDimAssoc
330
34C
 90
        1
 70
     0
 71
     0
  1
AcDbOsnapPointRef
 72
     1
331
177
 73
     2
 91
        0
 40
1.0
 10
0.0
 20
0.0
 30
2.000000000000000E+50
 75
     0
  0
DIMASSOC
  5
49F
102
{ACAD_REACTORS
330
493
102
}
330
493
100
AcDbDimAssoc
330
484
 90
        1
 70
     0
 71
     0
  1
AcDbOsnapPointRef
 72
     1
331
26D
 73
     2
 91
        0
 40
1.0
 10
0.0
 20
0.0
 30
2.000000000000000E+50
 75
     0
  0
DIMASSOC
  5
4BB
102
{ACAD_REACTORS
330
4AF
102
}
330
4AF
100
AcDbDimAssoc
330
4A0
 90
        1
 70
     0
 71
     0
  1
AcDbOsnapPointRef
 72
    13
331
26E
 73
     2
 91
        0
 40
0.0
 10
0.0
 20
0.0
 30
2.000000000000000E+50
 75
     0
  0
DIMASSOC
  5
1CBD
102
{ACAD_REACTORS
330
1CBC
102
}
330
1CBC
100
AcDbDimAssoc
330
1CBB
 90
        1
 70
     0
 71
     0
  1
AcDbOsnapPointRef
 72
    10
331
1C48
 73
     2
 91
        0
 40
0.8299200910422184
 10
0.0
 20
0.0
 30
0.0
 75
     0
  0
DIMASSOC
  5
1CC0
102
{ACAD_REACTORS
330
1CBF
102
}
330
1CBF
100
AcDbDimAssoc
330
1CBE
 90
        1
 70
     0
 71
     0
  1
AcDbOsnapPointRef
 72
    10
331
1C49
 73
     2
 91
        0
 40
0.8299200910422184
 10
0.0
 20
0.0
 30
0.0
 75
     0
  0
DIMASSOC
  5
1CC3
102
{ACAD_REACTORS
330
1CC2
102
}
330
1CC2
100
AcDbDimAssoc
330
1CC1
 90
        1
 70
     0
 71
     0
  1
AcDbOsnapPointRef
 72
    10
331
1C43
 73
     2
 91
        4
 40
0.0941434782787313
 10
0.0
 20
0.0
 30
0.0
 75
     0
  0
DIMASSOC
  5
1CC6
102
{ACAD_REACTORS
330
1CC5
102
}
330
1CC5
100
AcDbDimAssoc
330
1CC4
 90
        1
 70
     0
 71
     0
  1
AcDbOsnapPointRef
 72
    10
331
1C42
 73
     2
 91
        4
 40
0.210424089320857
 10
0.0
 20
0.0
 30
0.0
 75
     0
  0
DIMASSOC
  5
1CC9
102
{ACAD_REACTORS
330
1CC8
102
}
330
1CC8
100
AcDbDimAssoc
330
1CC7
 90
        1
 70
     0
 71
     0
  1
AcDbOsnapPointRef
 72
    10
331
1C45
 73
     2
 91
        4
 40
0.2839620098224981
 10
0.0
 20
0.0
 30
0.0
 75
     0
  0
DIMASSOC
  5
1CCC
102
{ACAD_REACTORS
330
1CCB
102
}
330
1CCB
100
AcDbDimAssoc
330
1CCA
 90
        1
 70
     0
 71
     0
  1
AcDbOsnapPointRef
 72
    10
331
1CBA
 73
     2
 91
        0
 40
0.2446262826316881
 10
0.0
 20
0.0
 30
0.0
 75
     0
  0
DIMASSOC
  5
1CCF
102
{ACAD_REACTORS
330
1CCE
102
}
330
1CCE
100
AcDbDimAssoc
330
1CCD
 90
        1
 70
     0
 71
     0
  1
AcDbOsnapPointRef
 72
    10
331
1CB9
 73
     2
 91
        0
 40
0.756612213412252
 10
0.0
 20
0.0
 30
0.0
 75
     0
  0
DIMASSOC
  5
1CD2
102
{ACAD_REACTORS
330
1CD1
102
}
330
1CD1
100
AcDbDimAssoc
330
1CD0
 90
        1
 70
     0
 71
     0
  1
AcDbOsnapPointRef
 72
     5
331
1CAF
 73
     2
 91
        0
 40
3.141592653589793
 10
0.0
 20
0.0
 30
0.0
 75
     0
  0
DIMASSOC
  5
1CD5
102
{ACAD_REACTORS
330
1CD4
102
}
330
1CD4
100
AcDbDimAssoc
330
1CD3
 90
        1
 70
     0
 71
     0
  1
AcDbOsnapPointRef
 72
    10
331
1CAE
 73
     2
 91
        0
 40
3.936041275573932
 10
0.0
 20
0.0
 30
0.0
 75
     0
  0
DIMASSOC
  5
1CD8
102
{ACAD_REACTORS
330
1CD7
102
}
330
1CD7
100
AcDbDimAssoc
330
1CD6
 90
        1
 70
     0
 71
     0
  1
AcDbOsnapPointRef
 72
    10
331
1CAD
 73
     2
 91
        0
 40
4.007209834042557
 10
0.0
 20
0.0
 30
0.0
 75
     0
  0
DIMASSOC
  5
1CE4
102
{ACAD_REACTORS
330
1CE3
102
}
330
1CE3
100
AcDbDimAssoc
330
1CE2
 90
        1
 70
     0
 71
     0
  1
AcDbOsnapPointRef
 72
     5
331
1CB6
 73
     2
 91
        0
 40
3.141592653589793
 10
0.0
 20
0.0
 30
0.0
 75
     0
  0
DIMASSOC
  5
1CE7
102
{ACAD_REACTORS
330
1CE6
102
}
330
1CE6
100
AcDbDimAssoc
330
1CE5
 90
        1
 70
     0
 71
     0
  1
AcDbOsnapPointRef
 72
    10
331
1CB5
 73
     2
 91
        0
 40
3.905395387657994
 10
0.0
 20
0.0
 30
0.0
 75
     0
  0
LAYOUT
  5
6A
102
{ACAD_XDICTIONARY
360
A7
102
}
102
{ACAD_REACTORS
330
5D
102
}
330
5D
100
AcDbPlotSettings
  1

  2
EPSON LP-S2000
  4
A4
  6

 40
5.873749732971191
 41
5.873748779296875
 42
5.873733520507812
 43
5.873748779296875
 44
209.9733276367187
 45
297.0106506347656
 46
1.278988826145763
 47
0.0
 48
150.0
 49
150.0
140
4305.0
141
3000.0
142
1.0
143
14.56549840101683
 70
 11956
 72
     1
 73
     1
 74
     4
  7

 75
     0
147
0.0686553918354204
 76
     0
 77
     2
 78
   300
148
-150.0
149
-150.0
100
AcDbLayout
  1
Model
 70
     1
 71
     0
 10
0.0
 20
0.0
 11
12.0
 21
9.0
 12
0.0
 22
0.0
 32
0.0
 14
0.0
 24
0.0
 34
0.0
 15
0.0
 25
0.0
 35
0.0
146
0.0
 13
0.0
 23
0.0
 33
0.0
 16
1.0
 26
0.0
 36
0.0
 17
0.0
 27
1.0
 37
0.0
 76
     0
330
67
331
52
1001
ACAD_PSEXT
1000
EPSON LP-S2000
1000
EPSON LP-S2000
1000
USB002
1000

1070
     0
  0
LAYOUT
  5
66
102
{ACAD_REACTORS
330
5D
102
}
330
5D
100
AcDbPlotSettings
  1

  2
Microsoft XPS Document Writer
  4

  6

 40
0.0
 41
0.0
 42
0.0
 43
0.0
 44
0.0
 45
0.0
 46
0.0
 47
0.0
 48
0.0
 49
0.0
140
0.0
141
0.0
142
1.0
143
1.0
 70
   688
 72
     0
 73
     0
 74
     5
  7

 75
    16
147
1.0
 76
     0
 77
     2
 78
   300
148
0.0
149
0.0
100
AcDbLayout
  1
レイアウト1
 70
     1
 71
     1
 10
0.0
 20
0.0
 11
420.0
 21
297.0
 12
0.0
 22
0.0
 32
0.0
 14
1.000000000000000E+20
 24
1.000000000000000E+20
 34
1.000000000000000E+20
 15
-1.000000000000000E+20
 25
-1.000000000000000E+20
 35
-1.000000000000000E+20
146
0.0
 13
0.0
 23
0.0
 33
0.0
 16
1.0
 26
0.0
 36
0.0
 17
0.0
 27
1.0
 37
0.0
 76
     0
330
63
  0
LAYOUT
  5
6E
102
{ACAD_REACTORS
330
5D
102
}
330
5D
100
AcDbPlotSettings
  1

  2
Microsoft XPS Document Writer
  4

  6

 40
0.0
 41
0.0
 42
0.0
 43
0.0
 44
0.0
 45
0.0
 46
0.0
 47
0.0
 48
0.0
 49
0.0
140
0.0
141
0.0
142
1.0
143
1.0
 70
   688
 72
     0
 73
     0
 74
     5
  7

 75
    16
147
1.0
 76
     0
 77
     2
 78
   300
148
0.0
149
0.0
100
AcDbLayout
  1
レイアウト2
 70
     1
 71
     2
 10
0.0
 20
0.0
 11
12.0
 21
9.0
 12
0.0
 22
0.0
 32
0.0
 14
0.0
 24
0.0
 34
0.0
 15
0.0
 25
0.0
 35
0.0
146
0.0
 13
0.0
 23
0.0
 33
0.0
 16
1.0
 26
0.0
 36
0.0
 17
0.0
 27
1.0
 37
0.0
 76
     0
330
6B
  0
MATERIAL
  5
19
102
{ACAD_XDICTIONARY
360
1A
102
}
102
{ACAD_REACTORS
330
10
102
}
330
10
100
AcDbMaterial
  1
ByBlock
 72
     0
 43
0.0208333333333333
 43
0.0
 43
0.0
 43
0.0
 43
0.0
 43
0.0208333333333333
 43
0.0
 43
0.0
 43
0.0
 43
0.0
 43
1.0
 43
0.0
 43
0.0
 43
0.0
 43
0.0
 43
1.0
 77
     0
 47
0.0208333333333333
 47
0.0
 47
0.0
 47
0.0
 47
0.0
 47
0.0208333333333333
 47
0.0
 47
0.0
 47
0.0
 47
0.0
 47
1.0
 47
0.0
 47
0.0
 47
0.0
 47
0.0
 47
1.0
171
     0
 49
0.0208333333333333
 49
0.0
 49
0.0
 49
0.0
 49
0.0
 49
0.0208333333333333
 49
0.0
 49
0.0
 49
0.0
 49
0.0
 49
1.0
 49
0.0
 49
0.0
 49
0.0
 49
0.0
 49
1.0
175
     0
142
0.0208333333333333
142
0.0
142
0.0
142
0.0
142
0.0
142
0.0208333333333333
142
0.0
142
0.0
142
0.0
142
0.0
142
1.0
142
0.0
142
0.0
142
0.0
142
0.0
142
1.0
179
     0
144
0.0208333333333333
144
0.0
144
0.0
144
0.0
144
0.0
144
0.0208333333333333
144
0.0
144
0.0
144
0.0
144
0.0
144
1.0
144
0.0
144
0.0
144
0.0
144
0.0
144
1.0
147
0.0208333333333333
147
0.0
147
0.0
147
0.0
147
0.0
147
0.0208333333333333
147
0.0
147
0.0
147
0.0
147
0.0
147
1.0
147
0.0
147
0.0
147
0.0
147
0.0
147
1.0
  0
MATERIAL
  5
11
102
{ACAD_XDICTIONARY
360
12
102
}
102
{ACAD_REACTORS
330
10
102
}
330
10
100
AcDbMaterial
  1
ByLayer
 72
     0
 43
0.0208333333333333
 43
0.0
 43
0.0
 43
0.0
 43
0.0
 43
0.0208333333333333
 43
0.0
 43
0.0
 43
0.0
 43
0.0
 43
1.0
 43
0.0
 43
0.0
 43
0.0
 43
0.0
 43
1.0
 77
     0
 47
0.0208333333333333
 47
0.0
 47
0.0
 47
0.0
 47
0.0
 47
0.0208333333333333
 47
0.0
 47
0.0
 47
0.0
 47
0.0
 47
1.0
 47
0.0
 47
0.0
 47
0.0
 47
0.0
 47
1.0
171
     0
 49
0.0208333333333333
 49
0.0
 49
0.0
 49
0.0
 49
0.0
 49
0.0208333333333333
 49
0.0
 49
0.0
 49
0.0
 49
0.0
 49
1.0
 49
0.0
 49
0.0
 49
0.0
 49
0.0
 49
1.0
175
     0
142
0.0208333333333333
142
0.0
142
0.0
142
0.0
142
0.0
142
0.0208333333333333
142
0.0
142
0.0
142
0.0
142
0.0
142
1.0
142
0.0
142
0.0
142
0.0
142
0.0
142
1.0
179
     0
144
0.0208333333333333
144
0.0
144
0.0
144
0.0
144
0.0
144
0.0208333333333333
144
0.0
144
0.0
144
0.0
144
0.0
144
1.0
144
0.0
144
0.0
144
0.0
144
0.0
144
1.0
147
0.0208333333333333
147
0.0
147
0.0
147
0.0
147
0.0
147
0.0208333333333333
147
0.0
147
0.0
147
0.0
147
0.0
147
1.0
147
0.0
147
0.0
147
0.0
147
0.0
147
1.0
  0
MATERIAL
  5
21
102
{ACAD_XDICTIONARY
360
22
102
}
102
{ACAD_REACTORS
330
10
102
}
330
10
100
AcDbMaterial
  1
Global
 72
     0
 43
0.0208333333333333
 43
0.0
 43
0.0
 43
0.0
 43
0.0
 43
0.0208333333333333
 43
0.0
 43
0.0
 43
0.0
 43
0.0
 43
1.0
 43
0.0
 43
0.0
 43
0.0
 43
0.0
 43
1.0
 77
     0
 47
0.0208333333333333
 47
0.0
 47
0.0
 47
0.0
 47
0.0
 47
0.0208333333333333
 47
0.0
 47
0.0
 47
0.0
 47
0.0
 47
1.0
 47
0.0
 47
0.0
 47
0.0
 47
0.0
 47
1.0
171
     0
 49
0.0208333333333333
 49
0.0
 49
0.0
 49
0.0
 49
0.0
 49
0.0208333333333333
 49
0.0
 49
0.0
 49
0.0
 49
0.0
 49
1.0
 49
0.0
 49
0.0
 49
0.0
 49
0.0
 49
1.0
175
     0
142
0.0208333333333333
142
0.0
142
0.0
142
0.0
142
0.0
142
0.0208333333333333
142
0.0
142
0.0
142
0.0
142
0.0
142
1.0
142
0.0
142
0.0
142
0.0
142
0.0
142
1.0
179
     0
144
0.0208333333333333
144
0.0
144
0.0
144
0.0
144
0.0
144
0.0208333333333333
144
0.0
144
0.0
144
0.0
144
0.0
144
1.0
144
0.0
144
0.0
144
0.0
144
0.0
144
1.0
147
0.0208333333333333
147
0.0
147
0.0
147
0.0
147
0.0
147
0.0208333333333333
147
0.0
147
0.0
147
0.0
147
0.0
147
1.0
147
0.0
147
0.0
147
0.0
147
0.0
147
1.0
  0
MLEADERSTYLE
  5
62
102
{ACAD_REACTORS
330
61
330
1BBB
330
1BBF
330
1BC0
330
1BC1
330
1BC2
330
1BD9
330
1BDA
330
1BDB
330
1BDC
330
1BDD
330
1CBB
330
1CBE
330
1CC1
330
1CC4
330
1CC7
330
1CCA
330
1CCD
330
1CD0
330
1CD3
330
1CD6
330
1CD9
330
1CDC
330
1CE2
330
1CE5
102
}
330
61
100
AcDbMLeaderStyle
170
     2
171
     1
172
     0
 90
        2
 40
0.0
 41
0.0
173
     1
 91
-1056964608
340
56
 92
       -2
290
     1
 42
1.09
291
     1
 43
0.36
  3
Standard
 44
2.0
300

342
50
174
     6
178
     6
175
     1
176
     0
 93
-1056964608
 45
2.0
292
     0
297
     0
 46
0.18
 94
-1056964608
 47
1.0
 49
1.0
140
1.0
293
     1
141
0.0
294
     1
177
     0
142
15.0
295
     0
296
     0
143
1.125
1001
ACAD_MLEADERVER
1070
     2
  0
MLINESTYLE
  5
5B
102
{ACAD_REACTORS
330
5A
102
}
330
5A
100
AcDbMlineStyle
  2
STANDARD
 70
     0
  3

 62
   256
 51
90.0
 52
90.0
 71
     2
 49
0.5
 62
   256
  6
BYLAYER
 49
-0.5
 62
   256
  6
BYLAYER
  0
ACDBPLACEHOLDER
  5
F
102
{ACAD_REACTORS
330
E
102
}
330
E
  0
SCALE
  5
3E
102
{ACAD_REACTORS
330
3D
102
}
330
3D
100
AcDbScale
 70
     0
300
1:1
140
1.0
141
1.0
290
     1
  0
SCALE
  5
3F
102
{ACAD_REACTORS
330
3D
102
}
330
3D
100
AcDbScale
 70
     0
300
1:2
140
1.0
141
2.0
290
     0
  0
SCALE
  5
40
102
{ACAD_REACTORS
330
3D
102
}
330
3D
100
AcDbScale
 70
     0
300
1:4
140
1.0
141
4.0
290
     0
  0
SCALE
  5
41
102
{ACAD_REACTORS
330
3D
102
}
330
3D
100
AcDbScale
 70
     0
300
1:5
140
1.0
141
5.0
290
     0
  0
SCALE
  5
42
102
{ACAD_REACTORS
330
3D
102
}
330
3D
100
AcDbScale
 70
     0
300
1:8
140
1.0
141
8.0
290
     0
  0
SCALE
  5
43
102
{ACAD_REACTORS
330
3D
102
}
330
3D
100
AcDbScale
 70
     0
300
1:10
140
1.0
141
10.0
290
     0
  0
SCALE
  5
44
102
{ACAD_REACTORS
330
3D
102
}
330
3D
100
AcDbScale
 70
     0
300
1:16
140
1.0
141
16.0
290
     0
  0
SCALE
  5
45
102
{ACAD_REACTORS
330
3D
102
}
330
3D
100
AcDbScale
 70
     0
300
1:20
140
1.0
141
20.0
290
     0
  0
SCALE
  5
46
102
{ACAD_REACTORS
330
3D
102
}
330
3D
100
AcDbScale
 70
     0
300
1:30
140
1.0
141
30.0
290
     0
  0
SCALE
  5
47
102
{ACAD_REACTORS
330
3D
102
}
330
3D
100
AcDbScale
 70
     0
300
1:40
140
1.0
141
40.0
290
     0
  0
SCALE
  5
48
102
{ACAD_REACTORS
330
3D
102
}
330
3D
100
AcDbScale
 70
     0
300
1:50
140
1.0
141
50.0
290
     0
  0
SCALE
  5
49
102
{ACAD_REACTORS
330
3D
102
}
330
3D
100
AcDbScale
 70
     0
300
1:100
140
1.0
141
100.0
290
     0
  0
SCALE
  5
4A
102
{ACAD_REACTORS
330
3D
102
}
330
3D
100
AcDbScale
 70
     0
300
2:1
140
2.0
141
1.0
290
     0
  0
SCALE
  5
4B
102
{ACAD_REACTORS
330
3D
102
}
330
3D
100
AcDbScale
 70
     0
300
4:1
140
4.0
141
1.0
290
     0
  0
SCALE
  5
4C
102
{ACAD_REACTORS
330
3D
102
}
330
3D
100
AcDbScale
 70
     0
300
8:1
140
8.0
141
1.0
290
     0
  0
SCALE
  5
4D
102
{ACAD_REACTORS
330
3D
102
}
330
3D
100
AcDbScale
 70
     0
300
10:1
140
10.0
141
1.0
290
     0
  0
SCALE
  5
4E
102
{ACAD_REACTORS
330
3D
102
}
330
3D
100
AcDbScale
 70
     0
300
100:1
140
100.0
141
1.0
290
     0
  0
TABLESTYLE
  5
60
102
{ACAD_XDICTIONARY
360
ED
102
}
102
{ACAD_REACTORS
330
5F
102
}
330
5F
100
AcDbTableStyle
  3
Standard
 70
     0
 71
     0
 40
1.5
 41
1.5
280
     0
281
     0
  7
Standard
140
4.5
170
     2
 62
     0
 63
     7
283
     0
 90
      512
 91
        0
  1

274
    -2
284
     1
 64
     0
275
    -2
285
     1
 65
     0
276
    -2
286
     1
 66
     0
277
    -2
287
     1
 67
     0
278
    -2
288
     1
 68
     0
279
    -2
289
     1
 69
     0
  7
Standard
140
6.0
170
     5
 62
     0
 63
     7
283
     0
 90
      512
 91
        0
  1

274
    -2
284
     1
 64
     0
275
    -2
285
     1
 65
     0
276
    -2
286
     1
 66
     0
277
    -2
287
     1
 67
     0
278
    -2
288
     1
 68
     0
279
    -2
289
     1
 69
     0
  7
Standard
140
4.5
170
     5
 62
     0
 63
     7
283
     0
 90
      512
 91
        0
  1

274
    -2
284
     1
 64
     0
275
    -2
285
     1
 65
     0
276
    -2
286
     1
 66
     0
277
    -2
287
     1
 67
     0
278
    -2
288
     1
 68
     0
279
    -2
289
     1
 69
     0
  0
VISUALSTYLE
  5
2F
102
{ACAD_XDICTIONARY
360
1D26
102
}
102
{ACAD_REACTORS
330
29
102
}
330
29
100
AcDbVisualStyle
  2
2dWireframe
 70
     4
 71
     0
 72
     2
 73
     0
 90
        0
 40
-0.6
 41
-30.0
 62
     5
 63
     7
421
 16777215
 74
     1
 91
        4
 64
     7
 65
   257
 75
     1
175
     1
 42
1.0
 92
        0
 66
   257
 43
1.0
 76
     1
 77
     6
 78
     2
 67
     7
 79
     5
170
     0
171
     0
290
     0
174
     0
 93
        1
 44
0.0
173
     0
291
     0
 45
0.0
1001
ACAD
1000
AcDbSavedByObjectVersion
1070
     0
  0
VISUALSTYLE
  5
31
102
{ACAD_XDICTIONARY
360
1D2A
102
}
102
{ACAD_REACTORS
330
29
102
}
330
29
100
AcDbVisualStyle
  2
3D Hidden
 70
     6
 71
     1
 72
     2
 73
     2
 90
        0
 40
-0.6
 41
-30.0
 62
     5
 63
     7
421
 16777215
 74
     2
 91
        2
 64
     7
 65
   257
 75
     2
175
     1
 42
179.0
 92
        0
 66
   257
 43
1.0
 76
     1
 77
     6
 78
     2
 67
     7
 79
     3
170
     0
171
     0
290
     0
174
     0
 93
        1
 44
0.0
173
     0
291
     0
 45
0.0
1001
ACAD
1000
AcDbSavedByObjectVersion
1070
     0
  0
VISUALSTYLE
  5
30
102
{ACAD_XDICTIONARY
360
1D28
102
}
102
{ACAD_REACTORS
330
29
102
}
330
29
100
AcDbVisualStyle
  2
3dWireframe
 70
     5
 71
     0
 72
     2
 73
     0
 90
        0
 40
-0.6
 41
-30.0
 62
     5
 63
     7
421
 16777215
 74
     1
 91
        4
 64
     7
 65
   257
 75
     1
175
     1
 42
1.0
 92
        0
 66
   257
 43
1.0
 76
     1
 77
     6
 78
     2
 67
     7
 79
     5
170
     0
171
     0
290
     0
174
     0
 93
        1
 44
0.0
173
     0
291
     0
 45
0.0
1001
ACAD
1000
AcDbSavedByObjectVersion
1070
     0
  0
VISUALSTYLE
  5
2E
102
{ACAD_XDICTIONARY
360
1D24
102
}
102
{ACAD_REACTORS
330
29
102
}
330
29
100
AcDbVisualStyle
  2
Basic
 70
     7
 71
     1
 72
     0
 73
     1
 90
        0
 40
-0.6
 41
-30.0
 62
     5
 63
     7
421
 16777215
 74
     0
 91
        4
 64
     7
 65
   257
 75
     1
175
     1
 42
1.0
 92
        8
 66
     7
 43
1.0
 76
     1
 77
     6
 78
     2
 67
     7
 79
     5
170
     0
171
     0
290
     0
174
     0
 93
        1
 44
0.0
173
     0
291
     1
 45
0.0
1001
ACAD
1000
AcDbSavedByObjectVersion
1070
     0
  0
VISUALSTYLE
  5
35
102
{ACAD_XDICTIONARY
360
1D32
102
}
102
{ACAD_REACTORS
330
29
102
}
330
29
100
AcDbVisualStyle
  2
Brighten
 70
    12
 71
     2
 72
     2
 73
     0
 90
        0
 40
-0.6
 41
-30.0
 62
     5
 63
     7
421
 16777215
 74
     1
 91
        4
 64
     7
 65
   257
 75
     1
175
     1
 42
1.0
 92
        8
 66
     7
 43
1.0
 76
     1
 77
     6
 78
     2
 67
     7
 79
     5
170
     0
171
     0
290
     0
174
     0
 93
        1
 44
50.0
173
     0
291
     1
 45
0.0
1001
ACAD
1000
AcDbSavedByObjectVersion
1070
     0
  0
VISUALSTYLE
  5
39
102
{ACAD_XDICTIONARY
360
1D3A
102
}
102
{ACAD_REACTORS
330
29
102
}
330
29
100
AcDbVisualStyle
  2
ColorChange
 70
    16
 71
     2
 72
     2
 73
     3
 90
        0
 40
-0.6
 41
-30.0
 62
     5
 63
     8
421
  8421504
 74
     1
 91
        4
 64
     7
 65
   257
 75
     1
175
     1
 42
1.0
 92
        8
 66
     8
424
  8421504
 43
1.0
 76
     1
 77
     6
 78
     2
 67
     7
 79
     5
170
     0
171
     0
290
     0
174
     0
 93
        1
 44
0.0
173
     0
291
     1
 45
0.0
1001
ACAD
1000
AcDbSavedByObjectVersion
1070
     0
  0
VISUALSTYLE
  5
32
102
{ACAD_XDICTIONARY
360
1D2C
102
}
102
{ACAD_REACTORS
330
29
102
}
330
29
100
AcDbVisualStyle
  2
Conceptual
 70
     9
 71
     3
 72
     2
 73
     0
 90
        0
 40
-0.6
 41
-30.0
 62
     5
 63
     7
421
 16777215
 74
     2
 91
        2
 64
     7
 65
   257
 75
     1
175
     1
 42
179.0
 92
        8
 66
     7
 43
1.0
 76
     1
 77
     6
 78
     2
 67
     7
 79
     3
170
     0
171
     0
290
     0
174
     0
 93
        1
 44
0.0
173
     0
291
     0
 45
0.0
1001
ACAD
1000
AcDbSavedByObjectVersion
1070
     0
  0
VISUALSTYLE
  5
34
102
{ACAD_XDICTIONARY
360
1D30
102
}
102
{ACAD_REACTORS
330
29
102
}
330
29
100
AcDbVisualStyle
  2
Dim
 70
    11
 71
     2
 72
     2
 73
     0
 90
        0
 40
-0.6
 41
-30.0
 62
     5
 63
     7
421
 16777215
 74
     1
 91
        4
 64
     7
 65
   257
 75
     1
175
     1
 42
1.0
 92
        8
 66
     7
 43
1.0
 76
     1
 77
     6
 78
     2
 67
     7
 79
     5
170
     0
171
     0
290
     0
174
     0
 93
        1
 44
-50.0
173
     0
291
     1
 45
0.0
1001
ACAD
1000
AcDbSavedByObjectVersion
1070
     0
  0
VISUALSTYLE
  5
3C
102
{ACAD_XDICTIONARY
360
1D40
102
}
102
{ACAD_REACTORS
330
29
102
}
330
29
100
AcDbVisualStyle
  2
EdgeColorOff
 70
    22
 71
     2
 72
     2
 73
     0
 90
        0
 40
-0.6
 41
-30.0
 62
     5
 63
     7
421
 16777215
 74
     1
 91
        4
 64
     7
 65
   257
 75
     1
175
     1
 42
1.0
 92
        8
 66
     7
 43
1.0
 76
     1
 77
     6
 78
     2
 67
     7
 79
     5
170
     0
171
     0
290
     0
174
     0
 93
        1
 44
0.0
173
     0
291
     1
 45
0.0
1001
ACAD
1000
AcDbSavedByObjectVersion
1070
     0
  0
VISUALSTYLE
  5
38
102
{ACAD_XDICTIONARY
360
1D38
102
}
102
{ACAD_REACTORS
330
29
102
}
330
29
100
AcDbVisualStyle
  2
Facepattern
 70
    15
 71
     2
 72
     2
 73
     0
 90
        0
 40
-0.6
 41
-30.0
 62
     5
 63
     7
421
 16777215
 74
     1
 91
        4
 64
     7
 65
   257
 75
     1
175
     1
 42
1.0
 92
        8
 66
     7
 43
1.0
 76
     1
 77
     6
 78
     2
 67
     7
 79
     5
170
     0
171
     0
290
     0
174
     0
 93
        1
 44
0.0
173
     0
291
     1
 45
0.0
1001
ACAD
1000
AcDbSavedByObjectVersion
1070
     0
  0
VISUALSTYLE
  5
2A
102
{ACAD_XDICTIONARY
360
1D1C
102
}
102
{ACAD_REACTORS
330
29
102
}
330
29
100
AcDbVisualStyle
  2
Flat
 70
     0
 71
     2
 72
     1
 73
     1
 90
        2
 40
-0.6
 41
30.0
 62
     5
 63
     7
421
 16777215
 74
     0
 91
        4
 64
     7
 65
   257
 75
     1
175
     1
 42
1.0
 92
        8
 66
     7
 43
1.0
 76
     1
 77
     6
 78
     2
 67
     7
 79
     5
170
     0
171
     0
290
     0
174
     0
 93
       13
 44
0.0
173
     0
291
     1
 45
0.0
1001
ACAD
1000
AcDbSavedByObjectVersion
1070
     0
  0
VISUALSTYLE
  5
2B
102
{ACAD_XDICTIONARY
360
1D1E
102
}
102
{ACAD_REACTORS
330
29
102
}
330
29
100
AcDbVisualStyle
  2
FlatWithEdges
 70
     1
 71
     2
 72
     1
 73
     1
 90
        2
 40
-0.6
 41
30.0
 62
     5
 63
     7
421
 16777215
 74
     1
 91
        4
 64
     7
 65
   257
 75
     1
175
     1
 42
1.0
 92
        0
 66
   257
 43
1.0
 76
     1
 77
     6
 78
     2
 67
     7
 79
     5
170
     0
171
     0
290
     0
174
     0
 93
       13
 44
0.0
173
     0
291
     1
 45
0.0
1001
ACAD
1000
AcDbSavedByObjectVersion
1070
     0
  0
VISUALSTYLE
  5
2C
102
{ACAD_XDICTIONARY
360
1D20
102
}
102
{ACAD_REACTORS
330
29
102
}
330
29
100
AcDbVisualStyle
  2
Gouraud
 70
     2
 71
     2
 72
     2
 73
     1
 90
        2
 40
-0.6
 41
30.0
 62
     5
 63
     7
421
 16777215
 74
     0
 91
        4
 64
     7
 65
   257
 75
     1
175
     1
 42
1.0
 92
        0
 66
     7
 43
1.0
 76
     1
 77
     6
 78
     2
 67
     7
 79
     5
170
     0
171
     0
290
     0
174
     0
 93
       13
 44
0.0
173
     0
291
     1
 45
0.0
1001
ACAD
1000
AcDbSavedByObjectVersion
1070
     0
  0
VISUALSTYLE
  5
2D
102
{ACAD_XDICTIONARY
360
1D22
102
}
102
{ACAD_REACTORS
330
29
102
}
330
29
100
AcDbVisualStyle
  2
GouraudWithEdges
 70
     3
 71
     2
 72
     2
 73
     1
 90
        2
 40
-0.6
 41
30.0
 62
     5
 63
     7
421
 16777215
 74
     1
 91
        4
 64
     7
 65
   257
 75
     1
175
     1
 42
1.0
 92
        0
 66
   257
 43
1.0
 76
     1
 77
     6
 78
     2
 67
     7
 79
     5
170
     0
171
     0
290
     0
174
     0
 93
       13
 44
0.0
173
     0
291
     1
 45
0.0
1001
ACAD
1000
AcDbSavedByObjectVersion
1070
     0
  0
VISUALSTYLE
  5
142
102
{ACAD_XDICTIONARY
360
1D44
102
}
102
{ACAD_REACTORS
330
29
102
}
330
29
100
AcDbVisualStyle
  2
Hidden
 70
     6
 71
     1
 72
     2
 73
     2
 90
        0
 40
-0.6
 41
-30.0
 62
     5
 63
     7
421
 16777215
 74
     2
 91
        2
 64
     7
 65
   257
 75
     2
175
     1
 42
40.0
 92
        0
 66
   257
 43
1.0
 76
     1
 77
     6
 78
     2
 67
     7
 79
     3
170
     0
171
     0
290
     0
174
     0
 93
        1
 44
0.0
173
     0
291
     0
 45
0.0
1001
ACAD
1000
AcDbSavedByObjectVersion
1070
     0
  0
VISUALSTYLE
  5
3A
102
{ACAD_XDICTIONARY
360
1D3C
102
}
102
{ACAD_REACTORS
330
29
102
}
330
29
100
AcDbVisualStyle
  2
JitterOff
 70
    20
 71
     2
 72
     2
 73
     0
 90
        0
 40
-0.6
 41
-30.0
 62
     5
 63
     7
421
 16777215
 74
     1
 91
        4
 64
     7
 65
   257
 75
     1
175
     1
 42
1.0
 92
       10
 66
     7
 43
1.0
 76
     1
 77
     6
 78
     2
 67
     7
 79
     5
170
     0
171
     0
290
     0
174
     0
 93
        1
 44
0.0
173
     0
291
     1
 45
0.0
1001
ACAD
1000
AcDbSavedByObjectVersion
1070
     0
  0
VISUALSTYLE
  5
37
102
{ACAD_XDICTIONARY
360
1D36
102
}
102
{ACAD_REACTORS
330
29
102
}
330
29
100
AcDbVisualStyle
  2
Linepattern
 70
    14
 71
     2
 72
     2
 73
     0
 90
        0
 40
-0.6
 41
-30.0
 62
     5
 63
     7
421
 16777215
 74
     1
 91
        4
 64
     7
 65
   257
 75
     7
175
     7
 42
1.0
 92
        8
 66
     7
 43
1.0
 76
     1
 77
     6
 78
     2
 67
     7
 79
     5
170
     0
171
     0
290
     0
174
     0
 93
        1
 44
0.0
173
     0
291
     1
 45
0.0
1001
ACAD
1000
AcDbSavedByObjectVersion
1070
     0
  0
VISUALSTYLE
  5
3B
102
{ACAD_XDICTIONARY
360
1D3E
102
}
102
{ACAD_REACTORS
330
29
102
}
330
29
100
AcDbVisualStyle
  2
OverhangOff
 70
    21
 71
     2
 72
     2
 73
     0
 90
        0
 40
-0.6
 41
-30.0
 62
     5
 63
     7
421
 16777215
 74
     1
 91
        4
 64
     7
 65
   257
 75
     1
175
     1
 42
1.0
 92
        9
 66
     7
 43
1.0
 76
     1
 77
     6
 78
     2
 67
     7
 79
     5
170
     0
171
     0
290
     0
174
     0
 93
        1
 44
0.0
173
     0
291
     1
 45
0.0
1001
ACAD
1000
AcDbSavedByObjectVersion
1070
     0
  0
VISUALSTYLE
  5
33
102
{ACAD_XDICTIONARY
360
1D2E
102
}
102
{ACAD_REACTORS
330
29
102
}
330
29
100
AcDbVisualStyle
  2
Realistic
 70
     8
 71
     2
 72
     2
 73
     0
 90
        0
 40
-0.6
 41
-30.0
 62
     5
 63
     7
421
 16777215
 74
     1
 91
        0
 64
     7
 65
   257
 75
     1
175
     1
 42
1.0
 92
        8
 66
     8
424
  7895160
 43
1.0
 76
     1
 77
     6
 78
     2
 67
     7
 79
     5
170
     0
171
     0
290
     0
174
     0
 93
       13
 44
0.0
173
     0
291
     0
 45
0.0
1001
ACAD
1000
AcDbSavedByObjectVersion
1070
     0
  0
VISUALSTYLE
  5
147
102
{ACAD_XDICTIONARY
360
1D4E
102
}
102
{ACAD_REACTORS
330
29
102
}
330
29
100
AcDbVisualStyle
  2
Shaded
 70
    27
 71
     2
 72
     2
 73
     1
 90
        2
 40
-0.6
 41
30.0
 62
     5
 63
     7
421
 16777215
 74
     0
 91
        4
 64
     7
 65
   257
 75
     1
175
     1
 42
1.0
 92
        8
 66
   257
 43
1.0
 76
     1
 77
     6
 78
     2
 67
     8
425
  7895160
 79
     3
170
     0
171
     0
290
     0
174
     0
 93
        5
 44
0.0
173
     0
291
     0
 45
0.0
1001
ACAD
1000
AcDbSavedByObjectVersion
1070
     0
  0
VISUALSTYLE
  5
146
102
{ACAD_XDICTIONARY
360
1D4C
102
}
102
{ACAD_REACTORS
330
29
102
}
330
29
100
AcDbVisualStyle
  2
Shaded with edges
 70
    26
 71
     2
 72
     2
 73
     1
 90
        2
 40
-0.6
 41
30.0
 62
     5
 63
     7
421
 16777215
 74
     1
 91
       10
 64
     7
 65
   257
 75
     2
175
     1
 42
1.0
 92
        8
 66
   257
 43
1.0
 76
     1
 77
     6
 78
     2
 67
     7
 79
     3
170
     0
171
     0
290
     0
174
     0
 93
        5
 44
0.0
173
     0
291
     0
 45
0.0
1001
ACAD
1000
AcDbSavedByObjectVersion
1070
     0
  0
VISUALSTYLE
  5
143
102
{ACAD_XDICTIONARY
360
1D46
102
}
102
{ACAD_REACTORS
330
29
102
}
330
29
100
AcDbVisualStyle
  2
Shades of Gray
 70
    23
 71
     2
 72
     2
 73
     3
 90
        0
 40
-0.6
 41
-30.0
 62
     5
 63
     7
421
 16777215
 74
     2
 91
        2
 64
     7
 65
     7
 75
     1
175
     1
 42
40.0
 92
        8
 66
     7
 43
1.0
 76
     1
 77
     6
 78
     2
 67
     7
 79
     3
170
     0
171
     0
290
     0
174
     0
 93
        1
 44
0.0
173
     0
291
     0
 45
0.0
1001
ACAD
1000
AcDbSavedByObjectVersion
1070
     0
  0
VISUALSTYLE
  5
144
102
{ACAD_XDICTIONARY
360
1D48
102
}
102
{ACAD_REACTORS
330
29
102
}
330
29
100
AcDbVisualStyle
  2
Sketchy
 70
    24
 71
     1
 72
     2
 73
     2
 90
        0
 40
-0.6
 41
-30.0
 62
     5
 63
     7
421
 16777215
 74
     2
 91
        2
 64
     7
 65
     7
 75
     1
175
     1
 42
40.0
 92
       11
 66
     7
 43
1.0
 76
     1
 77
     6
 78
     2
 67
     7
 79
     6
170
     0
171
     0
290
     0
174
     0
 93
        1
 44
0.0
173
     0
291
     0
 45
0.0
1001
ACAD
1000
AcDbSavedByObjectVersion
1070
     0
  0
VISUALSTYLE
  5
36
102
{ACAD_XDICTIONARY
360
1D34
102
}
102
{ACAD_REACTORS
330
29
102
}
330
29
100
AcDbVisualStyle
  2
Thicken
 70
    13
 71
     2
 72
     2
 73
     0
 90
        0
 40
-0.6
 41
-30.0
 62
     5
 63
     7
421
 16777215
 74
     1
 91
        4
 64
     7
 65
   257
 75
     1
175
     1
 42
1.0
 92
       12
 66
     7
 43
1.0
 76
     1
 77
     6
 78
     2
 67
     7
 79
     5
170
     0
171
     0
290
     0
174
     0
 93
        1
 44
0.0
173
     0
291
     1
 45
0.0
1001
ACAD
1000
AcDbSavedByObjectVersion
1070
     0
  0
VISUALSTYLE
  5
141
102
{ACAD_XDICTIONARY
360
1D42
102
}
102
{ACAD_REACTORS
330
29
102
}
330
29
100
AcDbVisualStyle
  2
Wireframe
 70
     5
 71
     0
 72
     2
 73
     0
 90
        0
 40
-0.6
 41
-30.0
 62
     5
 63
     7
421
 16777215
 74
     1
 91
        4
 64
     7
 65
   257
 75
     1
175
     1
 42
1.0
 92
        0
 66
   257
 43
1.0
 76
     1
 77
     6
 78
     2
 67
     7
 79
     3
170
     0
171
     0
290
     0
174
     0
 93
        1
 44
0.0
173
     0
291
     0
 45
0.0
1001
ACAD
1000
AcDbSavedByObjectVersion
1070
     0
  0
VISUALSTYLE
  5
145
102
{ACAD_XDICTIONARY
360
1D4A
102
}
102
{ACAD_REACTORS
330
29
102
}
330
29
100
AcDbVisualStyle
  2
X-Ray
 70
    25
 71
     2
 72
     2
 73
     1
 90
        1
 40
0.5
 41
-30.0
 62
     5
 63
     7
421
 16777215
 74
     1
 91
        0
 64
     7
 65
   257
 75
     1
175
     1
 42
1.0
 92
        8
 66
     7
 43
1.0
 76
     1
 77
     6
 78
     2
 67
     7
 79
     3
170
     0
171
     0
290
     0
174
     0
 93
       13
 44
0.0
173
     0
291
     0
 45
0.0
1001
ACAD
1000
AcDbSavedByObjectVersion
1070
     0
  0
DICTIONARYVAR
  5
91
102
{ACAD_REACTORS
330
8E
102
}
330
8E
100
DictionaryVariables
280
     0
  1
1:1
  0
DICTIONARYVAR
  5
90
102
{ACAD_REACTORS
330
8E
102
}
330
8E
100
DictionaryVariables
280
     0
  1
STANDARD
  0
DICTIONARYVAR
  5
8F
102
{ACAD_REACTORS
330
8E
102
}
330
8E
100
DictionaryVariables
280
     0
  1
STANDARD
  0
DICTIONARYVAR
  5
831
102
{ACAD_REACTORS
330
8E
102
}
330
8E
100
DictionaryVariables
280
     0
  1
15.000000
  0
DICTIONARYVAR
  5
1D19
102
{ACAD_REACTORS
330
8E
102
}
330
8E
100
DictionaryVariables
280
     0
  1
2
  0
DICTIONARY
  5
A7
330
6A
100
AcDbDictionary
280
     1
281
     1
  3
ADSK_XREC_LAYOUTTHUMBNAIL
360
A8
  0
DICTIONARY
  5
1A
330
19
100
AcDbDictionary
280
     1
281
     1
  3
BUMPTILE
360
1C
  3
DIFFUSETILE
360
1B
  3
OPACITYTILE
360
1F
  3
REFLECTIONTILE
360
1E
  3
REFRACTIONTILE
360
20
  3
SPECULARTILE
360
1D
  0
DICTIONARY
  5
12
330
11
100
AcDbDictionary
280
     1
281
     1
  3
BUMPTILE
360
14
  3
DIFFUSETILE
360
13
  3
OPACITYTILE
360
17
  3
REFLECTIONTILE
360
16
  3
REFRACTIONTILE
360
18
  3
SPECULARTILE
360
15
  0
DICTIONARY
  5
22
330
21
100
AcDbDictionary
280
     1
281
     1
  3
BUMPTILE
360
24
  3
DIFFUSETILE
360
23
  3
OPACITYTILE
360
27
  3
REFLECTIONTILE
360
26
  3
REFRACTIONTILE
360
28
  3
SPECULARTILE
360
25
  0
DICTIONARY
  5
ED
330
60
100
AcDbDictionary
280
     1
281
     1
  3
ACAD_ROUNDTRIP_2008_TABLESTYLE_CELLSTYLEMAP
360
1D1A
  0
DICTIONARY
  5
1D26
330
2F
100
AcDbDictionary
280
     1
281
     1
  3
ACAD_XREC_ROUNDTRIP
360
1D27
  0
DICTIONARY
  5
1D2A
330
31
100
AcDbDictionary
280
     1
281
     1
  3
ACAD_XREC_ROUNDTRIP
360
1D2B
  0
DICTIONARY
  5
1D28
330
30
100
AcDbDictionary
280
     1
281
     1
  3
ACAD_XREC_ROUNDTRIP
360
1D29
  0
DICTIONARY
  5
1D24
330
2E
100
AcDbDictionary
280
     1
281
     1
  3
ACAD_XREC_ROUNDTRIP
360
1D25
  0
DICTIONARY
  5
1D32
330
35
100
AcDbDictionary
280
     1
281
     1
  3
ACAD_XREC_ROUNDTRIP
360
1D33
  0
DICTIONARY
  5
1D3A
330
39
100
AcDbDictionary
280
     1
281
     1
  3
ACAD_XREC_ROUNDTRIP
360
1D3B
  0
DICTIONARY
  5
1D2C
330
32
100
AcDbDictionary
280
     1
281
     1
  3
ACAD_XREC_ROUNDTRIP
360
1D2D
  0
DICTIONARY
  5
1D30
330
34
100
AcDbDictionary
280
     1
281
     1
  3
ACAD_XREC_ROUNDTRIP
360
1D31
  0
DICTIONARY
  5
1D40
330
3C
100
AcDbDictionary
280
     1
281
     1
  3
ACAD_XREC_ROUNDTRIP
360
1D41
  0
DICTIONARY
  5
1D38
330
38
100
AcDbDictionary
280
     1
281
     1
  3
ACAD_XREC_ROUNDTRIP
360
1D39
  0
DICTIONARY
  5
1D1C
330
2A
100
AcDbDictionary
280
     1
281
     1
  3
ACAD_XREC_ROUNDTRIP
360
1D1D
  0
DICTIONARY
  5
1D1E
330
2B
100
AcDbDictionary
280
     1
281
     1
  3
ACAD_XREC_ROUNDTRIP
360
1D1F
  0
DICTIONARY
  5
1D20
330
2C
100
AcDbDictionary
280
     1
281
     1
  3
ACAD_XREC_ROUNDTRIP
360
1D21
  0
DICTIONARY
  5
1D22
330
2D
100
AcDbDictionary
280
     1
281
     1
  3
ACAD_XREC_ROUNDTRIP
360
1D23
  0
DICTIONARY
  5
1D44
330
142
100
AcDbDictionary
280
     1
281
     1
  3
ACAD_XREC_ROUNDTRIP
360
1D45
  0
DICTIONARY
  5
1D3C
330
3A
100
AcDbDictionary
280
     1
281
     1
  3
ACAD_XREC_ROUNDTRIP
360
1D3D
  0
DICTIONARY
  5
1D36
330
37
100
AcDbDictionary
280
     1
281
     1
  3
ACAD_XREC_ROUNDTRIP
360
1D37
  0
DICTIONARY
  5
1D3E
330
3B
100
AcDbDictionary
280
     1
281
     1
  3
ACAD_XREC_ROUNDTRIP
360
1D3F
  0
DICTIONARY
  5
1D2E
330
33
100
AcDbDictionary
280
     1
281
     1
  3
ACAD_XREC_ROUNDTRIP
360
1D2F
  0
DICTIONARY
  5
1D4E
330
147
100
AcDbDictionary
280
     1
281
     1
  3
ACAD_XREC_ROUNDTRIP
360
1D4F
  0
DICTIONARY
  5
1D4C
330
146
100
AcDbDictionary
280
     1
281
     1
  3
ACAD_XREC_ROUNDTRIP
360
1D4D
  0
DICTIONARY
  5
1D46
330
143
100
AcDbDictionary
280
     1
281
     1
  3
ACAD_XREC_ROUNDTRIP
360
1D47
  0
DICTIONARY
  5
1D48
330
144
100
AcDbDictionary
280
     1
281
     1
  3
ACAD_XREC_ROUNDTRIP
360
1D49
  0
DICTIONARY
  5
1D34
330
36
100
AcDbDictionary
280
     1
281
     1
  3
ACAD_XREC_ROUNDTRIP
360
1D35
  0
DICTIONARY
  5
1D42
330
141
100
AcDbDictionary
280
     1
281
     1
  3
ACAD_XREC_ROUNDTRIP
360
1D43
  0
DICTIONARY
  5
1D4A
330
145
100
AcDbDictionary
280
     1
281
     1
  3
ACAD_XREC_ROUNDTRIP
360
1D4B
  0
XRECORD
  5
A8
102
{ACAD_REACTORS
330
A7
102
}
330
A7
100
AcDbXrecord
280
     1
310
28000000000100006F0000000100080000000000006F0000000000000000000000010000000000003028210000000000C8C8C8000000000000000000000000000000000000000000000000000000000000000000330000006600000099000000CC000000FF00000000330000333300006633000099330000CC330000FF3300
310
0000660000336600006666000099660000CC660000FF66000000990000339900006699000099990000CC990000FF99000000CC000033CC000066CC000099CC0000CCCC0000FFCC000000FF000033FF000066FF000099FF0000CCFF0000FFFF000000003300330033006600330099003300CC003300FF003300003333003333
310
33006633330099333300CC333300FF33330000663300336633006666330099663300CC663300FF66330000993300339933006699330099993300CC993300FF99330000CC330033CC330066CC330099CC3300CCCC3300FFCC330000FF330033FF330066FF330099FF3300CCFF3300FFFF330000006600330066006600660099
310
006600CC006600FF00660000336600333366006633660099336600CC336600FF33660000666600336666006666660099666600CC666600FF66660000996600339966006699660099996600CC996600FF99660000CC660033CC660066CC660099CC6600CCCC6600FFCC660000FF660033FF660066FF660099FF6600CCFF6600
310
FFFF660000009900330099006600990099009900CC009900FF00990000339900333399006633990099339900CC339900FF33990000669900336699006666990099669900CC669900FF66990000999900339999006699990099999900CC999900FF99990000CC990033CC990066CC990099CC9900CCCC9900FFCC990000FF99
310
0033FF990066FF990099FF9900CCFF9900FFFF99000000CC003300CC006600CC009900CC00CC00CC00FF00CC000033CC003333CC006633CC009933CC00CC33CC00FF33CC000066CC003366CC006666CC009966CC00CC66CC00FF66CC000099CC003399CC006699CC009999CC00CC99CC00FF99CC0000CCCC0033CCCC0066CC
310
CC0099CCCC00CCCCCC00FFCCCC0000FFCC0033FFCC0066FFCC0099FFCC00CCFFCC00FFFFCC000000FF003300FF006600FF009900FF00CC00FF00FF00FF000033FF003333FF006633FF009933FF00CC33FF00FF33FF000066FF003366FF006666FF009966FF00CC66FF00FF66FF000099FF003399FF006699FF009999FF00CC
310
99FF00FF99FF0000CCFF0033CCFF0066CCFF0099CCFF00CCCCFF00FFCCFF0000FFFF0033FFFF0066FFFF0099FFFF00CCFFFF00FFFFFF00000000000D0D0D001A1A1A00282828003535350043434300505050005D5D5D006B6B6B00787878008686860093939300A1A1A100AEAEAE00BBBBBB00C9C9C900D6D6D600E4E4E400
310
F1F1F100FFFFFF000000000000000000000000000000000000000000000000000000000000000000000000000000000000000000000000000000000000000000000000000000000000000000000000000000000000000000000000000000000000000000000000000000000000000000000000000000000000000000000000
310
00000000000000000000000000000000000000000000000000000000000000000000000000000000000000000000000000000000000000000000000000000000000000000000000000000000000000000000000000000000000000000000000000000000000000000000000000000000000000000000000000000000000000
310
00000000000000000000000000000000000000000000000000000000000000000000000000000000000000000000000000000000000000000000000000000000000000000000000000000000000000000000000000000000000000000000000000000000000000000000000000000000000000000000000000000000000000
310
00000000000000000000000000000000000000000000000000000000000000000000000000000000000000000000000000000000000000000000000000000000000000000000000000000000000000000000000000000000000000000000000000000000000000000000000000000000000000000000000000000000000000
310
00000000000000000000000000000000000000000000000000000000000000000000000000000000000000000000000000000000000000000000000000000000000000000000000000000000000000000000000000000000000000000000000000000000000000000000000000000000000000000000000000000000000000
310
00000000000000000000000000000000000000000000000000000000000000000000000000000000000000000000000000000000000000000000000000000000000000000000000000000000000000000000000000000000000000000000000000000000000000000000000000000000000000000000000000000000000000
310
0000000000000000000000000000000000000000000000000000000000000000000000000000000000000000000000000000000000000000000000000000000000000000000000000000000000000000000000000000000000000000000000000000000000002D2D2D2D2D2D2D2D2D2D2D2D2D2D2D2D2D2D2D2D2D2D2D2D2D
310
2D2D2D2D2D2D2D2D2D2D2D2D2D2D2D2D2D2D2D2D2D2D2D2D2D2D2D2D2D2D2D2D2D2D2D2D2D2D2D2D2D2D2D2D2D2D2D2D2D2D2D2D2D2D2D2D2D2D2D2D2D2D2D2D2D2D2D2D2D2D2D2D2D2D2D2D2D2D2D2D2D2D2D2D2D2D2D2D2D2D2D2D2D2D2D2D2D2D2D2D2D2D2D2D2D2D2D2D2D2D2D2D2D2D2D000000000000000000000000
310
00000000000000000000000000000000000000000000000000000000000000000000000000000000000000000000000000000000000000000000000000000000000000000000000000000000000000000000000000000000000000000000000000000000000000002D00000000000000000000000000000000000000000000
310
00000000000000000000000000000000000000000000000000000000000000000000000000000000000000000000000000000000000000000000000000000000000000000000000000000000000000000000000000000000000000000000000000000000000000000000000000000000000000002D00000000000000000000
310
000000000000000000000000000000000000000000000000000000000000000000000000000000000000000000000000000000000000000000000000000000000000000000000000000000000000000000000000000000000000000000000000000000000000000000002D0000000000000000000000000000000000000000
310
000000000000000000000000000000000000000000000000000000000000000000000000000000000000000000000000000000000000000000000000000000000000000000000000000000000000000000000000000000000000000000000000000000000000000000000000000000000000000000002D0000000000000000
310
0000000000000000000000000000000000000000000000000000000000000000000000000000000000000000000000000000000000000000000000000000000000000000000000000000000000000000000000000000000000000000000000000000000000000000000000002D000000000000000000000000000000000000
310
0000000000000000000000000000000000000000000000000000000000000000000000000000000000000000000000000000000000000000000000000000000000000000000000000000000000000000000000000000000000000000000000000000000000000000000000000000000000000000000000002D000000000000
310
00000000000000000000000000000000000000000000000000000000000000000000000000000000000000000000000000000000000000000000000000000000000000000000000000000000000000000000000000000000000000000000000000000000000000000000000000002D00000000000000000000000000000000
310
00000000000000000000000000000000000000000000000000000000000000000000000000000000000000000000000000000000000000000000000000000000000000000000000000000000000000000000000000000000000000000000000000000000000000000000000000000000000000000000000000002D00000000
310
000000000000000000000000000000000000000000000000000000000000000000000000000000000000000000000000000000000000000000000000000000000000000000000000000000000000000000000000000000000000000000000000000000000000000000000000000000002D000000000F0F0F0F0F0F0F0F0F0F
310
0F0F0F0F0F0F0F0F0F0F0F0F0F0F0F0F0F0F0F0F0F0F0F0F0F0F0F0F0F0F0F0F0F0F0F0F0F0F0F0F0F0F0F0F0F0F0F0F0F0F0F0F0F0F0F0F0F0F0F0F0F0F0F0F0F0F0F0F0F0F0F0F0F0F0F0F0F0F0F0F0F0F0F0F0F0F0F0F0F0F0F0F0F0F0F0F0F0F0F0F0F0F0F0F0F0F0F0F0F0F0F0F0F0F0F0F0F0F0F0F0F0000002D0000
310
0000000000000000000000000000000000000000000000000000000000000000000000000000000000000000000000000000000000000000000000000000000000000000000000000000000000000000000000000000000000000000000000000000000000000000000000000000000000002D000000000F00000000000000
310
000000000000000000F50000000000000000000000000000000000F50000000000000000000000000000000000000000000000000000000000000000000000000000000000000000000000000000000000000F00000000000000000000000F0F0F0F0F0F0F0F0F0F0F0F0F0F0F000000000000000000000000000F0000002D
310
00000000000000000000000000000000000000000000000000000000000000000000000000000000000000000000000000000000000000000000000000000000000000000000000000000000000000000000000000000000000000000000000000000000000000000000000000000000000000002D000000000F0000000000
310
0000000000000000000000F5F5F5F5F5F5F5F5F5F5F5F5F5F5F5F5F5F5F50000000000000000000000000000000000000000000000000000000000000000000000000000000000000000000000000000000000000F0F0F0F0F0F0F0F0F0F0F0F0F0F0F0F0F0F0F0F0F0F0F0F0F0F0F0F0F0F0F0F0F0F0F0F0F0F0F0F0F0000
310
002D00000000000000000000000000000000000000000000000000000000000000000000000000000000000000000000000000000000000000000000000000000000000000000000000000000000000000000000000000000000000000000000000000000000000000000000000000000000000000002D000000000F000000
310
00000000000000000000000000F500000000000000F5F5F500000000000000F50000F50000000000000000000000000000000000000000000000000000000000000000000000000000000000000000000000000000000F000000000000000000000000000000000000000000000000000F0000000000000F0F0F0F0F00000F
310
0000002D00000000000000000000000000000000000000000000000000000000000000000000000000000000000000000000000000000000000000000000000000000000000000000000000000000000000000000000000000000000000000000000000000000000000000000000000000000000000000002D000000000F00
310
000000000000000000000000000000F500000000000000F5F5F500000000000000F50000F5F500000000000000000000000000000000000000000000000000000000000000000000000000000000000000000000000000000F000000000000000000000000000000000000000000000000000F0000000000000F0000000000
310
000F0000002D00000000000000000000000000000000000000000000000000000000000000000000000000000000000000000000000000000000000000000000000000000000000000000000000000000000000000000000000000000000000000000000000000000000000000000000000000000000000000002D00000000
310
0F00000000000000000000000000000000F5C3C3C3C3C3C3C3C3C3C3C3C3C3C3C3C3C3F5F5F5F5F5F5000000000000000000000000000000000000000000000000000000000000000000000000000000000000000000000000000F0F0F0F0F0F0F0F0F0F0F0F0F0F0F0F0F0F0F0F0F0F0F0F0F0F0F0F0F0F0F0F0F0F0F0F0F
310
0F0F0F0F0000002D00000000000000000000000000000000000000000000000000000000000000000000000000000000000000000000000000000000000000000000000000000000000000000000000000000000000000000000000000000000000000000000000000000000000000000000000000000000000000002D0000
310
00000F00000000000000000000000000000000F5F5F5F5F5F5F5F5F5F5F5F5F5F5F5F5F5F5F5F5F5F5F5F5000000000000000000000000000000000000000000000000000000000000000000000000000000000000000000000000000F00000000000F0F0F0F0F0F0F0F0F0F0F0F0F000000000000000F0F0F0F0F00000F0F
310
0F0F0F00000F0000002D00000000000000000000000000000000000000000000000000000000000000000000000000000000000000000000000000000000000000000000000000000000000000000000000000000000000000000000000000000000000000000000000000000000000000000000000000000000000000002D
310
000000000F00000000000000000000000000000000000000000000000000000000000000000000000000F5F5F5000000000000000000000000000000000000000000000000000000000000000000000000000000000000000000000000000F0F0F0F0F0F0F0F0F0F0F0F0F0F0F0F0F0F0F0F0F0F0F0F0F0F0F0F0F0F0F0F0F
310
0F0F0F0F0F0F0F0F0000002D00000000000000000000000000000000000000000000000000000000000000000000000000000000000000000000000000000000000000000000000000000000000000000000000000000000000000000000000000000000000000000000000000000000000000000000000000000000000000
310
002D000000000F00000000000000000000000000000000000000000000000000F5F5F50000F5F50000000000F5F500000000000000000000000000000000000000000000000000000000000000000000000000000000000000000000000000000F0F0F0F0F0F000F000000000F0F0F0F0F0F0F0F0F0F0F0F0F0F0F0F0F0F0F
310
0F0F0F0000000000000F0000002D0000000000000000000000000000000000000000000000000000000000000000000000000000000000000000000000000000000000000000000000000000000000000000000000000000000000000000000000000000000000000000000000000000000000000000000000000000000000
310
0000002D000000000F00000000000000000000000000000000000000000000000000F5F5F5F5F5F5F50000000000F50000000000000000000000000000000000000000000000000000000000000000000000000000000000000000000000000000000F0F0F0F0F0F000F000000000F0F0F0F0F0F0F0F0F0F0F0F0F0F0F0F0F
310
0F0F0F0F0F0000000000000F0000002D000000000000000000000000000000000000000000000000000000000000000000000000000000000000000000000000000000000000000000000000000000000000000000000000000000000000000000000000000000000000000000000000000000000000000000000000000000
310
00000000002D000000000F00000000000000000000000000000000000000000000000000F500F5F5F500000000000000000000000000000000000000000000000000000000000000000000000000000000000000000000000000000000000000000000000F0000000000000F00000000000000000000000000000000000000
310
000000000000000000000000000F0000002D00000000000000000000000000000000000000000000000000000000000000000000000000000000000000000000000000000000000000000000000000000000000000000000000000000000000000000000000000000000000000000000000000000000000000000000000000
310
000000000000002D000000000F00000000000000000000000000000000000000000000000000F50000000000000000000000000000000000000000000000000000000000000000000000000000000000000000000000000000000000000000000000000000000F0F0F0F0F0F0F0F0F0F0F0F0F0F0F0F0F0F0F0F0F0F0F0F0F
310
0F0F0F0F0F0F0F0F0F0F0F0F0F0F0F0F0000002D0000000000000000000000000000000000000000000000000000000000000000000000000000000000000000000000000000000000000000000000000000000000000000000000000000000000000000000000000000000000000000000000000000000000000000000000
310
0000000000000000002D000000000F00000000000000000000000000000000F5C3C3C3C3C3C3C3C3F5C3C3C3C3C3C3C3C3F5F5F5F5F500000000000000000000000000000000000000000000000000000000000000000000000000000000000000000000000000000000000000000000000000000000000000000000000000
310
00000000000000000000000000000000000F0000002D000000000000000000000000000000000000000000000000000000000000000000000000000000000000000000000000000000000000000000000000000000000000000000000000000000000000000000000000000000000000000000000000000000000000000000
310
00000000000000000000002D000000000F00000000000000000000000000000000F5C300000000C30000F50000C300000000C3F50000F5000000000000000000000000000000000000000000000000000000000000000000000000000000000000000000000000000000000000000000000000000000000000000000000000
310
000000000000000000000000000000000000000F0000002D00000000000000000000000000000000000000000000000000000000000000000000000000000000000000000000000000000000000000000000000000000000000000000000000000000000000000000000000000000000000000000000000000000000000000
310
000000000000000000000000002D000000000F0000000000000000F5F5F50000F5F500F5C300000000C30000F50000C300000000C3F50000F500000000000000000000000000000000000000000000000000000000000000000000000000000000000000000000000000000000000000000000000000000000000000000000
310
0000000000000000000000000000000000000000000F0000002D0000000000000000000000000000000000000000000000000000000000000000000000000000000000000000000000000000000000000000000000000000000000000000000000000000000000000000000000000000000000000000000000000000000000
310
0000000000000000000000000000002D000000000F0000000000000000F5F5F5F5F5F5F5F5F5F5F5F5F5F5F5F5F5F5F5F5F5F5F5F5F5F5F50000F50000000000000000000000000000000000000000000000000000000000000000000000000000000000000000000000000000000000000000000000000000000000000000
310
00000000000000000000000000000000000000000000000F0000002D000000000000000000000000000000000000000000000000000000000000000000000000000000000000000000000000000000000000000000000000000000000000000000000000000000000000000000000000000000000000000000000000000000
310
00000000000000000000000000000000002D000000000F00000000000000000000F5F5F5000000F5C300000000C30000F50000C300000000C3F50000F5000000000000000000000000000000000000000000000000000000000000000000000000000000000000000000000000000000000000000000000000000000000000
310
000000000000000000000000000000000000000000000000000F0000002D00000000000000000000000000000000000000000000000000000000000000000000000000000000000000000000000000000000000000000000000000000000000000000000000000000000000000000000000000000000000000000000000000
310
000000000000000000000000000000000000002D000000000F00000000000000000000000000000000F5C300000000C30000F50000C300000000C3F50000F500000000000000000000000000000000000000000000000000000000000000000000000000000000000000000000000000000000000000000000000000000000
310
0000000000000000000000000000000000000000000000000000000F0000002D0000000000000000000000000000000000000000000000000000000000000000000000000000000000000000000000000000000000000000000000000000000000000000000000000000000000000000000000000000000000000000000000
310
0000000000000000000000000000000000000000002D000000000F00000000000000000000000000000000F5C3C3C3C3C3C3C3C3F5C3C3C3C3C3C3C3C3F50000F50000000000000000000000000000000000000000000000000000000000000000000000000000000000000000000000000000000000000000000000000000
310
0000000000000000000000000000F5F5000000F5F500000000000000000F0000002D000000000000000000000000000000000000000000000000000000000000000000000000000000000000000000000000000000000000000000000000000000000000000000000000000000000000000000000000000000000000000000
310
00000000000000000000000000000000000000000000002D000000000F00000000000000000000000000000000F5C300F5F500C30000F50000C300F5F500C3F5F5F5F50000000000000000000000000000000000000000000000000000000000000000000000000000000000000000000000F5F5F50000F5F5000000000000
310
0000000000000000000000000000F5F5F5F5F5F5F5F5F500000000000000000F0000002D00000000000000000000000000000000000000000000000000000000000000000000000000000000000000000000000000000000000000000000000000000000000000000000000000000000000000000000000000000000000000
310
000000000000000000000000000000000000000000000000002D000000000F00000000000000000000000000000000F5C300F5F500C30000F50000C300F5F500C3F5F5F5F50000000000000000000000000000000000000000000000000000000000000000000000000000000000000000000000F5F5F5F5F5F5F5F5000000
310
0000000000000000000000F5F5F5F5F50000F500F5F5F5F50000000000000000000F0000002D0000000000000000000000000000000000000000000000000000000000000000000000000000000000000000000000000000000000000000000000000000000000000000000000000000000000000000000000000000000000
310
0000000000000000000000000000000000000000000000000000002D000000000F00000000000000000000000000000000F5C300F5F500C30000F50000C300F5F500C3F5F5F5F500000000000000000000000000000000000000000000000000000000000000000000000000000000000000000000000000F5F5F50000F5F5
310
F5F5F5F5F5F5F5F5F5F5F5F5F5F5F5F5F5F5F5F5F5F5F50000000000000000000000000F0000002D000000000000000000000000000000000000000000000000000000000000000000000000000000000000000000000000000000000000000000000000000000000000000000000000000000000000000000000000000000
310
00000000000000000000000000000000000000000000000000000000002D000000000F00000000000000000000000000000000F5C300F5F500C30000F50000C300F5F500C3F5F5F5F5000000000000000000000000000000000000000000000000000000000000000000000000000000000000000000000000000000000000
310
00F5F5F50000F5F5F5F5F500000000000000F5C3F5F5F5F5000000000000000000000000000F0000002D00000000000000000000000000000000000000000000000000000000000000000000000000000000000000000000000000000000000000000000000000000000000000000000000000000000000000000000000000
310
000000000000000000000000000000000000000000000000000000000000002D000000000F00000000000000000000000000000000F5C3C3C3C3C3C3C3C3F5C3C3C3C3C3C3C3C3F50000F500000000000000000000000000000000000000000000000000000000000000000000000000000000000000000000000000000000
310
000000F5F5F5F5F5000000000000000000000000F5F5F5F5F5F5000000000000000000000000000F0000002D0000000000000000000000000000000000000000000000000000000000000000000000000000000000000000000000000000000000000000000000000000000000000000000000000000000000000000000000
310
0000000000000000000000000000000000000000000000000000000000000000002D000000000F00000000000000000000000000000000F5C300000000C30000F50000C300000000C3F50000F50000000000000000000000000000000000000000000000000000000000000000000000000000000000000000000000000000
310
0000000000F5C3F50000000000000000000000000000F5C3F5F5F5F5000000000000000000000000000F0000002D000000000000000000000000000000000000000000000000000000000000000000000000000000000000000000000000000000000000000000000000000000000000000000000000000000000000000000
310
00000000000000000000000000000000000000000000000000000000000000000000002D000000000F00000000000000000000000000000000F5C300000000C30000F50000C300000000C3F50000F5000000000000000000000000000000000000000000000000000000000000000000000000000000000000000000000000
310
00000000000000F5F5F50000000000000000000000000000F5C3F5F5F5F5000000000000000000000000000F0000002D00000000000000000000000000000000000000000000000000000000000000000000000000000000000000000000000000000000000000000000000000000000000000000000000000000000000000
310
000000000000000000000000000000000000000000000000000000000000000000000000002D000000000F00000000000000000000000000000000F5C300000000C30000F50000C300000000C3F50000F500000000000000000000000000000000000000000000000000000000000000000000000000000000000000000000
310
000000000000000000F5F5F5F5F5F5F5F5F5F5F5F5F5F5F5F5F5F5F5F5F5F5F5F50000000000000000000000000F0000002D0000000000000000000000000000000000000000000000000000000000000000000000000000000000000000000000000000000000000000000000000000000000000000000000000000000000
310
0000000000000000000000000000000000000000000000000000000000000000000000000000002D000000000F00000000000000000000000000000000F5C300000000C30000F50000C300000000C3F50000F50000000000000000000000000000000000000000000000000000000000000000000000000000000000000000
310
00000000000000000000000000000000000000000000000000000000000000000000000000000000000000000000000F0000002D000000000000000000000000000000000000000000000000000000000000000000000000000000000000000000000000000000000000000000000000000000000000000000000000000000
310
00000000000000000000000000000000000000000000000000000000000000000000000000000000002D000000000F00000000000000000000000000000000F5C3C3C3C3C3C3C3C3F5C3C3C3C3C3C3C3C3F50000F5000000000000000000000000000000000000000000000000000000000000000000000000000000000000
310
0000000000000000000000000000000000F5F5F5F5F5F5F5F5F5F5000000000000000000000000000000000000000000000F0000002D00000000000000000000000000000000000000000000000000000000000000000000000000000000000000000000000000000000000000000000000000000000000000000000000000
310
000000000000000000000000000000000000000000000000000000000000000000000000000000000000002D000000000F00000000000000000000000000000000F5C3F5F5F5F5C3F5F5C3F5F5C3F5F5F5F5C3F5F5F5F5F5000000000000000000000000000000000000000000000000000000000000000000000000000000
310
0000000000000000000000000000000000000000000000000000000000000000000000000000000000000000000000000000000F0000002D0000000000000000000000000000000000000000000000000000000000000000000000000000000000000000000000000000000000000000000000000000000000000000000000
310
0000000000000000000000000000000000000000000000000000000000000000000000000000000000000000002D000000000F00000000000000000000000000000000F50000000000000000000000000000000000F50000000000000000000000000000000000000000000000000000000000000000000000000000000000
310
00000000000000000000000000000000000000000000000000000000000000000000000000000000000000000000000000000000000F0000002D000000000000000000000000000000000000000000000000000000000000000000000000000000000000000000000000000000000000000000000000000000000000000000
310
00000000000000000000000000000000000000000000000000000000000000000000000000000000000000000000002D000000000F00000000000000000000000000000000F5F5000000000000000000000000000000F5F5000000000000000000000000000000000000000000000000000000000000000000000000000000
310
000000000000000000000000000000000000000000000000000000000000000000000000000000000000000000000000000000000000000F0000002D00000000000000000000000000000000000000000000000000000000000000000000000000000000000000000000000000000000000000000000000000000000000000
310
000000000000000000000000000000000000000000000000000000000000000000000000000000000000000000000000002D000000000F00000000000000000000000000000000F5F5F5F5F5F5F5F5F5F5F5F5F5F5F5F5F5F5F500000000000000000000000000000000000000000000000000000000000000000000000000
310
000000000000000000000000000000000000000000000000000000000000000000000000000000000000F5F5000000F5F500000000000000000F0000002D0000000000000000000000000000000000000000000000000000000000000000000000000000000000000000000000000000000000000000000000000000000000
310
0000000000000000000000000000000000000000000000000000000000000000000000000000000000000000000000000000002D000000000F000000000000000000000000000000000000000000000000F500F500000000000000000000000000000000000000000000000000000000000000000000000000000000000000
310
000000000000000000000000000000F5F5F500F5F5F50000000000000000000000000000000000000000F5F5F5F5F5F5F5F5F500000000000000000F0000002D000000000000000000000000000000000000000000000000000000000000000000000000000000000000000000000000000000000000000000000000000000
310
00000000000000000000000000000000000000000000000000000000000000000000000000000000000000000000000000000000002D000000000F000000000000000000000000000000000000000000000000F5F5F50000000000000000000000000000000000000000000000000000000000000000000000000000000000
310
0000000000000000000000000000000000F5F5F5F5F5F5F5000000000000000000000000000000F5F5F5F5F50000F500F5F5F5F50000000000000000000F0000002D00000000000000000000000000000000000000000000000000000000000000000000000000000000000000000000000000000000000000000000000000
310
000000000000000000000000000000000000000000000000000000000000000000000000000000000000000000000000000000000000002D000000000F000000000000000000000000000000000000000000000000000000000000000000000000000000000000000000000000000000000000000000000000000000000000
310
000000000000000000000000000000000000000000F5F5F500F5F5F5F5F5F5F5F5F5F5F5F5F5F5F5F5F5F5F5F5F5F5F5F5F5F50000000000000000000000000F0000002D0000000000000000000000000000000000000000000000000000000000000000000000000000000000000000000000000000000000000000000000
310
0000000000000000000000000000000000000000000000000000000000000000000000000000000000000000000000000000000000000000002D000000000F0000000000000000000000000000000000000000F5F5F5F5F5F5F5F5F5F500000000000000000000000000000000000000000000000000000000000000000000
310
00000000000000000000000000F5F5F5F50000000000000000000000F5F5F5F50000F5F5F5F5F500000000000000F5C3F5F500F5000000000000000000000000000F0000002D000000000000000000000000000000000000000000000000000000000000000000000000000000000000000000000000000000000000000000
310
00000000000000000000000000000000000000000000000000000000000000000000000000000000000000000000000000000000000000000000002D000000000F0000000000000000000000000000000000000000000000000000000000000000000000000000000000000000000000000000000000000000000000000000
310
000000000000000000000000000000F5F5F5F50000000000000000000000F5F5C3F5F5F5000000000000000000000000F5F5F50000F5000000000000000000000000000F0000002D00000000000000000000000000000000000000000000000000000000000000000000000000000000000000000000000000000000000000
310
000000000000000000000000000000000000000000000000000000000000000000000000000000000000000000000000000000000000000000000000002D000000000F0000000000000000000000000000000000000000000000000000000000000000000000000000000000000000000000000000000000F5F5F5F5F5F5F5
310
F5F5F5F5F5F5F5F5F5F5F5F5F5F5F5F5F5F5F5F5F50000000000000000000000F5F5F5F50000000000000000000000000000F5F5F500F5F5000000000000000000000000000F0000002D0000000000000000000000000000000000000000000000000000000000000000000000000000000000000000000000000000000000
310
0000000000000000000000000000000000000000000000000000000000000000000000000000000000000000000000000000000000000000000000000000002D000000000F0000000000000000000000000000000000000000000000F5F5F5F50000000000000000000000000000000000000000000000000000C3C3C3F500
310
0000000000000000000000000000C3C3C3F500F50000F5F5F5000000000000000000F5F5C3F50000000000000000000000000000F5C3F5F5F5F5000000000000000000000000000F0000002D000000000000000000000000000000000000000000000000000000000000000000000000000000000000000000000000000000
310
00000000000000000000000000000000000000000000000000000000000000000000000000000000000000000000000000000000000000000000000000000000002D000000000F0000000000000000000000000000000000000000000000F5F5F5F50000000000000000000000000000000000000000000000000000C3C3F5
310
F5F5F5F5F5F5F5F5F5F5F5F5F5F5F5F5F5C3C3F5F5F5F500F5F5F500000000000000000000F5F5F50000000000000000000000000000F5C3F5F5F5F5000000000000000000000000000F0000002D00000000000000000000000000000000000000000000000000000000000000000000000000000000000000000000000000
310
000000000000000000000000000000000000000000000000000000000000000000000000000000000000000000000000000000000000000000000000000000000000002D000000000F0000000000000000000000000000000000000000000000000000000000000000000000000000000000000000000000000000000000C3
310
C3F5F5F5F5F5F5F5F5F5F5F5F5F5F5F5F5F5F5C3C3F5F5F5F5F5F5F5F500000000000000000000F5C3F50000000000000000000000000000F5C3F5F5F5F5000000000000000000000000000F0000002D0000000000000000000000000000000000000000000000000000000000000000000000000000000000000000000000
310
0000000000000000000000000000000000000000000000000000000000000000000000000000000000000000000000000000000000000000000000000000000000000000002D000000000F00000000000000000000000000000000000000000000000000000000000000000000000000000000000000000000000000000000
310
00F500F5F5000000000000000000000000000000F5F500F500F5F5F5F5000000000000000000000000F5F5F50000000000000000000000000000F5C3F50000F5000000000000000000000000000F0000002D000000000000000000000000000000000000000000000000000000000000000000000000000000000000000000
310
00000000000000000000000000000000000000000000000000000000000000000000000000000000000000000000000000000000000000000000000000000000000000000000002D000000000F0000000000000000000000000000000000000000000000000000000000000000000000000000000000000000000000000000
310
F5F5F5F5F5F5F5F5F500000000000000000000F5F5F5F5F5F5F5F5F5F5F5F5000000000000000000000000F5F5F50000000000000000000000000000F5C3F50000F5000000000000000000000000000F0000002D00000000000000000000000000000000000000000000000000000000000000000000000000000000000000
310
000000000000000000000000000000000000000000000000000000000000000000000000000000000000000000000000000000000000000000000000000000000000000000000000002D000000000F00000000000000000000000000000000F5F5F5F5F5F5F5F5F5F5F5F5F5F5F5F5F5F5F500000000000000000000000000
310
0000000000F5F5F500F5F5F5000000000000000000F5F500F5F5F50000F5F5F5F5000000000000000000000000F5C3F5F5F5F5F5F5F5F5F5F5F5F5F5F5F5F5C3F5F5F5F5F50000000000000000000000000F0000002D0000000000000000000000000000000000000000000000000000000000000000000000000000000000
310
0000000000000000000000000000000000000000000000000000000000000000000000000000000000000000000000000000000000000000000000000000000000000000000000000000002D000000000F00000000000000000000000000000000F5F5000000000000F5F5F5000000000000F5F50000F50000000000000000
310
00000000000000F5F5F50000F5F5000000000000000000F5F500F5F5F50000000000000000000000000000000000000000000000000000000000000000000000000000000000000000000000000000000000000F0000002D000000000000000000000000000000000000000000000000000000000000000000000000000000
310
00000000000000000000000000000000000000000000000000000000000000000000000000000000000000000000000000000000000000000000000000000000000000000000000000000000002D000000000F00000000000000000000000000000000F500000000000000F5F5F500000000000000F50000F5F50000000000
310
0000000000000000000000000000000000000000000000000000000000000000000000000000000000000000000000000000000000F5F5F5F5F5F5F5F5F5F5000000000000000000000000000000000000000000000F0000002D00000000000000000000000000000000000000000000000000000000000000000000000000
310
000000000000000000000000000000000000000000000000000000000000000000000000000000000000000000000000000000000000000000000000000000000000000000000000000000000000002D000000000F00000000000000000000000000000000F5F5F5F5F5F5F5F5F5F5F5F5F5F5F5F5F5F5F5F5F5F5F5F50000
310
00000000000000000000000000000000000000000000000000000000000000000000000000000000000000000000000000000000000000F5F5F5F5F5F5F5F5F5F5000000000000000000000000000000000000000000000F0000002D0000000000000000000000000000000000000000000000000000000000000000000000
310
0000000000000000000000000000000000000000000000000000000000000000000000000000000000000000000000000000000000000000000000000000000000000000000000000000000000000000002D000000000F00000000000000000000000000000000F5C3C3C3C3C3C3C3C3C3C3C3C3C3C3C3C3C3F50000F5F5F5
310
00000000000000000000000000000000000000000000000000000000000000000000000000000000000000000000000000000000000000000000000000000000000000000000000000000000000000000000000000000000000F0000002D000000000000000000000000000000000000000000000000000000000000000000
310
00000000000000000000000000000000000000000000000000000000000000000000000000000000000000000000000000000000000000000000000000000000000000000000000000000000000000000000002D000000000F00000000000000000000000000000000F5F5F5F5F5F5F5F5F5F5F5F5F5F5F5F5F5F5F5F5F5F5
310
F5F5000000000000000000000000000000000000000000000000000000000000F5F50000F5F500000000000000000000000000000000000000000000000000000000000000000000000000000000000000000000000000000000000F0000002D00000000000000000000000000000000000000000000000000000000000000
310
000000000000000000000000000000000000000000000000000000000000000000000000000000000000000000000000000000000000000000000000000000000000000000000000000000000000000000000000002D000000000F000000000000000000000000000000000000000000000000000000000000000000000000
310
00F5F50000000000000000000000000000000000000000000000000000000000F5F5F5F5F5F5F5F50000000000000000000000000000000000000000000000000000000000000000000000000000F5F5000000000000000000000000000F0000002D0000000000000000000000000000000000000000000000000000000000
310
0000000000000000000000000000000000000000000000000000000000000000000000000000000000000000000000000000000000000000000000000000000000000000000000000000000000000000000000000000002D000000000F00000000000000000000000000000000000000000000000000F5F5F50000F5F50000
310
000000F500000000000000F5F5F500F5F5F500000000000000000000000000F5F5F500F50000F5F5F5000000000000000000000000000000000000000000000000000000000000000000000000000000F5F5000000000000000000000000000F0000002D000000000000000000000000000000000000000000000000000000
310
00000000000000000000000000000000000000000000000000000000000000000000000000000000000000000000000000000000000000000000000000000000000000000000000000000000000000000000000000000000002D000000000F00000000000000000000000000000000000000000000000000F5F5F5F5F5F5F5
310
00000000000000000000000000F5F5F5F5F5F5F500F5F5F5F5F5F5F5F5F5F5F5F5F5F5F5F5F5F5F5F5F5F5F5F5F5F50000000000000000000000000000000000000000000000000000000000000000000000F5F5F50000000000000000000000000F0000002D00000000000000000000000000000000000000000000000000
310
000000000000000000000000000000000000000000000000000000000000000000000000000000000000000000000000000000000000000000000000000000000000000000000000000000000000000000000000000000000000002D000000000F00000000000000000000000000000000000000000000000000F500F500F5
310
0000000000000000000000000000000000F5F5F500F5F5C3C3C3C3C3C3C3F5F5F5C3C3C3C3F5C3C3C3C3C3C3C3F500F5F50000000000000000000000000000F5F5F5F5F5F5F5F5F5F5F5F5F5F5F5F5F5F5F5F5F5F5F5F5F5F5F50000000000000000000F0000002D0000000000000000000000000000000000000000000000
310
0000000000000000000000000000000000000000000000000000000000000000000000000000000000000000000000000000000000000000000000000000000000000000000000000000000000000000000000000000000000000000002D000000000F00000000000000000000000000000000F5F5F5F5F5F5F5F5F5F5F5F5
310
F5F5F5F5F5F5F5F5F5F5F500000000000000000000000000F5F5C3F5F5F5F5F5C3F5F5F5F5F5F5C3F5F5F5F5F5F5C3F50000F50000000000000000000000000000F5C3C3C3C3C3C3C3C3C3C3C3C3C3C3C3C3C3C3F50000F50000F5000000000000000000000F0000002D000000000000000000000000000000000000000000
310
00000000000000000000000000000000000000000000000000000000000000000000000000000000000000000000000000000000000000000000000000000000000000000000000000000000000000000000000000000000000000000000002D000000000F00000000000000000000000000000000F5C3C3C3C3C3C3C3C3F5
310
C3C3C3C3C3C3C3C3F50000F50000000000000000000000000000F5F5F5F5C3C3C3C3C3C3C3C3C3C3C3C3C3C3C3C3C3F5C3F50000F50000000000000000000000000000F5C3F5F5F5F5F5F5F5F5F5F5F5F5F5F5F5F5C3F5F5F5F5F500F5000000000000000000000F0000002D00000000000000000000000000000000000000
310
000000000000000000000000000000000000000000000000000000000000000000000000000000000000000000000000000000000000000000000000000000000000000000000000000000000000000000000000000000000000000000000000002D000000000F00000000000000000000000000000000F5C300000000C300
310
00F50000C300000000C3F50000F50000000000000000000000000000F5F5C3F5F50000000000000000000000F5F50000C3F5C3F50000F50000000000000000000000000000F5C3F50000000000000000000000000000F5C3F50000F5F500F5000000000000000000000F0000002D0000000000000000000000000000000000
310
0000000000000000000000000000000000000000000000000000000000000000000000000000000000000000000000000000000000000000000000000000000000000000000000000000000000000000000000000000000000000000000000000000002D000000000F0000000000000000F5F5F50000F5F500F5C3000000F5
310
C30000F500F5C3000000F5C3F50000F5000000000000000000000000000000F5F5C3F5000000000000000000000000F50000C3F5C3F50000F50000000000000000000000000000F5C3F50000000000000000000000000000F5C3F50000F50000F5000000000000000000000F0000002D000000000000000000000000000000
310
00000000000000000000000000000000000000000000000000000000000000000000000000000000000000000000000000000000000000000000000000000000000000000000000000000000000000000000000000000000000000000000000000000000002D000000000F0000000000000000F5F5F5F5F5F5F5F5F5F5F5F5
310
F5F5F5F5F5F5F5F5F5F5F5F5F5F5F50000F5000000000000000000000000000000F5C3C3F5F50000000000000000000000F5F500C3F5C3F50000F50000000000000000000000000000F5C3F50000000000000000000000000000F5C3F50000F50000F5000000000000000000000F0000002D00000000000000000000000000
310
000000000000000000000000000000000000000000000000000000000000000000000000000000000000000000000000000000000000000000000000000000000000000000000000000000000000000000000000000000000000000000000000000000000000002D000000000F00000000000000000000F500F5000000F5C3
310
00000000C30000F50000C300000000C3F50000F5000000000000000000000000000000C3C3C3F5F5F5F5F5F5F5F5F5F5F5F5F5F5F5F5C3F5C3F50000F50000000000000000000000000000F5C3F50000000000000000000000000000F5C3F50000F50000F5000000000000000000000F0000002D0000000000000000000000
310
0000000000000000000000000000000000000000000000000000000000000000000000000000000000000000000000000000000000000000000000000000000000000000000000000000000000000000000000000000000000000000000000000000000000000000002D000000000F00000000000000000000000000000000
310
F5C3C3C3C3C3C3C3C3F5C3C3C3C3C3C3C3C3F50000F5000000000000000000000000000000C3C3C3F5000000000000F5F5F5F50000F50000C3C3C3F50000F50000000000000000000000000000F5C3F50000000000000000000000000000F5C3F50000F50000F5000000000000000000000F0000002D000000000000000000
310
00000000000000000000000000000000000000000000000000000000000000000000000000000000000000000000000000000000000000000000000000000000000000000000000000000000000000000000000000000000000000000000000000000000000000000000002D000000000F0000000000000000000000000000
310
0000F5C300F5F500C30000F50000C300F5F500C3F5F5F5F5000000000000000000000000000000C3C3C3F5000000000000000000000000F50000C3F5C3F50000F50000000000000000000000000000F5C3F50000000000000000000000000000F5C3F50000F500F5F5000000000000000000000F0000002D00000000000000
310
000000000000000000000000000000000000000000000000000000000000000000000000000000000000000000000000000000000000000000000000000000000000000000000000000000000000000000000000000000000000000000000000000000000000000000000000002D000000000F000000000000000000000000
310
00000000F5C3F5F5F500C30000F50000C300F5F5F5C3F5F5F5F5000000000000000000000000000000C3C3C3F500000000000000000000F5F5F50000C3F5C3F5F5F5F50000000000000000000000000000F5C3F50000000000000000000000000000F5C3F5F5F5F5F5F5F5000000000000000000000F0000002D0000000000
310
0000000000000000000000000000000000000000000000000000000000000000000000000000000000000000000000000000000000000000000000000000000000000000000000000000000000000000000000000000000000000000000000000000000000000000000000000000002D000000000F00000000000000000000
310
000000000000F5C3F5F5F500C30000F50000C300F5F5F5C3F5F5F5F5000000000000000000000000000000C3C3C3F500000000000000000000F5F5F50000C3F5C3F5F5F5F50000000000000000000000000000F5C3F50000000000000000000000000000F5C3F5F5F5F5F5F5F5000000000000000000000F0000002D000000
310
00000000000000000000000000000000000000000000000000000000000000000000000000000000000000000000000000000000000000000000000000000000000000000000000000000000000000000000000000000000000000000000000000000000000000000000000000000000002D000000000F0000000000000000
310
0000000000000000F5C300F5F500C30000F50000C300F5F500C3F5F5F5F5000000000000000000000000000000C3C3C3F500000000000000000000F5F5F50000C3F5C3F5F5F5F50000000000000000000000000000F5C3F50000000000000000000000000000F5C3F5F5F5F5F5F5F5000000000000000000000F0000002D00
310
000000000000000000000000000000000000000000000000000000000000000000000000000000000000000000000000000000000000000000000000000000000000000000000000000000000000000000000000000000000000000000000000000000000000000000000000000000000000002D000000000F000000000000
310
00000000000000000000F5C300F5F500C30000F50000C300F5F500C3F50000F5000000000000000000000000000000C3C3C3F500000000000000000000F5F5F50000C3F5C3F50000F50000000000000000000000000000F5C3F50000000000000000000000000000F5C3F50000F50000F5000000000000000000000F000000
310
2D00000000000000000000000000000000000000000000000000000000000000000000000000000000000000000000000000000000000000000000000000000000000000000000000000000000000000000000000000000000000000000000000000000000000000000000000000000000000000002D000000000F00000000
310
000000000000000000000000F5C3C3C3C3C3C3C3C3F5C3C3C3C3C3C3C3C3F50000F5000000000000000000000000000000C3C3C3F5000000000000000000000000F50000C3C3C3F50000F50000000000000000000000000000F5C3F50000000000000000000000000000F5C3F50000F50000F5000000000000000000000F00
310
00002D00000000000000000000000000000000000000000000000000000000000000000000000000000000000000000000000000000000000000000000000000000000000000000000000000000000000000000000000000000000000000000000000000000000000000000000000000000000000000002D000000000F0000
310
0000000000000000000000000000F5C300000000C30000F50000C300000000C3F50000F5000000000000000000000000000000C3C3C3F5000000000000000000000000F50000C3F5C3F50000F50000000000000000000000000000F5C3F50000000000000000000000000000F5C3F50000F50000F500000000000000000000
310
0F0000002D00000000000000000000000000000000000000000000000000000000000000000000000000000000000000000000000000000000000000000000000000000000000000000000000000000000000000000000000000000000000000000000000000000000000000000000000000000000000000002D000000000F
310
00000000000000000000000000000000F5C300000000C30000F50000C300000000C3F50000F5000000000000000000000000000000C3C3C3F5000000000000000000000000F50000C3F5C3F50000F50000000000000000000000000000F5C3F50000000000000000000000000000F5C3F50000F50000F50000000000000000
310
00000F0000002D00000000000000000000000000000000000000000000000000000000000000000000000000000000000000000000000000000000000000000000000000000000000000000000000000000000000000000000000000000000000000000000000000000000000000000000000000000000000000002D000000
310
000F00000000000000000000000000000000F5C300000000C30000F50000C300000000C3F50000F5000000000000000000000000000000C3C3C3F50000000000000000000000F5F50000C3F5C3F50000F50000000000000000000000000000F5C3F50000000000000000000000000000F5C3F50000F5F500F5000000000000
310
000000000F0000002D00000000000000000000000000000000000000000000000000000000000000000000000000000000000000000000000000000000000000000000000000000000000000000000000000000000000000000000000000000000000000000000000000000000000000000000000000000000000000002D00
310
0000000F00000000000000000000000000000000F5C300000000C30000F50000C300000000C3F50000F5000000000000000000000000000000C3C3C3F5000000000000000000000000F50000C3F5C3F50000F50000000000000000000000000000F5C3F50000000000000000000000000000F5C3F50000F5F500F500000000
310
0000000000000F0000002D0000000000000000000000000000000000000000000000000000000000000000000000000000000000000000000000000000000000000000000000000000000000000000000000000000000000000000000000000000000000000000000000000000000000000000000000000000000000000000
310
2D000000000F00000000000000000000000000000000F5C3C3C3C3C3C3C3C3F5C3C3C3C3C3C3C3C3F50000F5000000000000000000000000000000C3C3C3C3C3C3C3C3C3C3C3C3C3C3C3C3C3C3C3C3F5C3F50000F50000000000000000000000000000F5C3F5F5F5F5F5C3F5F5F5F5C3F5F5F5F5F5C3F5F5F5F5F500F50000
310
00000000000000000F0000002D000000000000000000000000000000000000000000000000000000000000000000000000000000000000000000000000000000000000000000000000000000000000000000000000000000000000000000000000000000000000000000000000000000000000000000000000000000000000
310
00002D000000000F00000000000000000000000000000000F5F5F5F5F5F5F5F5F5F5F5F5F5F5F5F5F5F5F5F5F5F5F50000000000000000000000000000C3C3F5F5F5F5F5C3F5F5F5F5F5F5C3F5F5F5F5F5F5C3F50000F50000000000000000000000000000F5C3C3C3C3C3C3C3C3C3C3C3C3C3C3C3C3C3C3F5F5F5F5F5F5F5
310
F50000000000000000000F0000002D00000000000000000000000000000000000000000000000000000000000000000000000000000000000000000000000000000000000000000000000000000000000000000000000000000000000000000000000000000000000000000000000000000000000000000000000000000000
310
000000002D000000000F00000000000000000000000000000000F50000000000000000000000000000000000F5000000000000000000000000000000000000C3C3C3C3C3C3C3C3C3C3C3C3C3C3C3C3C3C3C3C3C3C3F500F5F50000000000000000000000000000F500F50000000000000000000000000000F500F50000F5F5
310
0000000000000000000000000F0000002D0000000000000000000000000000000000000000000000000000000000000000000000000000000000000000000000000000000000000000000000000000000000000000000000000000000000000000000000000000000000000000000000000000000000000000000000000000
310
0000000000002D000000000F00000000000000000000000000000000F5F5F5F5F5F5F5F5F5F5F5F5F5F5F5F5F5F5F5000000000000000000000000000000000000F5F5F5F5F5F5F5F5F5F5F5F5F5F5F5F5F5F5F5F5F5F5F5F5F5F50000000000000000000000000000F500F50000000000000000000000000000F500F500F5
310
F5F50000000000000000000000000F0000002D000000000000000000000000000000000000000000000000000000000000000000000000000000000000000000000000000000000000000000000000000000000000000000000000000000000000000000000000000000000000000000000000000000000000000000000000
310
00000000000000002D000000000F00000000000000000000000000000000F500000000000000F5F5F500000000000000F5000000000000000000000000000000000000F5F5F5F5F5F5F5F5F5F5F5F5F5F5F5F5F5F5F5F5F5F5F50000000000000000000000000000000000F500F50000000000000000000000000000F500F5
310
00F5F5000000000000000000000000000F0000002D00000000000000000000000000000000000000000000000000000000000000000000000000000000000000000000000000000000000000000000000000000000000000000000000000000000000000000000000000000000000000000000000000000000000000000000
310
000000000000000000002D000000000F000000000000000000000000000000000000000000000000F5F5F50000000000000000000000000000000000000000000000000000F5F50000000000000000F5F5F500000000000000F5F5F500000000000000000000000000000000F5F500F5F5000000000000000000000000F5F5
310
00F5F50000000000000000000000000000000F0000002D0000000000000000000000000000000000000000000000000000000000000000000000000000000000000000000000000000000000000000000000000000000000000000000000000000000000000000000000000000000000000000000000000000000000000000
310
0000000000000000000000002D000000000F0000000000000000000000000000000000000000000000000000000000000000000000000000000000000000000000000000000000000000000000000000F5F5F5F5000000000000000000000000000000000000000000000000F5F5F5F5F5F5F5F5F5F5F5F5F5F5F5F5F5F5F5
310
F5F5F5F5F5F5F5000000000000000000000000000F0000002D000000000000000000000000000000000000000000000000000000000000000000000000000000000000000000000000000000000000000000000000000000000000000000000000000000000000000000000000000000000000000000000000000000000000
310
00000000000000000000000000002D000000000F000000000000000000000000000000000000000000000000000000000000000000000000000000000000000000000000000000000000000000000000000000000000000000000000000000000000000000000000000000000000F5F5F5F500000000000000F5F5F5F50000
310
0000000000F5F5F5F5000000000000000000000000000F0000002D00000000000000000000000000000000000000000000000000000000000000000000000000000000000000000000000000000000000000000000000000000000000000000000000000000000000000000000000000000000000000000000000000000000
310
000000000000000000000000000000002D000000000F000000000000000000000000000000000000000000000000000000000000000000000000000000000000000000000000000000000000000000000000000000000000000000000000000000000000000000000000000000000000000000F5F5F5F5F5F5F5F5F5F5F5F5
310
F5F5F5F5F5F5F5F5000000000000000000000000000000000F0000002D0000000000000000000000000000000000000000000000000000000000000000000000000000000000000000000000000000000000000000000000000000000000000000000000000000000000000000000000000000000000000000000000000000
310
0000000000000000000000000000000000002D000000000F0000000000000000000000000000000000000000F5F5F5F5F5F5F5F5F5F50000000000000000000000000000000000000000000000000000000000F5F5F5F5F5F5F5F5F5F5000000000000000000000000000000000000000000000000F500000000000000F5F5
310
F5F500000000000000F5000000000000000000000000000000000F0000002D000000000000000000000000000000000000000000000000000000000000000000000000000000000000000000000000000000000000000000000000000000000000000000000000000000000000000000000000000000000000000000000000
310
00000000000000000000000000000000000000002D000000000F0000000000000000000000000000000000000000000000000000000000000000000000000000000000000000000000000000000000000000000000000000000000000000000000000000000000000000000000000000000000000000000000000000000000
310
F5F5F5F50000000000000000000000000000000000000000000000000F0000002D00000000000000000000000000000000000000000000000000000000000000000000000000000000000000000000000000000000000000000000000000000000000000000000000000000000000000000000000000000000000000000000
310
000000000000000000000000000000000000000000002D000000000F000000000000000000000000000000000000000000000000000000000000000000000000000000000000000000000000000000000000000000000000000000000000000000000000000000000000000000000000000000000000000000000000000000
310
0000000000000000000000000000000000000000000000000000000000000F0000002D0000000000000000000000000000000000000000000000000000000000000000000000000000000000000000000000000000000000000000000000000000000000000000000000000000000000000000000000000000000000000000
310
0000000000000000000000000000000000000000000000002D000000000F0000000000000000000000000000000000000000000000F5F5F5F50000000000000000000000000000000000000000000000000000000000000000000000F5F5F5F500000000000000000000000000000000000000000000000000000000000000
310
000000F5F5F5F5F50000000000000000000000000000000000000000000000000F0000002D000000000000000000000000000000000000000000000000000000000000000000000000000000000000000000000000000000000000000000000000000000000000000000000000000000000000000000000000000000000000
310
00000000000000000000000000000000000000000000000000002D000000000F0000000000000000000000000000000000000000000000F5F5F5F50000000000000000000000000000000000000000000000000000000000000000000000F5F5F5F50000000000000000000000000000000000000000000000000000000000
310
0000000000F5F5F5F5F50000000000000000000000000000000000000000000000000F0000002D00000000000000000000000000000000000000000000000000000000000000000000000000000000000000000000000000000000000000000000000000000000000000000000000000000000000000000000000000000000
310
000000000000000000000000000000000000000000000000000000002D000000000F000000000000000000000000000000000000000000000000000000000000000000000000000000000000000000000000000000000000000000000000000000000000000000000000000000000000000000000000000000000000000000
310
0000000000000000000000000000000000000000000000000000000000000000000000000F0000002D0000000000000000000000000000000000000000000000000000000000000000000000000000000000000000000000000000000000000000000000000000000000000000000000000000000000000000000000000000
310
0000000000000000000000000000000000000000000000000000000000002D000000000F00000000000000000000000000000000000000000000000000000000000000000000000000000000000000000000000000000000000000000000000000000000000000000000000000000000000000000000000000000000000000
310
00000000000000000000000000000000000000000000000000000000000000000000000000000F0000002D000000000000000000000000000000000000000000000000000000000000000000000000000000000000000000000000000000000000000000000000000000000000000000000000000000000000000000000000
310
00000000000000000000000000000000000000000000000000000000000000002D000000000F0000000000000000000000000000000000000000000000000000000000000000000000000000000000000000000000000000000000000000000000000000000000000000000000000000000000000000000000000000000000
310
000000000000000000000000000000000000000000000000000000000000000000000000000000000F0000002D00000000000000000000000000000000000000000000000000000000000000000000000000000000000000000000000000000000000000000000000000000000000000000000000000000000000000000000
310
000000000000000000000000000000000000000000000000000000000000000000002D000000000F0F0F0F0F0F0F0F0F0F0F0F0F0F0F0F0F0F0F0F0F0F0F0F0F0F0F0F0F0F0F0F0F0F0F0F0F0F0F0F0F0F0F0F0F0F0F0F0F0F0F0F0F0F0F0F0F0F0F0F0F0F0F0F0F0F0F0F0F0F0F0F0F0F0F0F0F0F0F0F0F0F0F0F0F0F0F0F
310
0F0F0F0F0F0F0F0F0F0F0F0F0F0F0F0F0F0F0F0F0F0F0F0F0F0F0F0F0F0F0F0F0F0F0F0F0F0F0F0F0F0F0F0000002D0000000000000000000000000000000000000000000000000000000000000000000000000000000000000000000000000000000000000000000000000000000000000000000000000000000000000000
310
0000000000000000000000000000000000000000000000000000000000000000000000002D000000000000000000000000000000000000000000000000000000000000000000000000000000000000000000000000000000000000000000000000000000000000000000000000000000000000000000000000000000000000
310
0000000000000000000000000000000000000000000000000000000000000000000000000000000000000000000000002D000000000000000000000000000000000000000000000000000000000000000000000000000000000000000000000000000000000000000000000000000000000000000000000000000000000000
310
00000000000000000000000000000000000000000000000000000000000000000000000000002D00000000000000000000000000000000000000000000000000000000000000000000000000000000000000000000000000000000000000000000000000000000000000000000000000000000000000000000000000000000
310
00000000000000000000000000000000000000000000000000000000000000000000000000000000000000000000000000002D00000000000000000000000000000000000000000000000000000000000000000000000000000000000000000000000000000000000000000000000000000000000000000000000000000000
310
000000000000000000000000000000000000000000000000000000000000000000000000000000002D0000000000000000000000000000000000000000000000000000000000000000000000000000000000000000000000000000000000000000000000000000000000000000000000000000000000000000000000000000
310
000000000000000000000000000000000000000000000000000000000000000000000000000000000000000000000000000000002D0000000000000000000000000000000000000000000000000000000000000000000000000000000000000000000000000000000000000000000000000000000000000000000000000000
310
0000000000000000000000000000000000000000000000000000000000000000000000000000000000002D000000000000000000000000000000000000000000000000000000000000000000000000000000000000000000000000000000000000000000000000000000000000000000000000000000000000000000000000
310
0000000000000000000000000000000000000000000000000000000000000000000000000000000000000000000000000000000000002D000000000000000000000000000000000000000000000000000000000000000000000000000000000000000000000000000000000000000000000000000000000000000000000000
310
00000000000000000000000000000000000000000000000000000000000000000000000000000000000000002D2D2D2D2D2D2D2D2D2D2D2D2D2D2D2D2D2D2D2D2D2D2D2D2D2D2D2D2D2D2D2D2D2D2D2D2D2D2D2D2D2D2D2D2D2D2D2D2D2D2D2D2D2D2D2D2D2D2D2D2D2D2D2D2D2D2D2D2D2D2D2D2D2D2D2D2D2D2D2D2D2D2D
310
2D2D2D2D2D2D2D2D2D2D2D2D2D2D2D2D2D2D2D2D2D2D2D2D2D2D2D2D2D2D2D2D2D2D2D2D2D2D2D2D2D2D2D2D2D2D2D2D2D2D2D2D2D2D2D2D2D00000000000000000000000000000000000000000000000000000000000000000000000000000000000000000000000000000000000000000000000000000000000000000000
310
00000000000000000000000000000000000000000000000000000000000000000000000000000000000000000000000000000000000000000000000000000000000000000000000000000000000000000000000000000000000000000000000000000000000000000000000000000000000000000000000000000000000000
310
00000000000000000000000000000000000000000000000000000000000000000000000000000000000000000000000000000000000000000000000000000000000000000000000000000000000000000000000000000000000000000000000000000000000000000000000000000000000000000000000000000000000000
310
00000000000000000000000000000000000000000000000000000000000000000000000000000000000000000000000000000000000000000000000000000000000000000000000000000000000000000000000000000000000000000000000000000000000000000000000000000000000000000000000000000000000000
310
00000000000000000000000000000000000000000000000000000000000000000000000000000000000000000000000000000000000000000000000000000000000000000000000000000000000000000000000000000000000000000000000000000000000000000000000000000000000000000000000000000000000000
310
00000000000000000000000000000000000000000000000000000000000000000000000000000000000000000000000000000000000000000000000000000000000000000000000000000000000000000000000000000000000000000000000000000000000000000000000000000000000000000000000000000000000000
310
00000000000000000000000000000000000000000000000000000000000000000000000000000000000000000000000000000000000000000000000000000000000000000000000000000000000000000000000000000000000000000000000000000000000000000000000000000000000000000000000000000000000000
310
00000000000000000000000000000000000000000000000000000000000000000000000000000000000000000000000000000000000000000000000000000000000000000000000000000000000000000000000000000000000000000000000000000000000000000000000000000000000000000000000000000000000000
310
00000000000000000000000000000000000000000000000000000000000000000000000000000000000000000000000000000000000000000000000000000000000000000000000000000000000000000000000000000000000000000000000000000000000000000000000000000000000000000000000000000000000000
310
00000000000000000000000000000000000000000000000000000000000000000000000000000000000000000000000000000000000000000000000000000000000000000000000000000000000000000000000000000000000000000000000000000000000000000000000000000000000000000000000000000000000000
310
00000000000000000000000000000000000000000000000000000000000000000000000000000000000000000000000000000000000000000000000000000000000000000000000000000000000000000000000000000000000000000000000000000000000000000000000000000000000000000000000000000000000000
310
00000000000000000000000000000000000000000000000000000000000000000000000000000000000000000000000000000000000000000000000000000000000000000000000000000000000000000000000000000000000000000000000000000000000000000000000000000000000000000000000000000000000000
310
00000000000000000000000000000000000000000000000000000000000000000000000000000000000000000000000000000000000000000000000000000000000000000000000000000000000000000000000000000000000000000000000000000000000000000000000000000000000000000000000000000000000000
310
00000000000000000000000000000000000000000000000000000000000000000000000000000000000000000000000000000000000000000000000000000000000000000000000000000000000000000000000000000000000000000000000000000000000000000000000000000000000000000000000000000000000000
310
00000000000000000000000000000000000000000000000000000000000000000000000000000000000000000000000000000000000000000000000000000000000000000000000000000000000000000000000000000000000000000000000000000000000000000000000000000000000000000000000000000000000000
310
00000000000000000000000000000000000000000000000000000000000000000000000000000000000000000000000000000000000000000000000000000000000000000000000000000000000000000000000000000000000000000000000000000000000000000000000000000000000000000000000000000000000000
310
00000000000000000000000000000000000000000000000000000000000000000000000000000000000000000000000000000000000000000000000000000000000000000000000000000000000000000000000000000000000000000000000000000000000000000000000000000000000000000000000000000000000000
310
00000000000000000000000000000000000000000000000000000000000000000000000000000000000000000000000000000000000000000000000000000000000000000000000000000000000000000000000000000000000000000000000000000000000000000000000000000000000000000000000000000000000000
310
00000000000000000000000000000000000000000000000000000000000000000000000000000000000000000000000000000000000000000000000000000000000000000000000000000000000000000000000000000000000000000000000000000000000000000000000000000000000000000000000000000000000000
310
00000000000000000000000000000000
  0
XRECORD
  5
1C
102
{ACAD_REACTORS
330
1A
102
}
330
1A
100
AcDbXrecord
280
     1
270
     1
271
     1
  0
XRECORD
  5
1B
102
{ACAD_REACTORS
330
1A
102
}
330
1A
100
AcDbXrecord
280
     1
270
     1
271
     1
  0
XRECORD
  5
1F
102
{ACAD_REACTORS
330
1A
102
}
330
1A
100
AcDbXrecord
280
     1
270
     1
271
     1
  0
XRECORD
  5
1E
102
{ACAD_REACTORS
330
1A
102
}
330
1A
100
AcDbXrecord
280
     1
270
     1
271
     1
  0
XRECORD
  5
20
102
{ACAD_REACTORS
330
1A
102
}
330
1A
100
AcDbXrecord
280
     1
270
     1
271
     1
  0
XRECORD
  5
1D
102
{ACAD_REACTORS
330
1A
102
}
330
1A
100
AcDbXrecord
280
     1
270
     1
271
     1
  0
XRECORD
  5
14
102
{ACAD_REACTORS
330
12
102
}
330
12
100
AcDbXrecord
280
     1
270
     1
271
     1
  0
XRECORD
  5
13
102
{ACAD_REACTORS
330
12
102
}
330
12
100
AcDbXrecord
280
     1
270
     1
271
     1
  0
XRECORD
  5
17
102
{ACAD_REACTORS
330
12
102
}
330
12
100
AcDbXrecord
280
     1
270
     1
271
     1
  0
XRECORD
  5
16
102
{ACAD_REACTORS
330
12
102
}
330
12
100
AcDbXrecord
280
     1
270
     1
271
     1
  0
XRECORD
  5
18
102
{ACAD_REACTORS
330
12
102
}
330
12
100
AcDbXrecord
280
     1
270
     1
271
     1
  0
XRECORD
  5
15
102
{ACAD_REACTORS
330
12
102
}
330
12
100
AcDbXrecord
280
     1
270
     1
271
     1
  0
XRECORD
  5
24
102
{ACAD_REACTORS
330
22
102
}
330
22
100
AcDbXrecord
280
     1
270
     1
271
     1
  0
XRECORD
  5
23
102
{ACAD_REACTORS
330
22
102
}
330
22
100
AcDbXrecord
280
     1
270
     1
271
     1
  0
XRECORD
  5
27
102
{ACAD_REACTORS
330
22
102
}
330
22
100
AcDbXrecord
280
     1
270
     1
271
     1
  0
XRECORD
  5
26
102
{ACAD_REACTORS
330
22
102
}
330
22
100
AcDbXrecord
280
     1
270
     1
271
     1
  0
XRECORD
  5
28
102
{ACAD_REACTORS
330
22
102
}
330
22
100
AcDbXrecord
280
     1
270
     1
271
     1
  0
XRECORD
  5
25
102
{ACAD_REACTORS
330
22
102
}
330
22
100
AcDbXrecord
280
     1
270
     1
271
     1
  0
CELLSTYLEMAP
  5
1D1A
102
{ACAD_REACTORS
330
ED
102
}
330
ED
100
AcDbCellStyleMap
 90
        3
300
CELLSTYLE
  1
TABLEFORMAT_BEGIN
 90
        5
170
     1
 91
        0
 92
    32768
 62
   257
 93
        1
300
CONTENTFORMAT
  1
CONTENTFORMAT_BEGIN
 90
        0
 91
        0
 92
      512
 93
        0
300

 40
0.0
140
1.0
 94
        5
 62
     0
340
50
144
6.0
309
CONTENTFORMAT_END
171
     1
301
MARGIN
  1
CELLMARGIN_BEGIN
 40
1.5
 40
1.5
 40
1.5
 40
1.5
 40
4.5
 40
4.5
309
CELLMARGIN_END
 94
        6
 95
        1
302
GRIDFORMAT
  1
GRIDFORMAT_BEGIN
 90
        0
 91
        1
 62
     0
 92
       -2
340
0
 93
        0
 40
1.125
309
GRIDFORMAT_END
 95
        2
302
GRIDFORMAT
  1
GRIDFORMAT_BEGIN
 90
        0
 91
        1
 62
     0
 92
       -2
340
0
 93
        0
 40
1.125
309
GRIDFORMAT_END
 95
        4
302
GRIDFORMAT
  1
GRIDFORMAT_BEGIN
 90
        0
 91
        1
 62
     0
 92
       -2
340
0
 93
        0
 40
1.125
309
GRIDFORMAT_END
 95
        8
302
GRIDFORMAT
  1
GRIDFORMAT_BEGIN
 90
        0
 91
        1
 62
     0
 92
       -2
340
0
 93
        0
 40
1.125
309
GRIDFORMAT_END
 95
       16
302
GRIDFORMAT
  1
GRIDFORMAT_BEGIN
 90
        0
 91
        1
 62
     0
 92
       -2
340
0
 93
        0
 40
1.125
309
GRIDFORMAT_END
 95
       32
302
GRIDFORMAT
  1
GRIDFORMAT_BEGIN
 90
        0
 91
        1
 62
     0
 92
       -2
340
0
 93
        0
 40
1.125
309
GRIDFORMAT_END
309
TABLEFORMAT_END
  1
CELLSTYLE_BEGIN
 90
        1
 91
        1
300
_TITLE
309
CELLSTYLE_END
300
CELLSTYLE
  1
TABLEFORMAT_BEGIN
 90
        5
170
     1
 91
        0
 92
        0
 62
   257
 93
        1
300
CONTENTFORMAT
  1
CONTENTFORMAT_BEGIN
 90
        0
 91
        0
 92
      512
 93
        0
300

 40
0.0
140
1.0
 94
        5
 62
     0
340
50
144
4.5
309
CONTENTFORMAT_END
171
     1
301
MARGIN
  1
CELLMARGIN_BEGIN
 40
1.5
 40
1.5
 40
1.5
 40
1.5
 40
4.5
 40
4.5
309
CELLMARGIN_END
 94
        6
 95
        1
302
GRIDFORMAT
  1
GRIDFORMAT_BEGIN
 90
        0
 91
        1
 62
     0
 92
       -2
340
0
 93
        0
 40
1.125
309
GRIDFORMAT_END
 95
        2
302
GRIDFORMAT
  1
GRIDFORMAT_BEGIN
 90
        0
 91
        1
 62
     0
 92
       -2
340
0
 93
        0
 40
1.125
309
GRIDFORMAT_END
 95
        4
302
GRIDFORMAT
  1
GRIDFORMAT_BEGIN
 90
        0
 91
        1
 62
     0
 92
       -2
340
0
 93
        0
 40
1.125
309
GRIDFORMAT_END
 95
        8
302
GRIDFORMAT
  1
GRIDFORMAT_BEGIN
 90
        0
 91
        1
 62
     0
 92
       -2
340
0
 93
        0
 40
1.125
309
GRIDFORMAT_END
 95
       16
302
GRIDFORMAT
  1
GRIDFORMAT_BEGIN
 90
        0
 91
        1
 62
     0
 92
       -2
340
0
 93
        0
 40
1.125
309
GRIDFORMAT_END
 95
       32
302
GRIDFORMAT
  1
GRIDFORMAT_BEGIN
 90
        0
 91
        1
 62
     0
 92
       -2
340
0
 93
        0
 40
1.125
309
GRIDFORMAT_END
309
TABLEFORMAT_END
  1
CELLSTYLE_BEGIN
 90
        2
 91
        1
300
_HEADER
309
CELLSTYLE_END
300
CELLSTYLE
  1
TABLEFORMAT_BEGIN
 90
        5
170
     1
 91
        0
 92
        0
 62
   257
 93
        1
300
CONTENTFORMAT
  1
CONTENTFORMAT_BEGIN
 90
        0
 91
        0
 92
      512
 93
        0
300

 40
0.0
140
1.0
 94
        2
 62
     0
340
50
144
4.5
309
CONTENTFORMAT_END
171
     1
301
MARGIN
  1
CELLMARGIN_BEGIN
 40
1.5
 40
1.5
 40
1.5
 40
1.5
 40
4.5
 40
4.5
309
CELLMARGIN_END
 94
        6
 95
        1
302
GRIDFORMAT
  1
GRIDFORMAT_BEGIN
 90
        0
 91
        1
 62
     0
 92
       -2
340
0
 93
        0
 40
1.125
309
GRIDFORMAT_END
 95
        2
302
GRIDFORMAT
  1
GRIDFORMAT_BEGIN
 90
        0
 91
        1
 62
     0
 92
       -2
340
0
 93
        0
 40
1.125
309
GRIDFORMAT_END
 95
        4
302
GRIDFORMAT
  1
GRIDFORMAT_BEGIN
 90
        0
 91
        1
 62
     0
 92
       -2
340
0
 93
        0
 40
1.125
309
GRIDFORMAT_END
 95
        8
302
GRIDFORMAT
  1
GRIDFORMAT_BEGIN
 90
        0
 91
        1
 62
     0
 92
       -2
340
0
 93
        0
 40
1.125
309
GRIDFORMAT_END
 95
       16
302
GRIDFORMAT
  1
GRIDFORMAT_BEGIN
 90
        0
 91
        1
 62
     0
 92
       -2
340
0
 93
        0
 40
1.125
309
GRIDFORMAT_END
 95
       32
302
GRIDFORMAT
  1
GRIDFORMAT_BEGIN
 90
        0
 91
        1
 62
     0
 92
       -2
340
0
 93
        0
 40
1.125
309
GRIDFORMAT_END
309
TABLEFORMAT_END
  1
CELLSTYLE_BEGIN
 90
        3
 91
        2
300
_DATA
309
CELLSTYLE_END
  0
XRECORD
  5
1D27
102
{ACAD_REACTORS
330
1D26
102
}
330
1D26
100
AcDbXrecord
280
     1
102
RTVSPropertyOp0
 70
     1
102
RTVSPropertyOp1
 70
     1
102
RTVSPropertyOp2
 70
     1
102
RTVSPropertyOp3
 70
     1
102
RTVSPropertyOp4
 70
     1
102
RTVSPropertyOp5
 70
     1
102
RTVSPropertyOp6
 70
     1
102
RTVSPropertyOp7
 70
     1
102
RTVSPropertyOp8
 70
     1
102
RTVSPropertyOp9
 70
     1
102
RTVSPropertyOp10
 70
     1
102
RTVSPropertyOp11
 70
     1
102
RTVSPropertyOp12
 70
     1
102
RTVSPropertyOp13
 70
     1
102
RTVSPropertyOp14
 70
     1
102
RTVSPropertyOp15
 70
     1
102
RTVSPropertyOp16
 70
     1
102
RTVSPropertyOp17
 70
     1
102
RTVSPropertyOp18
 70
     1
102
RTVSPropertyOp19
 70
     1
102
RTVSPropertyOp20
 70
     1
102
RTVSPropertyOp21
 70
     1
102
RTVSPropertyOp22
 70
     1
102
RTVSPropertyOp23
 70
     1
102
RTVSPropertyOp24
 70
     1
102
RTVSPropertyOp25
 70
     1
102
RTVSPropertyOp26
 70
     1
102
RTVSPropertyOp27
 70
     1
102
RTVSPropertyOp28
 70
     1
102
RTVSPropertyOp29
 70
     1
102
RTVSPropertyOp30
 70
     1
102
RTVSPropertyOp31
 70
     1
102
RTVSPropertyOp32
 70
     1
  0
XRECORD
  5
1D2B
102
{ACAD_REACTORS
330
1D2A
102
}
330
1D2A
100
AcDbXrecord
280
     1
102
RTVSPropertyOp0
 70
     1
102
RTVSPropertyOp1
 70
     1
102
RTVSPropertyOp2
 70
     1
102
RTVSPropertyOp3
 70
     1
102
RTVSPropertyOp4
 70
     1
102
RTVSPropertyOp5
 70
     1
102
RTVSPropertyOp6
 70
     1
102
RTVSPropertyOp7
 70
     1
102
RTVSPropertyOp8
 70
     1
102
RTVSPropertyOp9
 70
     1
102
RTVSPropertyOp10
 70
     1
102
RTVSPropertyOp11
 70
     1
102
RTVSPropertyOp12
 70
     1
102
RTVSPropertyOp13
 70
     1
102
RTVSPropertyOp14
 70
     1
102
RTVSPropertyOp15
 70
     1
102
RTVSPropertyOp16
 70
     1
102
RTVSPropertyOp17
 70
     1
102
RTVSPropertyOp18
 70
     1
102
RTVSPropertyOp19
 70
     1
102
RTVSPropertyOp20
 70
     1
102
RTVSPropertyOp21
 70
     1
102
RTVSPropertyOp22
 70
     1
102
RTVSPropertyOp23
 70
     1
102
RTVSPropertyOp24
 70
     1
102
RTVSPropertyOp25
 70
     1
102
RTVSPropertyOp26
 70
     1
102
RTVSPropertyOp27
 70
     1
102
RTVSPropertyOp28
 70
     1
102
RTVSPropertyOp29
 70
     1
102
RTVSPropertyOp30
 70
     1
102
RTVSPropertyOp31
 70
     1
102
RTVSPropertyOp32
 70
     1
  0
XRECORD
  5
1D29
102
{ACAD_REACTORS
330
1D28
102
}
330
1D28
100
AcDbXrecord
280
     1
102
RTVSPropertyOp0
 70
     1
102
RTVSPropertyOp1
 70
     1
102
RTVSPropertyOp2
 70
     1
102
RTVSPropertyOp3
 70
     1
102
RTVSPropertyOp4
 70
     1
102
RTVSPropertyOp5
 70
     1
102
RTVSPropertyOp6
 70
     1
102
RTVSPropertyOp7
 70
     1
102
RTVSPropertyOp8
 70
     1
102
RTVSPropertyOp9
 70
     1
102
RTVSPropertyOp10
 70
     1
102
RTVSPropertyOp11
 70
     1
102
RTVSPropertyOp12
 70
     1
102
RTVSPropertyOp13
 70
     1
102
RTVSPropertyOp14
 70
     1
102
RTVSPropertyOp15
 70
     1
102
RTVSPropertyOp16
 70
     1
102
RTVSPropertyOp17
 70
     1
102
RTVSPropertyOp18
 70
     1
102
RTVSPropertyOp19
 70
     1
102
RTVSPropertyOp20
 70
     1
102
RTVSPropertyOp21
 70
     1
102
RTVSPropertyOp22
 70
     1
102
RTVSPropertyOp23
 70
     1
102
RTVSPropertyOp24
 70
     1
102
RTVSPropertyOp25
 70
     1
102
RTVSPropertyOp26
 70
     1
102
RTVSPropertyOp27
 70
     1
102
RTVSPropertyOp28
 70
     1
102
RTVSPropertyOp29
 70
     1
102
RTVSPropertyOp30
 70
     1
102
RTVSPropertyOp31
 70
     1
102
RTVSPropertyOp32
 70
     1
  0
XRECORD
  5
1D25
102
{ACAD_REACTORS
330
1D24
102
}
330
1D24
100
AcDbXrecord
280
     1
102
RTVSPropertyOp0
 70
     1
102
RTVSPropertyOp1
 70
     1
102
RTVSPropertyOp2
 70
     1
102
RTVSPropertyOp3
 70
     1
102
RTVSPropertyOp4
 70
     1
102
RTVSPropertyOp5
 70
     1
102
RTVSPropertyOp6
 70
     1
102
RTVSPropertyOp7
 70
     1
102
RTVSPropertyOp8
 70
     1
102
RTVSPropertyOp9
 70
     1
102
RTVSPropertyOp10
 70
     1
102
RTVSPropertyOp11
 70
     1
102
RTVSPropertyOp12
 70
     1
102
RTVSPropertyOp13
 70
     1
102
RTVSPropertyOp14
 70
     1
102
RTVSPropertyOp15
 70
     1
102
RTVSPropertyOp16
 70
     1
102
RTVSPropertyOp17
 70
     1
102
RTVSPropertyOp18
 70
     1
102
RTVSPropertyOp19
 70
     1
102
RTVSPropertyOp20
 70
     1
102
RTVSPropertyOp21
 70
     1
102
RTVSPropertyOp22
 70
     1
102
RTVSPropertyOp23
 70
     1
102
RTVSPropertyOp24
 70
     1
102
RTVSPropertyOp25
 70
     1
102
RTVSPropertyOp26
 70
     1
102
RTVSPropertyOp27
 70
     1
102
RTVSPropertyOp28
 70
     1
102
RTVSPropertyOp29
 70
     1
102
RTVSPropertyOp30
 70
     1
102
RTVSPropertyOp31
 70
     1
102
RTVSPropertyOp32
 70
     1
  0
XRECORD
  5
1D33
102
{ACAD_REACTORS
330
1D32
102
}
330
1D32
100
AcDbXrecord
280
     1
102
RTVSPropertyOp0
 70
     1
102
RTVSPropertyOp1
 70
     1
102
RTVSPropertyOp2
 70
     1
102
RTVSPropertyOp3
 70
     1
102
RTVSPropertyOp4
 70
     1
102
RTVSPropertyOp5
 70
     1
102
RTVSPropertyOp6
 70
     1
102
RTVSPropertyOp7
 70
     1
102
RTVSPropertyOp8
 70
     1
102
RTVSPropertyOp9
 70
     1
102
RTVSPropertyOp10
 70
     1
102
RTVSPropertyOp11
 70
     1
102
RTVSPropertyOp12
 70
     1
102
RTVSPropertyOp13
 70
     1
102
RTVSPropertyOp14
 70
     1
102
RTVSPropertyOp15
 70
     1
102
RTVSPropertyOp16
 70
     1
102
RTVSPropertyOp17
 70
     1
102
RTVSPropertyOp18
 70
     1
102
RTVSPropertyOp19
 70
     1
102
RTVSPropertyOp20
 70
     1
102
RTVSPropertyOp21
 70
     1
102
RTVSPropertyOp22
 70
     1
102
RTVSPropertyOp23
 70
     1
102
RTVSPropertyOp24
 70
     1
102
RTVSPropertyOp25
 70
     1
102
RTVSPropertyOp26
 70
     1
102
RTVSPropertyOp27
 70
     1
102
RTVSPropertyOp28
 70
     1
102
RTVSPropertyOp29
 70
     1
102
RTVSPropertyOp30
 70
     1
102
RTVSPropertyOp31
 70
     1
102
RTVSPropertyOp32
 70
     1
  0
XRECORD
  5
1D3B
102
{ACAD_REACTORS
330
1D3A
102
}
330
1D3A
100
AcDbXrecord
280
     1
102
RTVSPropertyOp0
 70
     1
102
RTVSPropertyOp1
 70
     1
102
RTVSPropertyOp2
 70
     1
102
RTVSPropertyOp3
 70
     1
102
RTVSPropertyOp4
 70
     1
102
RTVSPropertyOp5
 70
     1
102
RTVSPropertyOp6
 70
     1
102
RTVSPropertyOp7
 70
     1
102
RTVSPropertyOp8
 70
     1
102
RTVSPropertyOp9
 70
     1
102
RTVSPropertyOp10
 70
     1
102
RTVSPropertyOp11
 70
     1
102
RTVSPropertyOp12
 70
     1
102
RTVSPropertyOp13
 70
     1
102
RTVSPropertyOp14
 70
     1
102
RTVSPropertyOp15
 70
     1
102
RTVSPropertyOp16
 70
     1
102
RTVSPropertyOp17
 70
     1
102
RTVSPropertyOp18
 70
     1
102
RTVSPropertyOp19
 70
     1
102
RTVSPropertyOp20
 70
     1
102
RTVSPropertyOp21
 70
     1
102
RTVSPropertyOp22
 70
     1
102
RTVSPropertyOp23
 70
     1
102
RTVSPropertyOp24
 70
     1
102
RTVSPropertyOp25
 70
     1
102
RTVSPropertyOp26
 70
     1
102
RTVSPropertyOp27
 70
     1
102
RTVSPropertyOp28
 70
     1
102
RTVSPropertyOp29
 70
     1
102
RTVSPropertyOp30
 70
     1
102
RTVSPropertyOp31
 70
     1
102
RTVSPropertyOp32
 70
     1
  0
XRECORD
  5
1D2D
102
{ACAD_REACTORS
330
1D2C
102
}
330
1D2C
100
AcDbXrecord
280
     1
102
RTVSPropertyOp0
 70
     1
102
RTVSPropertyOp1
 70
     1
102
RTVSPropertyOp2
 70
     1
102
RTVSPropertyOp3
 70
     1
102
RTVSPropertyOp4
 70
     1
102
RTVSPropertyOp5
 70
     1
102
RTVSPropertyOp6
 70
     1
102
RTVSPropertyOp7
 70
     1
102
RTVSPropertyOp8
 70
     1
102
RTVSPropertyOp9
 70
     1
102
RTVSPropertyOp10
 70
     1
102
RTVSPropertyOp11
 70
     1
102
RTVSPropertyOp12
 70
     1
102
RTVSPropertyOp13
 70
     1
102
RTVSPropertyOp14
 70
     1
102
RTVSPropertyOp15
 70
     1
102
RTVSPropertyOp16
 70
     1
102
RTVSPropertyOp17
 70
     1
102
RTVSPropertyOp18
 70
     1
102
RTVSPropertyOp19
 70
     1
102
RTVSPropertyOp20
 70
     1
102
RTVSPropertyOp21
 70
     1
102
RTVSPropertyOp22
 70
     1
102
RTVSPropertyOp23
 70
     1
102
RTVSPropertyOp24
 70
     1
102
RTVSPropertyOp25
 70
     1
102
RTVSPropertyOp26
 70
     1
102
RTVSPropertyOp27
 70
     1
102
RTVSPropertyOp28
 70
     1
102
RTVSPropertyOp29
 70
     1
102
RTVSPropertyOp30
 70
     1
102
RTVSPropertyOp31
 70
     1
102
RTVSPropertyOp32
 70
     1
  0
XRECORD
  5
1D31
102
{ACAD_REACTORS
330
1D30
102
}
330
1D30
100
AcDbXrecord
280
     1
102
RTVSPropertyOp0
 70
     1
102
RTVSPropertyOp1
 70
     1
102
RTVSPropertyOp2
 70
     1
102
RTVSPropertyOp3
 70
     1
102
RTVSPropertyOp4
 70
     1
102
RTVSPropertyOp5
 70
     1
102
RTVSPropertyOp6
 70
     1
102
RTVSPropertyOp7
 70
     1
102
RTVSPropertyOp8
 70
     1
102
RTVSPropertyOp9
 70
     1
102
RTVSPropertyOp10
 70
     1
102
RTVSPropertyOp11
 70
     1
102
RTVSPropertyOp12
 70
     1
102
RTVSPropertyOp13
 70
     1
102
RTVSPropertyOp14
 70
     1
102
RTVSPropertyOp15
 70
     1
102
RTVSPropertyOp16
 70
     1
102
RTVSPropertyOp17
 70
     1
102
RTVSPropertyOp18
 70
     1
102
RTVSPropertyOp19
 70
     1
102
RTVSPropertyOp20
 70
     1
102
RTVSPropertyOp21
 70
     1
102
RTVSPropertyOp22
 70
     1
102
RTVSPropertyOp23
 70
     1
102
RTVSPropertyOp24
 70
     1
102
RTVSPropertyOp25
 70
     1
102
RTVSPropertyOp26
 70
     1
102
RTVSPropertyOp27
 70
     1
102
RTVSPropertyOp28
 70
     1
102
RTVSPropertyOp29
 70
     1
102
RTVSPropertyOp30
 70
     1
102
RTVSPropertyOp31
 70
     1
102
RTVSPropertyOp32
 70
     1
  0
XRECORD
  5
1D41
102
{ACAD_REACTORS
330
1D40
102
}
330
1D40
100
AcDbXrecord
280
     1
102
RTVSPropertyOp0
 70
     0
102
RTVSPropertyOp1
 70
     0
102
RTVSPropertyOp2
 70
     0
102
RTVSPropertyOp3
 70
     0
102
RTVSPropertyOp4
 70
     0
102
RTVSPropertyOp5
 70
     0
102
RTVSPropertyOp6
 70
     0
102
RTVSPropertyOp7
 70
     0
102
RTVSPropertyOp8
 70
     0
102
RTVSPropertyOp9
 70
     0
102
RTVSPropertyOp10
 70
     0
102
RTVSPropertyOp11
 70
     0
102
RTVSPropertyOp12
 70
     0
102
RTVSPropertyOp13
 70
     0
102
RTVSPropertyOp14
 70
     2
102
RTVSPropertyOp15
 70
     0
102
RTVSPropertyOp16
 70
     0
102
RTVSPropertyOp17
 70
     0
102
RTVSPropertyOp18
 70
     0
102
RTVSPropertyOp19
 70
     0
102
RTVSPropertyOp20
 70
     0
102
RTVSPropertyOp21
 70
     0
102
RTVSPropertyOp22
 70
     0
102
RTVSPropertyOp23
 70
     0
102
RTVSPropertyOp24
 70
     0
102
RTVSPropertyOp25
 70
     0
102
RTVSPropertyOp26
 70
     0
102
RTVSPropertyOp27
 70
     0
102
RTVSPropertyOp28
 70
     1
102
RTVSPropertyOp29
 70
     1
102
RTVSPropertyOp30
 70
     1
102
RTVSPropertyOp31
 70
     1
102
RTVSPropertyOp32
 70
     1
  0
XRECORD
  5
1D39
102
{ACAD_REACTORS
330
1D38
102
}
330
1D38
100
AcDbXrecord
280
     1
102
RTVSPropertyOp0
 70
     1
102
RTVSPropertyOp1
 70
     1
102
RTVSPropertyOp2
 70
     1
102
RTVSPropertyOp3
 70
     1
102
RTVSPropertyOp4
 70
     1
102
RTVSPropertyOp5
 70
     1
102
RTVSPropertyOp6
 70
     1
102
RTVSPropertyOp7
 70
     1
102
RTVSPropertyOp8
 70
     1
102
RTVSPropertyOp9
 70
     1
102
RTVSPropertyOp10
 70
     1
102
RTVSPropertyOp11
 70
     1
102
RTVSPropertyOp12
 70
     1
102
RTVSPropertyOp13
 70
     1
102
RTVSPropertyOp14
 70
     1
102
RTVSPropertyOp15
 70
     1
102
RTVSPropertyOp16
 70
     1
102
RTVSPropertyOp17
 70
     1
102
RTVSPropertyOp18
 70
     1
102
RTVSPropertyOp19
 70
     1
102
RTVSPropertyOp20
 70
     1
102
RTVSPropertyOp21
 70
     1
102
RTVSPropertyOp22
 70
     1
102
RTVSPropertyOp23
 70
     1
102
RTVSPropertyOp24
 70
     1
102
RTVSPropertyOp25
 70
     1
102
RTVSPropertyOp26
 70
     1
102
RTVSPropertyOp27
 70
     1
102
RTVSPropertyOp28
 70
     1
102
RTVSPropertyOp29
 70
     1
102
RTVSPropertyOp30
 70
     1
102
RTVSPropertyOp31
 70
     1
102
RTVSPropertyOp32
 70
     1
  0
XRECORD
  5
1D1D
102
{ACAD_REACTORS
330
1D1C
102
}
330
1D1C
100
AcDbXrecord
280
     1
102
RTVSPropertyOp0
 70
     1
102
RTVSPropertyOp1
 70
     1
102
RTVSPropertyOp2
 70
     1
102
RTVSPropertyOp3
 70
     1
102
RTVSPropertyOp4
 70
     1
102
RTVSPropertyOp5
 70
     1
102
RTVSPropertyOp6
 70
     1
102
RTVSPropertyOp7
 70
     1
102
RTVSPropertyOp8
 70
     1
102
RTVSPropertyOp9
 70
     1
102
RTVSPropertyOp10
 70
     1
102
RTVSPropertyOp11
 70
     1
102
RTVSPropertyOp12
 70
     1
102
RTVSPropertyOp13
 70
     1
102
RTVSPropertyOp14
 70
     1
102
RTVSPropertyOp15
 70
     1
102
RTVSPropertyOp16
 70
     1
102
RTVSPropertyOp17
 70
     1
102
RTVSPropertyOp18
 70
     1
102
RTVSPropertyOp19
 70
     1
102
RTVSPropertyOp20
 70
     1
102
RTVSPropertyOp21
 70
     1
102
RTVSPropertyOp22
 70
     1
102
RTVSPropertyOp23
 70
     1
102
RTVSPropertyOp24
 70
     1
102
RTVSPropertyOp25
 70
     1
102
RTVSPropertyOp26
 70
     1
102
RTVSPropertyOp27
 70
     1
102
RTVSPropertyOp28
 70
     1
102
RTVSPropertyOp29
 70
     1
102
RTVSPropertyOp30
 70
     1
102
RTVSPropertyOp31
 70
     1
102
RTVSPropertyOp32
 70
     1
  0
XRECORD
  5
1D1F
102
{ACAD_REACTORS
330
1D1E
102
}
330
1D1E
100
AcDbXrecord
280
     1
102
RTVSPropertyOp0
 70
     1
102
RTVSPropertyOp1
 70
     1
102
RTVSPropertyOp2
 70
     1
102
RTVSPropertyOp3
 70
     1
102
RTVSPropertyOp4
 70
     1
102
RTVSPropertyOp5
 70
     1
102
RTVSPropertyOp6
 70
     1
102
RTVSPropertyOp7
 70
     1
102
RTVSPropertyOp8
 70
     1
102
RTVSPropertyOp9
 70
     1
102
RTVSPropertyOp10
 70
     1
102
RTVSPropertyOp11
 70
     1
102
RTVSPropertyOp12
 70
     1
102
RTVSPropertyOp13
 70
     1
102
RTVSPropertyOp14
 70
     1
102
RTVSPropertyOp15
 70
     1
102
RTVSPropertyOp16
 70
     1
102
RTVSPropertyOp17
 70
     1
102
RTVSPropertyOp18
 70
     1
102
RTVSPropertyOp19
 70
     1
102
RTVSPropertyOp20
 70
     1
102
RTVSPropertyOp21
 70
     1
102
RTVSPropertyOp22
 70
     1
102
RTVSPropertyOp23
 70
     1
102
RTVSPropertyOp24
 70
     1
102
RTVSPropertyOp25
 70
     1
102
RTVSPropertyOp26
 70
     1
102
RTVSPropertyOp27
 70
     1
102
RTVSPropertyOp28
 70
     1
102
RTVSPropertyOp29
 70
     1
102
RTVSPropertyOp30
 70
     1
102
RTVSPropertyOp31
 70
     1
102
RTVSPropertyOp32
 70
     1
  0
XRECORD
  5
1D21
102
{ACAD_REACTORS
330
1D20
102
}
330
1D20
100
AcDbXrecord
280
     1
102
RTVSPropertyOp0
 70
     1
102
RTVSPropertyOp1
 70
     1
102
RTVSPropertyOp2
 70
     1
102
RTVSPropertyOp3
 70
     1
102
RTVSPropertyOp4
 70
     1
102
RTVSPropertyOp5
 70
     1
102
RTVSPropertyOp6
 70
     1
102
RTVSPropertyOp7
 70
     1
102
RTVSPropertyOp8
 70
     1
102
RTVSPropertyOp9
 70
     1
102
RTVSPropertyOp10
 70
     1
102
RTVSPropertyOp11
 70
     1
102
RTVSPropertyOp12
 70
     1
102
RTVSPropertyOp13
 70
     1
102
RTVSPropertyOp14
 70
     1
102
RTVSPropertyOp15
 70
     1
102
RTVSPropertyOp16
 70
     1
102
RTVSPropertyOp17
 70
     1
102
RTVSPropertyOp18
 70
     1
102
RTVSPropertyOp19
 70
     1
102
RTVSPropertyOp20
 70
     1
102
RTVSPropertyOp21
 70
     1
102
RTVSPropertyOp22
 70
     1
102
RTVSPropertyOp23
 70
     1
102
RTVSPropertyOp24
 70
     1
102
RTVSPropertyOp25
 70
     1
102
RTVSPropertyOp26
 70
     1
102
RTVSPropertyOp27
 70
     1
102
RTVSPropertyOp28
 70
     1
102
RTVSPropertyOp29
 70
     1
102
RTVSPropertyOp30
 70
     1
102
RTVSPropertyOp31
 70
     1
102
RTVSPropertyOp32
 70
     1
  0
XRECORD
  5
1D23
102
{ACAD_REACTORS
330
1D22
102
}
330
1D22
100
AcDbXrecord
280
     1
102
RTVSPropertyOp0
 70
     1
102
RTVSPropertyOp1
 70
     1
102
RTVSPropertyOp2
 70
     1
102
RTVSPropertyOp3
 70
     1
102
RTVSPropertyOp4
 70
     1
102
RTVSPropertyOp5
 70
     1
102
RTVSPropertyOp6
 70
     1
102
RTVSPropertyOp7
 70
     1
102
RTVSPropertyOp8
 70
     1
102
RTVSPropertyOp9
 70
     1
102
RTVSPropertyOp10
 70
     1
102
RTVSPropertyOp11
 70
     1
102
RTVSPropertyOp12
 70
     1
102
RTVSPropertyOp13
 70
     1
102
RTVSPropertyOp14
 70
     1
102
RTVSPropertyOp15
 70
     1
102
RTVSPropertyOp16
 70
     1
102
RTVSPropertyOp17
 70
     1
102
RTVSPropertyOp18
 70
     1
102
RTVSPropertyOp19
 70
     1
102
RTVSPropertyOp20
 70
     1
102
RTVSPropertyOp21
 70
     1
102
RTVSPropertyOp22
 70
     1
102
RTVSPropertyOp23
 70
     1
102
RTVSPropertyOp24
 70
     1
102
RTVSPropertyOp25
 70
     1
102
RTVSPropertyOp26
 70
     1
102
RTVSPropertyOp27
 70
     1
102
RTVSPropertyOp28
 70
     1
102
RTVSPropertyOp29
 70
     1
102
RTVSPropertyOp30
 70
     1
102
RTVSPropertyOp31
 70
     1
102
RTVSPropertyOp32
 70
     1
  0
XRECORD
  5
1D45
102
{ACAD_REACTORS
330
1D44
102
}
330
1D44
100
AcDbXrecord
280
     1
102
RTVSPropertyOp0
 70
     1
102
RTVSPropertyOp1
 70
     1
102
RTVSPropertyOp2
 70
     1
102
RTVSPropertyOp3
 70
     1
102
RTVSPropertyOp4
 70
     1
102
RTVSPropertyOp5
 70
     1
102
RTVSPropertyOp6
 70
     1
102
RTVSPropertyOp7
 70
     1
102
RTVSPropertyOp8
 70
     1
102
RTVSPropertyOp9
 70
     1
102
RTVSPropertyOp10
 70
     1
102
RTVSPropertyOp11
 70
     1
102
RTVSPropertyOp12
 70
     1
102
RTVSPropertyOp13
 70
     1
102
RTVSPropertyOp14
 70
     1
102
RTVSPropertyOp15
 70
     1
102
RTVSPropertyOp16
 70
     1
102
RTVSPropertyOp17
 70
     1
102
RTVSPropertyOp18
 70
     1
102
RTVSPropertyOp19
 70
     1
102
RTVSPropertyOp20
 70
     1
102
RTVSPropertyOp21
 70
     1
102
RTVSPropertyOp22
 70
     1
102
RTVSPropertyOp23
 70
     1
102
RTVSPropertyOp24
 70
     1
102
RTVSPropertyOp25
 70
     1
102
RTVSPropertyOp26
 70
     1
102
RTVSPropertyOp27
 70
     1
102
RTVSPropertyOp28
 70
     1
102
RTVSPropertyOp29
 70
     1
102
RTVSPropertyOp30
 70
     1
102
RTVSPropertyOp31
 70
     1
102
RTVSPropertyOp32
 70
     1
  0
XRECORD
  5
1D3D
102
{ACAD_REACTORS
330
1D3C
102
}
330
1D3C
100
AcDbXrecord
280
     1
102
RTVSPropertyOp0
 70
     0
102
RTVSPropertyOp1
 70
     0
102
RTVSPropertyOp2
 70
     0
102
RTVSPropertyOp3
 70
     0
102
RTVSPropertyOp4
 70
     0
102
RTVSPropertyOp5
 70
     0
102
RTVSPropertyOp6
 70
     0
102
RTVSPropertyOp7
 70
     0
102
RTVSPropertyOp8
 70
     0
102
RTVSPropertyOp9
 70
     0
102
RTVSPropertyOp10
 70
     0
102
RTVSPropertyOp11
 70
     0
102
RTVSPropertyOp12
 70
     0
102
RTVSPropertyOp13
 70
     0
102
RTVSPropertyOp14
 70
     2
102
RTVSPropertyOp15
 70
     0
102
RTVSPropertyOp16
 70
     0
102
RTVSPropertyOp17
 70
     0
102
RTVSPropertyOp18
 70
     0
102
RTVSPropertyOp19
 70
     0
102
RTVSPropertyOp20
 70
     0
102
RTVSPropertyOp21
 70
     0
102
RTVSPropertyOp22
 70
     0
102
RTVSPropertyOp23
 70
     0
102
RTVSPropertyOp24
 70
     0
102
RTVSPropertyOp25
 70
     0
102
RTVSPropertyOp26
 70
     0
102
RTVSPropertyOp27
 70
     0
102
RTVSPropertyOp28
 70
     1
102
RTVSPropertyOp29
 70
     1
102
RTVSPropertyOp30
 70
     1
102
RTVSPropertyOp31
 70
     1
102
RTVSPropertyOp32
 70
     1
  0
XRECORD
  5
1D37
102
{ACAD_REACTORS
330
1D36
102
}
330
1D36
100
AcDbXrecord
280
     1
102
RTVSPropertyOp0
 70
     1
102
RTVSPropertyOp1
 70
     1
102
RTVSPropertyOp2
 70
     1
102
RTVSPropertyOp3
 70
     1
102
RTVSPropertyOp4
 70
     1
102
RTVSPropertyOp5
 70
     1
102
RTVSPropertyOp6
 70
     1
102
RTVSPropertyOp7
 70
     1
102
RTVSPropertyOp8
 70
     1
102
RTVSPropertyOp9
 70
     1
102
RTVSPropertyOp10
 70
     1
102
RTVSPropertyOp11
 70
     1
102
RTVSPropertyOp12
 70
     1
102
RTVSPropertyOp13
 70
     1
102
RTVSPropertyOp14
 70
     1
102
RTVSPropertyOp15
 70
     1
102
RTVSPropertyOp16
 70
     1
102
RTVSPropertyOp17
 70
     1
102
RTVSPropertyOp18
 70
     1
102
RTVSPropertyOp19
 70
     1
102
RTVSPropertyOp20
 70
     1
102
RTVSPropertyOp21
 70
     1
102
RTVSPropertyOp22
 70
     1
102
RTVSPropertyOp23
 70
     1
102
RTVSPropertyOp24
 70
     1
102
RTVSPropertyOp25
 70
     1
102
RTVSPropertyOp26
 70
     1
102
RTVSPropertyOp27
 70
     1
102
RTVSPropertyOp28
 70
     1
102
RTVSPropertyOp29
 70
     1
102
RTVSPropertyOp30
 70
     1
102
RTVSPropertyOp31
 70
     1
102
RTVSPropertyOp32
 70
     1
  0
XRECORD
  5
1D3F
102
{ACAD_REACTORS
330
1D3E
102
}
330
1D3E
100
AcDbXrecord
280
     1
102
RTVSPropertyOp0
 70
     0
102
RTVSPropertyOp1
 70
     0
102
RTVSPropertyOp2
 70
     0
102
RTVSPropertyOp3
 70
     0
102
RTVSPropertyOp4
 70
     0
102
RTVSPropertyOp5
 70
     0
102
RTVSPropertyOp6
 70
     0
102
RTVSPropertyOp7
 70
     0
102
RTVSPropertyOp8
 70
     0
102
RTVSPropertyOp9
 70
     0
102
RTVSPropertyOp10
 70
     0
102
RTVSPropertyOp11
 70
     0
102
RTVSPropertyOp12
 70
     0
102
RTVSPropertyOp13
 70
     0
102
RTVSPropertyOp14
 70
     2
102
RTVSPropertyOp15
 70
     0
102
RTVSPropertyOp16
 70
     0
102
RTVSPropertyOp17
 70
     0
102
RTVSPropertyOp18
 70
     0
102
RTVSPropertyOp19
 70
     0
102
RTVSPropertyOp20
 70
     0
102
RTVSPropertyOp21
 70
     0
102
RTVSPropertyOp22
 70
     0
102
RTVSPropertyOp23
 70
     0
102
RTVSPropertyOp24
 70
     0
102
RTVSPropertyOp25
 70
     0
102
RTVSPropertyOp26
 70
     0
102
RTVSPropertyOp27
 70
     0
102
RTVSPropertyOp28
 70
     1
102
RTVSPropertyOp29
 70
     1
102
RTVSPropertyOp30
 70
     1
102
RTVSPropertyOp31
 70
     1
102
RTVSPropertyOp32
 70
     1
  0
XRECORD
  5
1D2F
102
{ACAD_REACTORS
330
1D2E
102
}
330
1D2E
100
AcDbXrecord
280
     1
102
RTVSPropertyOp0
 70
     1
102
RTVSPropertyOp1
 70
     1
102
RTVSPropertyOp2
 70
     1
102
RTVSPropertyOp3
 70
     1
102
RTVSPropertyOp4
 70
     1
102
RTVSPropertyOp5
 70
     1
102
RTVSPropertyOp6
 70
     1
102
RTVSPropertyOp7
 70
     1
102
RTVSPropertyOp8
 70
     1
102
RTVSPropertyOp9
 70
     1
102
RTVSPropertyOp10
 70
     1
102
RTVSPropertyOp11
 70
     1
102
RTVSPropertyOp12
 70
     1
102
RTVSPropertyOp13
 70
     1
102
RTVSPropertyOp14
 70
     1
102
RTVSPropertyOp15
 70
     1
102
RTVSPropertyOp16
 70
     1
102
RTVSPropertyOp17
 70
     1
102
RTVSPropertyOp18
 70
     1
102
RTVSPropertyOp19
 70
     1
102
RTVSPropertyOp20
 70
     1
102
RTVSPropertyOp21
 70
     1
102
RTVSPropertyOp22
 70
     1
102
RTVSPropertyOp23
 70
     1
102
RTVSPropertyOp24
 70
     1
102
RTVSPropertyOp25
 70
     1
102
RTVSPropertyOp26
 70
     1
102
RTVSPropertyOp27
 70
     1
102
RTVSPropertyOp28
 70
     1
102
RTVSPropertyOp29
 70
     1
102
RTVSPropertyOp30
 70
     1
102
RTVSPropertyOp31
 70
     1
102
RTVSPropertyOp32
 70
     1
  0
XRECORD
  5
1D4F
102
{ACAD_REACTORS
330
1D4E
102
}
330
1D4E
100
AcDbXrecord
280
     1
102
RTVSPropertyOp0
 70
     1
102
RTVSPropertyOp1
 70
     1
102
RTVSPropertyOp2
 70
     1
102
RTVSPropertyOp3
 70
     1
102
RTVSPropertyOp4
 70
     1
102
RTVSPropertyOp5
 70
     1
102
RTVSPropertyOp6
 70
     1
102
RTVSPropertyOp7
 70
     1
102
RTVSPropertyOp8
 70
     1
102
RTVSPropertyOp9
 70
     1
102
RTVSPropertyOp10
 70
     1
102
RTVSPropertyOp11
 70
     1
102
RTVSPropertyOp12
 70
     1
102
RTVSPropertyOp13
 70
     1
102
RTVSPropertyOp14
 70
     1
102
RTVSPropertyOp15
 70
     1
102
RTVSPropertyOp16
 70
     1
102
RTVSPropertyOp17
 70
     1
102
RTVSPropertyOp18
 70
     1
102
RTVSPropertyOp19
 70
     1
102
RTVSPropertyOp20
 70
     1
102
RTVSPropertyOp21
 70
     1
102
RTVSPropertyOp22
 70
     1
102
RTVSPropertyOp23
 70
     1
102
RTVSPropertyOp24
 70
     1
102
RTVSPropertyOp25
 70
     1
102
RTVSPropertyOp26
 70
     1
102
RTVSPropertyOp27
 70
     1
102
RTVSPropertyOp28
 70
     1
102
RTVSPropertyOp29
 70
     1
102
RTVSPropertyOp30
 70
     1
102
RTVSPropertyOp31
 70
     1
102
RTVSPropertyOp32
 70
     1
  0
XRECORD
  5
1D4D
102
{ACAD_REACTORS
330
1D4C
102
}
330
1D4C
100
AcDbXrecord
280
     1
102
RTVSPropertyOp0
 70
     1
102
RTVSPropertyOp1
 70
     1
102
RTVSPropertyOp2
 70
     1
102
RTVSPropertyOp3
 70
     1
102
RTVSPropertyOp4
 70
     1
102
RTVSPropertyOp5
 70
     1
102
RTVSPropertyOp6
 70
     1
102
RTVSPropertyOp7
 70
     1
102
RTVSPropertyOp8
 70
     1
102
RTVSPropertyOp9
 70
     1
102
RTVSPropertyOp10
 70
     1
102
RTVSPropertyOp11
 70
     1
102
RTVSPropertyOp12
 70
     1
102
RTVSPropertyOp13
 70
     1
102
RTVSPropertyOp14
 70
     1
102
RTVSPropertyOp15
 70
     1
102
RTVSPropertyOp16
 70
     1
102
RTVSPropertyOp17
 70
     1
102
RTVSPropertyOp18
 70
     1
102
RTVSPropertyOp19
 70
     1
102
RTVSPropertyOp20
 70
     1
102
RTVSPropertyOp21
 70
     1
102
RTVSPropertyOp22
 70
     1
102
RTVSPropertyOp23
 70
     1
102
RTVSPropertyOp24
 70
     1
102
RTVSPropertyOp25
 70
     1
102
RTVSPropertyOp26
 70
     1
102
RTVSPropertyOp27
 70
     1
102
RTVSPropertyOp28
 70
     1
102
RTVSPropertyOp29
 70
     1
102
RTVSPropertyOp30
 70
     1
102
RTVSPropertyOp31
 70
     1
102
RTVSPropertyOp32
 70
     1
  0
XRECORD
  5
1D47
102
{ACAD_REACTORS
330
1D46
102
}
330
1D46
100
AcDbXrecord
280
     1
102
RTVSPropertyOp0
 70
     1
102
RTVSPropertyOp1
 70
     1
102
RTVSPropertyOp2
 70
     1
102
RTVSPropertyOp3
 70
     1
102
RTVSPropertyOp4
 70
     1
102
RTVSPropertyOp5
 70
     1
102
RTVSPropertyOp6
 70
     1
102
RTVSPropertyOp7
 70
     1
102
RTVSPropertyOp8
 70
     1
102
RTVSPropertyOp9
 70
     1
102
RTVSPropertyOp10
 70
     1
102
RTVSPropertyOp11
 70
     1
102
RTVSPropertyOp12
 70
     1
102
RTVSPropertyOp13
 70
     1
102
RTVSPropertyOp14
 70
     1
102
RTVSPropertyOp15
 70
     1
102
RTVSPropertyOp16
 70
     1
102
RTVSPropertyOp17
 70
     1
102
RTVSPropertyOp18
 70
     1
102
RTVSPropertyOp19
 70
     1
102
RTVSPropertyOp20
 70
     1
102
RTVSPropertyOp21
 70
     1
102
RTVSPropertyOp22
 70
     1
102
RTVSPropertyOp23
 70
     1
102
RTVSPropertyOp24
 70
     1
102
RTVSPropertyOp25
 70
     1
102
RTVSPropertyOp26
 70
     1
102
RTVSPropertyOp27
 70
     1
102
RTVSPropertyOp28
 70
     1
102
RTVSPropertyOp29
 70
     1
102
RTVSPropertyOp30
 70
     1
102
RTVSPropertyOp31
 70
     1
102
RTVSPropertyOp32
 70
     1
  0
XRECORD
  5
1D49
102
{ACAD_REACTORS
330
1D48
102
}
330
1D48
100
AcDbXrecord
280
     1
102
RTVSPropertyOp0
 70
     1
102
RTVSPropertyOp1
 70
     1
102
RTVSPropertyOp2
 70
     1
102
RTVSPropertyOp3
 70
     1
102
RTVSPropertyOp4
 70
     1
102
RTVSPropertyOp5
 70
     1
102
RTVSPropertyOp6
 70
     1
102
RTVSPropertyOp7
 70
     1
102
RTVSPropertyOp8
 70
     1
102
RTVSPropertyOp9
 70
     1
102
RTVSPropertyOp10
 70
     1
102
RTVSPropertyOp11
 70
     1
102
RTVSPropertyOp12
 70
     1
102
RTVSPropertyOp13
 70
     1
102
RTVSPropertyOp14
 70
     1
102
RTVSPropertyOp15
 70
     1
102
RTVSPropertyOp16
 70
     1
102
RTVSPropertyOp17
 70
     1
102
RTVSPropertyOp18
 70
     1
102
RTVSPropertyOp19
 70
     1
102
RTVSPropertyOp20
 70
     1
102
RTVSPropertyOp21
 70
     1
102
RTVSPropertyOp22
 70
     1
102
RTVSPropertyOp23
 70
     1
102
RTVSPropertyOp24
 70
     1
102
RTVSPropertyOp25
 70
     1
102
RTVSPropertyOp26
 70
     1
102
RTVSPropertyOp27
 70
     1
102
RTVSPropertyOp28
 70
     1
102
RTVSPropertyOp29
 70
     1
102
RTVSPropertyOp30
 70
     1
102
RTVSPropertyOp31
 70
     1
102
RTVSPropertyOp32
 70
     1
  0
XRECORD
  5
1D35
102
{ACAD_REACTORS
330
1D34
102
}
330
1D34
100
AcDbXrecord
280
     1
102
RTVSPropertyOp0
 70
     1
102
RTVSPropertyOp1
 70
     1
102
RTVSPropertyOp2
 70
     1
102
RTVSPropertyOp3
 70
     1
102
RTVSPropertyOp4
 70
     1
102
RTVSPropertyOp5
 70
     1
102
RTVSPropertyOp6
 70
     1
102
RTVSPropertyOp7
 70
     1
102
RTVSPropertyOp8
 70
     1
102
RTVSPropertyOp9
 70
     1
102
RTVSPropertyOp10
 70
     1
102
RTVSPropertyOp11
 70
     1
102
RTVSPropertyOp12
 70
     1
102
RTVSPropertyOp13
 70
     1
102
RTVSPropertyOp14
 70
     1
102
RTVSPropertyOp15
 70
     1
102
RTVSPropertyOp16
 70
     1
102
RTVSPropertyOp17
 70
     1
102
RTVSPropertyOp18
 70
     1
102
RTVSPropertyOp19
 70
     1
102
RTVSPropertyOp20
 70
     1
102
RTVSPropertyOp21
 70
     1
102
RTVSPropertyOp22
 70
     1
102
RTVSPropertyOp23
 70
     1
102
RTVSPropertyOp24
 70
     1
102
RTVSPropertyOp25
 70
     1
102
RTVSPropertyOp26
 70
     1
102
RTVSPropertyOp27
 70
     1
102
RTVSPropertyOp28
 70
     1
102
RTVSPropertyOp29
 70
     1
102
RTVSPropertyOp30
 70
     1
102
RTVSPropertyOp31
 70
     1
102
RTVSPropertyOp32
 70
     1
  0
XRECORD
  5
1D43
102
{ACAD_REACTORS
330
1D42
102
}
330
1D42
100
AcDbXrecord
280
     1
102
RTVSPropertyOp0
 70
     1
102
RTVSPropertyOp1
 70
     1
102
RTVSPropertyOp2
 70
     1
102
RTVSPropertyOp3
 70
     1
102
RTVSPropertyOp4
 70
     1
102
RTVSPropertyOp5
 70
     1
102
RTVSPropertyOp6
 70
     1
102
RTVSPropertyOp7
 70
     1
102
RTVSPropertyOp8
 70
     1
102
RTVSPropertyOp9
 70
     1
102
RTVSPropertyOp10
 70
     1
102
RTVSPropertyOp11
 70
     1
102
RTVSPropertyOp12
 70
     1
102
RTVSPropertyOp13
 70
     1
102
RTVSPropertyOp14
 70
     1
102
RTVSPropertyOp15
 70
     1
102
RTVSPropertyOp16
 70
     1
102
RTVSPropertyOp17
 70
     1
102
RTVSPropertyOp18
 70
     1
102
RTVSPropertyOp19
 70
     1
102
RTVSPropertyOp20
 70
     1
102
RTVSPropertyOp21
 70
     1
102
RTVSPropertyOp22
 70
     1
102
RTVSPropertyOp23
 70
     1
102
RTVSPropertyOp24
 70
     1
102
RTVSPropertyOp25
 70
     1
102
RTVSPropertyOp26
 70
     1
102
RTVSPropertyOp27
 70
     1
102
RTVSPropertyOp28
 70
     1
102
RTVSPropertyOp29
 70
     1
102
RTVSPropertyOp30
 70
     1
102
RTVSPropertyOp31
 70
     1
102
RTVSPropertyOp32
 70
     1
  0
XRECORD
  5
1D4B
102
{ACAD_REACTORS
330
1D4A
102
}
330
1D4A
100
AcDbXrecord
280
     1
102
RTVSPropertyOp0
 70
     1
102
RTVSPropertyOp1
 70
     1
102
RTVSPropertyOp2
 70
     1
102
RTVSPropertyOp3
 70
     1
102
RTVSPropertyOp4
 70
     1
102
RTVSPropertyOp5
 70
     1
102
RTVSPropertyOp6
 70
     1
102
RTVSPropertyOp7
 70
     1
102
RTVSPropertyOp8
 70
     1
102
RTVSPropertyOp9
 70
     1
102
RTVSPropertyOp10
 70
     1
102
RTVSPropertyOp11
 70
     1
102
RTVSPropertyOp12
 70
     1
102
RTVSPropertyOp13
 70
     1
102
RTVSPropertyOp14
 70
     1
102
RTVSPropertyOp15
 70
     1
102
RTVSPropertyOp16
 70
     1
102
RTVSPropertyOp17
 70
     1
102
RTVSPropertyOp18
 70
     1
102
RTVSPropertyOp19
 70
     1
102
RTVSPropertyOp20
 70
     1
102
RTVSPropertyOp21
 70
     1
102
RTVSPropertyOp22
 70
     1
102
RTVSPropertyOp23
 70
     1
102
RTVSPropertyOp24
 70
     1
102
RTVSPropertyOp25
 70
     1
102
RTVSPropertyOp26
 70
     1
102
RTVSPropertyOp27
 70
     1
102
RTVSPropertyOp28
 70
     1
102
RTVSPropertyOp29
 70
     1
102
RTVSPropertyOp30
 70
     1
102
RTVSPropertyOp31
 70
     1
102
RTVSPropertyOp32
 70
     1
  0
ENDSEC
  0
EOF
